osu file format v12

[General]
AudioFilename: IT BE ME.mp3
AudioLeadIn: 0
PreviewTime: 139
Countdown: 1
SampleSet: Normal
StackLeniency: 0.7
Mode: 0
LetterboxInBreaks: 1
WidescreenStoryboard: 0

[Editor]
DistanceSpacing: 0.9
BeatDivisor: 4
GridSize: 8

[Metadata]
Title:Witchcraft
TitleUnicode:Witchcraft
Artist:Pendulum
ArtistUnicode:Pendulum
Creator:Lilac
Version:FOR OPHOMOROL
Source:
Tags:hermit527 fillipino youtube ytpmv
BeatmapID:302484
BeatmapSetID:117390

[Difficulty]
HPDrainRate:7
CircleSize:4
OverallDifficulty:7
ApproachRate:8
SliderMultiplier:1.8
SliderTickRate:2

[Events]
//Background and Video events
Video,-43,"IT BE ME.flv"
0,0,"witchcraft_by_kenanomon-d377wzl.jpg",0,0
//Break Periods
//Storyboard Layer 0 (Background)
//Storyboard Layer 1 (Fail)
//Storyboard Layer 2 (Pass)
//Storyboard Layer 3 (Foreground)
//Storyboard Sound Samples
//Background Colour Transformations
3,100,163,162,255

[TimingPoints]
139.655418267056,344.827586206897,4,1,0,100,1,0
22095,344.827586206897,4,1,0,100,1,0

[HitObjects]
144,344,139,1,4,0:0:0:0:
368,344,484,1,8,0:0:0:0:
440,288,656,1,0,0:0:0:0:
504,224,829,1,2,0:0:0:0:
504,136,1001,1,0,0:0:0:0:
440,80,1174,1,10,0:0:0:0:
368,136,1346,1,0,0:0:0:0:
368,224,1518,1,4,0:0:0:0:
512,360,1863,5,8,0:0:0:0:
352,360,2208,2,2,P|216:328|128:208,1,270,2|0,0:0|0:0,0:0:0:0:
120,112,2898,5,4,0:0:0:0:
256,200,3243,1,8,0:0:0:0:
320,152,3415,1,0,0:0:0:0:
320,72,3587,1,2,0:0:0:0:
256,24,3760,1,0,0:0:0:0:
192,72,3932,1,10,0:0:0:0:
192,152,4105,1,0,0:0:0:0:
152,224,4277,2,2,B|152:288|40:288|40:352,1,180,2|8,0:0|0:0,0:0:0:0:
40,224,4794,1,0,0:0:0:0:
40,224,4967,2,2,B|40:288|152:288|152:352,2,180,6|8|4,0:0|0:0|0:0,0:0:0:0:
112,80,6001,5,8,0:0:0:0:
176,32,6173,1,0,0:0:0:0:
216,104,6346,1,2,0:0:0:0:
256,32,6518,1,0,0:0:0:0:
296,104,6691,1,10,0:0:0:0:
336,32,6863,1,0,0:0:0:0:
400,80,7035,1,4,0:0:0:0:
504,192,7380,5,8,0:0:0:0:
352,288,7725,1,2,0:0:0:0:
256,312,7898,1,0,0:0:0:0:
168,288,8070,1,8,0:0:0:0:
256,56,8415,5,4,0:0:0:0:
416,56,8760,1,8,0:0:0:0:
496,56,8932,1,0,0:0:0:0:
456,128,9105,2,2,L|400:208,1,90,2|0,0:0|0:0,0:0:0:0:
352,136,9450,2,2,L|288:224,1,90,10|0,0:0|0:0,0:0:0:0:
256,280,9794,1,4,0:0:0:0:
48,192,10139,1,10,0:0:0:0:
256,192,10484,1,2,0:0:0:0:
480,192,10829,1,10,0:0:0:0:
368,344,11174,5,4,0:0:0:0:
144,344,11519,1,8,0:0:0:0:
72,288,11691,1,0,0:0:0:0:
8,224,11864,1,2,0:0:0:0:
8,136,12036,1,0,0:0:0:0:
72,80,12209,1,10,0:0:0:0:
144,136,12381,1,0,0:0:0:0:
144,224,12553,1,4,0:0:0:0:
0,360,12898,5,8,0:0:0:0:
160,360,13243,2,2,P|296:328|384:208,1,270,2|0,0:0|0:0,0:0:0:0:
392,112,13933,5,4,0:0:0:0:
256,200,14278,1,8,0:0:0:0:
192,152,14450,1,0,0:0:0:0:
192,72,14622,1,2,0:0:0:0:
256,24,14795,1,0,0:0:0:0:
320,72,14967,1,10,0:0:0:0:
320,152,15140,1,0,0:0:0:0:
360,224,15312,2,2,B|360:288|472:288|472:352,1,180,2|8,0:0|0:0,0:0:0:0:
472,224,15829,1,0,0:0:0:0:
472,224,16002,2,2,B|472:288|360:288|360:352,2,180,6|8|4,0:0|0:0|0:0,0:0:0:0:
400,80,17036,5,8,0:0:0:0:
336,32,17208,1,0,0:0:0:0:
296,104,17381,1,2,0:0:0:0:
256,32,17553,1,0,0:0:0:0:
216,104,17726,1,10,0:0:0:0:
176,32,17898,1,0,0:0:0:0:
112,80,18070,1,4,0:0:0:0:
8,192,18415,5,8,0:0:0:0:
160,288,18760,1,2,0:0:0:0:
256,312,18933,1,0,0:0:0:0:
344,288,19105,1,8,0:0:0:0:
256,56,19450,5,4,0:0:0:0:
96,56,19795,1,8,0:0:0:0:
16,56,19967,1,0,0:0:0:0:
56,128,20140,2,2,L|112:208,1,90,2|0,0:0|0:0,0:0:0:0:
160,136,20485,2,2,L|224:224,1,90,10|0,0:0|0:0,0:0:0:0:
256,280,20829,1,4,0:0:0:0:
464,192,21174,1,10,0:0:0:0:
256,192,21519,1,2,0:0:0:0:
32,192,21864,1,10,0:0:0:0:
32,304,22095,5,4,0:0:0:0:
256,352,22612,1,0,0:0:0:0:
328,312,22784,1,2,0:0:0:0:
256,272,22957,1,0,0:0:0:0:
184,232,23129,1,10,0:0:0:0:
256,192,23301,1,0,0:0:0:0:
256,192,23474,1,4,0:0:0:0:
256,32,23819,5,8,0:0:0:0:
381,121,24163,2,2,B|365:90|334:90|303:90|287:129|256:129|224:129|208:90|177:90|146:90|130:121,1,270,2|0,0:0|0:0,0:0:0:0:
88,192,24853,5,4,0:0:0:0:
424,192,25198,1,8,0:0:0:0:
392,264,25370,1,0,0:0:0:0:
328,216,25543,1,2,0:0:0:0:
256,256,25715,1,0,0:0:0:0:
184,216,25888,1,10,0:0:0:0:
120,264,26060,1,0,0:0:0:0:
256,344,26232,5,6,0:0:0:0:
336,96,26577,1,2,0:0:0:0:
336,96,26750,1,0,0:0:0:0:
336,96,26922,2,2,P|288:64|176:96,2,180,6|10|6,0:0|0:0|0:0,0:0:0:0:
496,360,27957,5,8,0:0:0:0:
456,280,28129,1,0,0:0:0:0:
408,216,28301,1,2,0:0:0:0:
336,176,28474,1,0,0:0:0:0:
336,256,28646,1,10,0:0:0:0:
408,216,28819,1,0,0:0:0:0:
448,144,28991,1,4,0:0:0:0:
352,16,29336,5,10,0:0:0:0:
256,124,29681,2,2,B|192:144|192:248|320:216|320:312|248:344,1,270,2|0,0:0|0:0,0:0:0:0:
192,288,30370,5,4,0:0:0:0:
64,192,30715,1,8,0:0:0:0:
104,120,30888,1,0,0:0:0:0:
176,80,31060,1,2,0:0:0:0:
256,64,31232,1,0,0:0:0:0:
336,80,31405,1,10,0:0:0:0:
408,120,31577,1,0,0:0:0:0:
448,192,31750,1,4,0:0:0:0:
304,192,32095,6,0,L|192:192,1,90,2|0,0:0|0:0,0:0:0:0:
128,256,32439,2,0,L|232:296,1,90,2|0,0:0|0:0,0:0:0:0:
304,288,32783,2,0,L|416:248,1,90,2|0,0:0|0:0,0:0:0:0:
480,304,33129,5,4,0:0:0:0:
256,352,33646,1,0,0:0:0:0:
184,312,33818,1,2,0:0:0:0:
256,272,33991,1,0,0:0:0:0:
328,232,34163,1,10,0:0:0:0:
256,192,34335,1,0,0:0:0:0:
256,192,34508,1,4,0:0:0:0:
256,32,34853,5,8,0:0:0:0:
130,121,35197,2,2,B|146:90|177:90|208:90|224:129|256:129|287:129|303:90|334:90|365:90|381:121,1,270,2|0,0:0|0:0,0:0:0:0:
424,192,35887,5,4,0:0:0:0:
88,192,36232,1,8,0:0:0:0:
120,264,36404,1,0,0:0:0:0:
184,216,36577,1,2,0:0:0:0:
256,256,36749,1,0,0:0:0:0:
328,216,36922,1,10,0:0:0:0:
392,264,37094,1,0,0:0:0:0:
256,344,37266,5,6,0:0:0:0:
176,96,37611,1,2,0:0:0:0:
176,96,37784,1,0,0:0:0:0:
176,96,37956,2,2,P|224:64|336:96,2,180,6|10|6,0:0|0:0|0:0,0:0:0:0:
16,360,38991,5,8,0:0:0:0:
56,280,39163,1,0,0:0:0:0:
104,216,39335,1,2,0:0:0:0:
176,176,39508,1,0,0:0:0:0:
176,256,39680,1,10,0:0:0:0:
104,216,39853,1,0,0:0:0:0:
64,144,40025,1,4,0:0:0:0:
160,16,40370,5,10,0:0:0:0:
256,124,40715,2,2,B|320:144|320:248|192:216|192:312|264:344,1,270,2|0,0:0|0:0,0:0:0:0:
320,288,41404,5,4,0:0:0:0:
448,192,41749,1,8,0:0:0:0:
408,120,41922,1,0,0:0:0:0:
336,80,42094,1,2,0:0:0:0:
256,64,42266,1,0,0:0:0:0:
176,80,42439,1,10,0:0:0:0:
104,120,42611,1,0,0:0:0:0:
64,192,42784,1,4,0:0:0:0:
160,328,43129,5,10,0:0:0:0:
160,328,43301,1,0,0:0:0:0:
256,192,43474,1,6,0:0:0:0:
256,192,43646,1,0,0:0:0:0:
352,328,43819,1,6,0:0:0:0:
352,328,43991,1,4,0:0:0:0:
