osu file format v12

[General]
AudioFilename: IT BE ME.mp3
AudioLeadIn: 0
PreviewTime: 139
Countdown: 1
SampleSet: Normal
StackLeniency: 0.7
Mode: 0
LetterboxInBreaks: 1
WidescreenStoryboard: 1

[Editor]
DistanceSpacing: 0.9
BeatDivisor: 4
GridSize: 8

[Metadata]
Title:Witchcraft
TitleUnicode:Witchcraft
Artist:Pendulum
ArtistUnicode:Pendulum
Creator:Lilac
Version:FOR DURUKUU
Source:
Tags:hermit527 fillipino youtube ytpmv
BeatmapID:302498
BeatmapSetID:117390

[Difficulty]
HPDrainRate:3
CircleSize:3
OverallDifficulty:3
ApproachRate:3
SliderMultiplier:1.2
SliderTickRate:2

[Events]
//Background and Video events
Video,-43,"IT BE ME.flv"
0,0,"witchcraft_by_kenanomon-d377wzl.jpg",0,0
//Break Periods
//Storyboard Layer 0 (Background)
//Storyboard Layer 1 (Fail)
//Storyboard Layer 2 (Pass)
//Storyboard Layer 3 (Foreground)
//Storyboard Sound Samples
//Background Colour Transformations
3,100,163,162,255

[TimingPoints]
139.655418267056,344.827586206897,4,1,0,100,1,0
22095,344.827586206897,4,1,0,100,1,0

[HitObjects]
256,352,139,1,4,0:0:0:0:
256,136,829,1,2,0:0:0:0:
200,232,1174,1,10,0:0:0:0:
312,232,1518,1,2,0:0:0:0:
376,24,2208,2,0,L|128:24,1,240,0|4,0:0|0:0,0:0:0:0:
40,216,3587,5,2,0:0:0:0:
120,144,3932,1,10,0:0:0:0:
216,208,4277,2,0,P|176:288|296:208,1,420,4|0,0:0|0:0,0:0:0:0:
256,136,5656,5,6,0:0:0:0:
464,80,6346,1,2,0:0:0:0:
464,192,6691,1,10,0:0:0:0:
464,304,7036,1,4,0:0:0:0:
344,200,7725,2,2,B|312:120|192:120|168:24,1,240,2|6,0:0|0:0,0:0:0:0:
24,192,9105,5,2,0:0:0:0:
128,224,9450,1,10,0:0:0:0:
152,328,9794,2,2,P|224:376|368:328,1,240
256,32,11174,5,4,0:0:0:0:
256,248,11864,1,2,0:0:0:0:
200,152,12209,1,10,0:0:0:0:
312,152,12553,1,2,0:0:0:0:
376,360,13243,2,0,L|128:360,1,240,0|4,0:0|0:0,0:0:0:0:
40,168,14622,5,2,0:0:0:0:
120,240,14967,1,10,0:0:0:0:
216,176,15312,2,0,P|176:96|296:176,1,420,4|0,0:0|0:0,0:0:0:0:
256,248,16691,5,6,0:0:0:0:
464,304,17381,1,2,0:0:0:0:
464,192,17726,1,10,0:0:0:0:
464,88,18070,1,4,0:0:0:0:
344,184,18760,2,2,B|312:264|192:264|168:360,1,240,2|6,0:0|0:0,0:0:0:0:
24,192,20140,5,2,0:0:0:0:
128,160,20485,1,10,0:0:0:0:
152,56,20829,2,2,P|224:8|368:56,1,240
256,248,22095,5,4,0:0:0:0:
256,88,22612,2,2,P|381:153|393:302,1,300,2|4,0:0|0:0,0:0:0:0:
296,344,23819,1,10,0:0:0:0:
192,336,24163,2,2,P|128:248|176:112,1,240,2|6,0:0|0:0,0:0:0:0:
264,8,25370,6,2,P|104:48|32:168,1,300,2|6,0:0|0:0,0:0:0:0:
24,264,26577,1,8,0:0:0:0:
120,312,26922,1,2,0:0:0:0:
216,264,27267,1,8,0:0:0:0:
256,168,27612,5,4,0:0:0:0:
256,352,28129,2,2,L|496:352,1,240,2|0,0:0|0:0,0:0:0:0:
496,272,28991,1,4,0:0:0:0:
496,160,29336,1,10,0:0:0:0:
496,48,29681,1,2,0:0:0:0:
256,192,30370,1,4,0:0:0:0:
328,56,30888,6,2,P|453:121|465:270,1,300,2|4,0:0|0:0,0:0:0:0:
416,360,32095,1,10,0:0:0:0:
320,360,32439,1,2,0:0:0:0:
368,264,32784,1,6,0:0:0:0:
256,264,33129,5,0,0:0:0:0:
256,88,33646,2,2,P|130:153|118:302,1,300,2|4,0:0|0:0,0:0:0:0:
216,344,34853,1,10,0:0:0:0:
320,336,35197,2,2,P|384:248|336:112,1,240,2|6,0:0|0:0,0:0:0:0:
248,8,36404,6,2,P|408:48|480:168,1,300,2|6,0:0|0:0,0:0:0:0:
488,264,37611,1,8,0:0:0:0:
392,312,37956,1,2,0:0:0:0:
296,264,38301,1,8,0:0:0:0:
256,168,38646,5,4,0:0:0:0:
256,352,39163,2,2,L|16:352,1,240,2|0,0:0|0:0,0:0:0:0:
16,272,40025,1,4,0:0:0:0:
16,160,40370,1,10,0:0:0:0:
16,48,40715,1,2,0:0:0:0:
256,192,41405,5,0,0:0:0:0:
264,32,41922,6,2,P|389:97|401:246,1,300,2|0,0:0|0:0,0:0:0:0:
296,216,43129,2,0,P|256:128|216:216,1,240
