osu file format v13

[General]
AudioFilename: Pendulum - Watercolour.mp3
AudioLeadIn: 0
PreviewTime: 89909
Countdown: 0
SampleSet: Normal
StackLeniency: 0.7
Mode: 0
LetterboxInBreaks: 0
WidescreenStoryboard: 0

[Editor]
DistanceSpacing: 1
BeatDivisor: 4
GridSize: 4
TimelineZoom: 1

[Metadata]
Title:Watercolour (Radio Edit)
TitleUnicode:Watercolour (Radio Edit)
Artist:Pendulum
ArtistUnicode:Pendulum
Creator:AlexaBM
Version:Normal
Source:
Tags:immersion dnb drum and bass
BeatmapID:404825
BeatmapSetID:158780

[Difficulty]
HPDrainRate:4
CircleSize:3
OverallDifficulty:4
ApproachRate:5
SliderMultiplier:1
SliderTickRate:1

[Events]
//Background and Video events
0,0,"BG.jpg",0,0
Video,-210,"video.avi"
//Break Periods
2,135373,145008
2,168477,172594
//Storyboard Layer 0 (Background)
//Storyboard Layer 1 (Fail)
//Storyboard Layer 2 (Pass)
//Storyboard Layer 3 (Foreground)
//Storyboard Sound Samples
//Background Colour Transformations
3,100,163,162,255

[TimingPoints]
2760,344.827586206897,4,1,1,100,1,0
3794,-100,4,2,1,67,0,0
24828,-100,4,2,1,70,0,0
35863,-100,4,1,1,80,0,0
41380,-100,4,1,1,85,0,0
44484,-100,4,1,1,84,0,0
44828,-100,4,1,1,88,0,0
45173,-100,4,1,1,92,0,0
46897,-100,4,1,1,100,0,1
46984,-100,4,1,1,100,0,1
57846,-100,4,1,1,100,0,0
57932,-100,4,1,1,100,0,1
68966,-100,4,1,1,80,0,0
91035,-100,4,1,1,100,0,1
101984,-100,4,1,1,100,0,0
102070,-100,4,1,1,100,0,1
113018,-100,4,1,1,100,0,0
113104,-100,4,1,1,90,0,1
113191,-100,4,1,1,90,0,0
124139,-100,4,1,1,90,0,1
124225,-100,4,1,1,90,0,0
146208,-100,4,1,1,67,0,0
146294,-100,4,1,1,67,0,0
165518,-100,4,1,1,67,0,0
173794,-100,4,1,1,67,0,0
179311,-100,4,1,1,100,0,1
190260,-100,4,1,1,100,0,0
190346,-100,4,1,1,100,0,1
201380,-100,4,1,1,100,0,0

[Colours]
Combo1 : 117,174,163
Combo2 : 14,141,197
Combo3 : 82,115,154
Combo4 : 164,164,164

[HitObjects]
136,108,2760,5,6,0:0:0:0:
416,220,3794,2,0,L|380:272,1,50
336,256,4139,2,0,P|292:292|156:256,1,200,2|0,0:0|0:0,0:0:0:0:
80,80,5518,6,0,B|104:36|160:24|160:24|192:72|252:68,1,200,2|0,0:0|0:0,0:0:0:0:
328,248,6897,2,0,B|304:292|248:304|248:304|216:256|156:260,1,200,2|0,0:0|0:0,0:0:0:0:
68,84,8277,5,2,0:0:0:0:
196,236,8966,2,0,P|224:224|256:152,1,100
186,102,9656,2,0,P|277:72|347:135,1,200,2|0,0:0|0:0,0:0:0:0:
405,327,11035,6,0,P|314:357|243:293,1,200,2|0,0:0|0:0,0:0:0:0:
335,252,12070,1,0,0:0:0:0:
352,152,12415,1,2,0:0:0:0:
156,120,13104,1,0,0:0:0:0:
76,180,13449,1,0,0:0:0:0:
88,280,13794,1,2,0:0:0:0:
384,324,14828,6,0,L|404:256,1,50
416,228,15173,2,0,B|444:184|432:132|432:132|368:104|328:132,1,200,2|0,0:0|0:0,0:0:0:0:
256,188,16208,1,0,0:0:0:0:
176,127,16553,2,0,B|144:104|80:132|80:132|68:184|96:228,1,200,2|0,0:0|0:0,0:0:0:0:
264,336,17932,2,0,B|312:359|355:318|355:318|402:359|466:327,1,200,2|2,0:0|0:0,0:0:0:0:
500,144,19311,5,0,0:0:0:0:
304,116,20001,2,0,B|332:172|308:224|308:224|348:264|400:248,1,200,2|2,0:0|0:0,0:0:0:0:
480,216,21035,2,0,P|484:152|452:112,1,100
392,56,21725,1,0,0:0:0:0:
392,56,22070,1,2,0:0:0:0:
204,124,22760,5,0,0:0:0:0:
140,200,23104,1,0,0:0:0:0:
164,296,23449,1,2,0:0:0:0:
360,260,24139,2,0,B|372:208|372:208|368:152,2,100,0|0|2,0:0|0:0|0:0,0:0:0:0:
304,344,25173,5,0,0:0:0:0:
256,256,25518,2,0,P|210:238|163:254,1,100,2|0,0:0|0:0,0:0:0:0:
72,296,26208,1,0,0:0:0:0:
48,200,26553,2,0,P|20:152|20:96,2,100,0|2|0,0:0|0:0|0:0,0:0:0:0:
144,208,27587,1,0,0:0:0:0:
200,124,27932,2,0,L|248:100,2,50,0|0|2,0:0|0:0|0:0,0:0:0:0:
144,208,28622,6,0,L|88:196,1,50
52,172,28966,2,0,P|36:96|76:40,2,150,2|2|0,0:0|0:0|0:0,0:0:0:0:
144,208,30346,2,0,P|160:256|144:324,1,100,2|0,0:0|0:0,0:0:0:0:
224,376,31035,1,2,0:0:0:0:
308,320,31380,6,0,P|354:304|404:310,1,100,0|2,0:0|0:0,0:0:0:0:
492,356,32070,1,0,0:0:0:0:
500,308,32242,2,0,B|540:240|492:192|448:136|500:56,1,250,2|0,0:0|0:0,0:0:0:0:
412,8,33449,1,0,0:0:0:0:
348,84,33794,1,0,0:0:0:0:
348,184,34139,5,0,0:0:0:0:
260,232,34484,2,0,P|220:224|160:132,2,150,2|2|0,0:0|0:0|0:0,0:0:0:0:
348,184,35863,5,8,3:0:0:0:
348,84,36208,1,4,3:0:0:0:
256,40,36553,2,0,L|220:0,2,50,8|8|4,3:0|3:0|3:0,0:0:0:0:
244,140,37242,2,0,P|204:168|140:168,1,100,8|4,3:0|3:0,0:0:0:0:
56,144,37932,2,0,L|24:248,1,100,8|4,3:0|3:0,0:0:0:0:
112,292,38622,6,0,P|184:288|216:304,1,100,8|4,3:0|3:0,0:0:0:0:
300,336,39311,1,8,3:0:0:0:
384,280,39656,1,4,3:0:0:0:
420,188,40001,2,0,P|432:116|412:80,2,100,8|12|8,3:0|3:0|3:0,0:0:0:0:
384,280,41035,1,4,3:0:0:0:
292,240,41380,6,0,P|243:232|197:251,1,100,8|4,3:0|3:0,0:0:0:0:
120,188,42070,2,0,P|74:207|25:199,1,100,8|4,3:0|3:0,0:0:0:0:
65,106,42760,2,0,P|110:87|159:95,2,100,8|4|8,3:0|3:0|3:0,0:0:0:0:
16,192,43794,1,4,3:0:0:0:
60,280,44139,6,0,L|48:380,2,100,8|4|8,3:0|3:0|3:0,0:0:0:0:
116,196,45173,1,4,3:0:0:0:
192,260,45518,2,0,P|256:296|300:288,1,100,8|4,3:0|3:0,0:0:0:0:
380,284,46208,2,0,L|428:260,1,50,8|0,3:0|0:0,0:0:0:0:
432,212,46553,2,0,L|460:168,1,50,4|0,3:0|0:0,0:0:0:0:
492,132,46897,6,0,P|440:72|324:92,1,200,6|0,0:0|0:0,0:0:0:0:
304,184,47932,1,8,0:0:0:0:
228,116,48277,2,0,P|200:68|200:8,1,100,2|8,0:0|0:0,0:0:0:0:
296,40,48966,2,0,P|324:88|324:148,1,100,0|8,0:0|0:0,0:0:0:0:
256,200,49656,6,0,P|204:216|172:256,1,100,2|8,0:0|0:0,0:0:0:0:
124,240,50173,2,0,P|90:276|42:289,1,100,0|2,0:0|0:0,0:0:0:0:
0,260,50691,1,8,0:0:0:0:
8,160,51035,2,0,P|32:112|80:88,2,100,2|8|2,0:0|0:0|0:0,0:0:0:0:
92,212,52070,1,8,0:0:0:0:
180,164,52415,6,0,P|204:92|172:12,2,150,6|0|8,0:0|0:0|0:0,0:0:0:0:
92,212,53794,2,0,P|68:284|100:364,2,150,2|0|8,0:0|0:0|0:0,0:0:0:0:
180,164,55173,6,0,P|216:164|272:196,1,100,2|8,0:0|0:0,0:0:0:0:
284,244,55691,2,0,P|325:271|374:274,1,100,0|2,0:0|0:0,0:0:0:0:
420,252,56208,1,8,0:0:0:0:
476,168,56553,2,0,P|480:108|456:60,1,100,2|8,0:0|0:0,0:0:0:0:
364,84,57242,2,0,P|317:100|268:94,1,100,2|8,0:0|0:0,0:0:0:0:
184,40,57932,6,0,L|132:188,2,150,6|0|8,0:0|0:0|0:0,0:0:0:0:
268,96,59311,1,2,0:0:0:0:
360,56,59656,1,8,0:0:0:0:
444,112,60001,2,0,L|500:120,2,50,0|2|8,0:0|0:0|0:0,0:0:0:0:
360,56,60691,6,0,P|344:96|444:212,1,200,2|0,0:0|0:0,0:0:0:0:
480,296,61725,1,10,0:0:0:0:
384,328,62070,2,0,P|324:308|276:320,1,100,2|8,0:0|0:0,0:0:0:0:
212,248,62760,2,0,P|162:253|117:234,1,100,0|8,0:0|0:0,0:0:0:0:
72,144,63449,6,0,P|124:64|180:56,2,150,6|0|8,0:0|0:0|0:0,0:0:0:0:
132,224,64828,2,0,P|196:224|228:200,1,100,2|8,0:0|0:0,0:0:0:0:
252,164,65346,2,0,P|294:139|343:144,1,100,0|2,0:0|0:0,0:0:0:0:
380,180,65863,1,8,0:0:0:0:
256,192,66208,12,6,68966,0:0:0:0:
338,275,69656,6,0,P|338:323|330:343,2,50,0|2|8,0:0|0:0|0:0,0:0:0:0:
238,259,70346,2,0,B|190:219|198:167|198:167|206:111|158:79,1,200,2|0,0:0|0:0,0:0:0:0:
96,156,71380,1,8,0:0:0:0:
100,256,71725,6,0,P|134:319|165:334,1,100,2|8,0:0|0:0,0:0:0:0:
256,328,72415,2,0,B|304:308|304:308|324:260,1,100,0|8,0:0|0:0,0:0:0:0:
324,164,73104,2,0,L|436:188,1,100,2|8,0:0|0:0,0:0:0:0:
482,103,73794,2,0,L|384:82,1,100,0|8,0:0|0:0,0:0:0:0:
282,87,74484,6,0,P|242:135|242:183,1,100,6|8,0:0|0:0,0:0:0:0:
274,207,75001,2,0,P|265:255|231:290,1,100,0|2,0:0|0:0,0:0:0:0:
182,295,75518,1,8,0:0:0:0:
90,255,75863,2,0,P|74:207|82:155,1,100,2|8,0:0|0:0,0:0:0:0:
162,99,76553,2,0,P|178:147|170:199,1,100,0|8,0:0|0:0,0:0:0:0:
182,295,77242,6,0,P|296:339|330:278,2,200,2|0|2,0:0|0:0|0:0,0:0:0:0:
202,197,78966,1,8,0:0:0:0:
143,115,79311,2,0,L|87:103,2,50,0|2|8,0:0|0:0|0:0,0:0:0:0:
242,105,80001,6,0,P|290:141|266:273,1,200,6|0,0:0|0:0,0:0:0:0:
220,352,81035,1,8,0:0:0:0:
136,300,81380,2,0,L|36:272,1,100,2|8,0:0|0:0,0:0:0:0:
100,192,82070,2,0,L|0:164,1,100,0|8,0:0|0:0,0:0:0:0:
4,64,82760,6,0,L|204:124,1,200,2|0,0:0|0:0,0:0:0:0:
244,132,83622,2,0,P|292:128|312:116,1,50,2|8,0:0|0:0,0:0:0:0:
388,96,84139,2,0,P|436:132|452:180,2,100,0|8|0,0:0|0:0|0:0,0:0:0:0:
300,144,85173,1,8,0:0:0:0:
224,84,85518,6,0,P|172:88|136:124,1,100,6|8,0:0|0:0,0:0:0:0:
148,168,86035,2,0,P|111:200|62:203,1,100,0|2,0:0|0:0,0:0:0:0:
28,240,86553,1,8,0:0:0:0:
72,328,86897,2,0,P|172:304|244:236,1,200,2|0,0:0|0:0,0:0:0:0:
320,176,87932,1,8,0:0:0:0:
408,232,88277,6,0,P|424:288|408:336,1,100,2|8,0:0|0:0,0:0:0:0:
320,364,88966,2,0,P|264:348|216:364,1,100,0|8,0:0|0:0,0:0:0:0:
148,292,89656,2,0,L|108:240,1,50,2|2,0:0|0:0,0:0:0:0:
84,216,90001,2,0,P|140:216|204:96,1,200,8|8,0:0|0:0,0:0:0:0:
132,36,91035,6,0,L|332:108,1,200,6|0,0:0|0:0,0:0:0:0:
392,172,92070,1,8,0:0:0:0:
452,252,92415,2,0,P|364:264|300:216,2,150,2|0|8,0:0|0:0|0:0,0:0:0:0:
496,164,93794,6,0,L|512:56,1,100,2|8,0:0|0:0,0:0:0:0:
412,76,94484,2,0,L|397:174,1,100,0|8,0:0|0:0,0:0:0:0:
336,252,95173,1,2,0:0:0:0:
252,196,95518,1,8,0:0:0:0:
176,260,95863,1,0,0:0:0:0:
96,200,96208,1,8,0:0:0:0:
124,104,96553,6,0,P|160:80|232:96,1,100,6|8,0:0|0:0,0:0:0:0:
252,120,97070,2,0,P|300:125|342:100,1,100,0|2,0:0|0:0,0:0:0:0:
376,60,97587,1,8,0:0:0:0:
468,20,97932,2,0,P|480:72|448:128,1,100,2|8,0:0|0:0,0:0:0:0:
436,212,98622,2,0,L|476:260,2,50,0|2|8,0:0|0:0|0:0,0:0:0:0:
336,204,99311,6,0,B|268:236|268:236|216:300,2,150,2|0|8,0:0|0:0|0:0,0:0:0:0:
352,104,100691,2,0,L|240:152,1,100,2|8,0:0|0:0,0:0:0:0:
164,176,101380,2,0,P|108:172|72:136,1,100,0|8,0:0|0:0,0:0:0:0:
156,80,102070,6,0,P|240:108|260:208,1,200,6|0,0:0|0:0,0:0:0:0:
192,284,103104,1,8,0:0:0:0:
264,352,103449,2,0,P|316:364|368:352,1,100,2|8,0:0|0:0,0:0:0:0:
388,312,103966,2,0,P|436:320|485:308,1,100,0|2,0:0|0:0,0:0:0:0:
500,260,104484,1,8,0:0:0:0:
480,156,104828,6,0,P|444:108|304:120,1,200,2|0,0:0|0:0,0:0:0:0:
280,144,105691,2,0,P|252:172|224:180,1,50,2|8,0:0|0:0,0:0:0:0:
144,184,106208,1,2,0:0:0:0:
55,231,106553,1,8,0:0:0:0:
106,319,106897,1,0,0:0:0:0:
192,269,107242,1,8,0:0:0:0:
252,192,107587,6,0,P|264:144|240:96,1,100,6|8,0:0|0:0,0:0:0:0:
272,56,108104,2,0,P|316:76|364:64,1,100,0|2,0:0|0:0,0:0:0:0:
408,88,108622,1,8,0:0:0:0:
470,165,108966,2,0,B|434:197|374:185|374:185|375:212|346:241,2,150,2|0|8,0:0|0:0|0:0,0:0:0:0:
256,192,110346,12,6,113104,0:0:0:0:
304,208,113794,6,0,L|324:308,1,100,0|8,0:0|0:0,0:0:0:0:
416,348,114484,2,0,L|396:249,1,100,2|8,0:0|0:0,0:0:0:0:
432,156,115173,2,0,L|484:164,2,50,0|2|8,0:0|0:0|0:0,0:0:0:0:
348,100,115863,6,0,P|320:80|244:84,1,100,2|8,0:0|0:0,0:0:0:0:
164,120,116553,1,0,0:0:0:0:
108,36,116897,1,8,0:0:0:0:
12,64,117242,2,0,P|12:148|32:172,2,100,2|8|0,0:0|0:0|0:0,0:0:0:0:
108,36,118277,1,8,0:0:0:0:
204,64,118622,6,0,P|204:148|184:172,1,100,6|8,0:0|0:0,0:0:0:0:
116,219,119311,1,0,0:0:0:0:
84,315,119656,1,8,0:0:0:0:
182,295,120001,2,0,P|214:236|189:148,2,150,2|0|8,0:0|0:0|0:0,0:0:0:0:
80,284,121380,6,0,P|56:244|60:188,1,100,2|8,0:0|0:0,0:0:0:0:
92,96,122070,2,0,L|56:56,2,50,0|2|8,0:0|0:0|0:0,0:0:0:0:
192,108,122760,1,2,0:0:0:0:
287,138,123104,1,8,0:0:0:0:
287,238,123449,1,0,0:0:0:0:
192,269,123794,1,8,0:0:0:0:
133,188,124139,6,0,P|100:124|116:40,2,150,6|0|8,0:0|0:0|0:0,0:0:0:0:
192,268,125518,2,0,P|244:276|292:248,1,100,2|8,0:0|0:0,0:0:0:0:
324,224,126035,2,0,P|368:202|416:211,1,100,0|2,0:0|0:0,0:0:0:0:
436,260,126553,1,8,0:0:0:0:
360,324,126897,5,2,0:0:0:0:
284,256,127242,1,8,0:0:0:0:
212,332,127587,1,0,0:0:0:0:
136,268,127932,1,8,0:0:0:0:
60,332,128277,2,0,P|36:268|52:220,1,100,2|8,0:0|0:0,0:0:0:0:
120,172,128966,2,0,P|124:122|101:78,1,100,0|8,0:0|0:0,0:0:0:0:
16,24,129656,6,0,P|92:56|208:32,1,200,6|0,0:0|0:0,0:0:0:0:
256,32,130518,2,0,L|280:80,1,50,2|8,0:0|0:0,0:0:0:0:
268,176,131035,2,0,P|216:192|172:184,1,100,2|8,0:0|0:0,0:0:0:0:
132,156,131553,2,0,P|83:148|36:164,1,100,0|2,0:0|0:0,0:0:0:0:
20,212,132070,1,8,0:0:0:0:
44,308,132415,5,2,0:0:0:0:
140,340,132760,1,8,0:0:0:0:
240,348,133104,2,0,L|292:332,2,50,0|2|8,0:0|0:0|0:0,0:0:0:0:
256,192,133794,12,6,135173,0:0:0:0:
192,276,146208,6,0,P|160:228|228:120,1,200,4|8,0:0|0:0,0:0:0:0:
316,168,147242,1,0,0:0:0:0:
408,128,147587,2,0,P|440:64|440:36,2,100,0|0|8,0:0|0:0|0:0,0:0:0:0:
220,56,148966,6,0,B|172:88|144:168|184:188|224:216|248:260|232:316|208:360|176:380|88:388|45:352|32:280,1,500,0|0,0:0|0:0,0:0:0:0:
32,192,151035,1,8,0:0:0:0:
64,96,151380,6,0,P|84:40|112:0,2,100,0|0|0,0:0|0:0|0:0,0:0:0:0:
140,168,152415,1,8,0:0:0:0:
340,192,153104,2,0,P|392:224|408:264,1,100,0|0,0:0|0:0,0:0:0:0:
312,288,153794,1,8,0:0:0:0:
240,216,154139,1,0,0:0:0:0:
275,122,154484,6,0,P|419:134|403:263,2,300,0|0|8,0:0|0:0|0:0,0:0:0:0:
227,209,156897,1,0,0:0:0:0:
152,276,157242,6,0,P|100:252|76:116,1,200,0|8,0:0|0:0,0:0:0:0:
172,116,158277,1,0,0:0:0:0:
240,44,158622,2,0,P|292:68|316:204,1,200,0|8,0:0|0:0,0:0:0:0:
252,272,159656,1,0,0:0:0:0:
204,360,160001,6,0,P|267:370|352:268,1,200,0|8,0:0|0:0,0:0:0:0:
252,272,161035,2,0,P|317:285|425:201,1,200,0|0,0:0|0:0,0:0:0:0:
484,136,162070,1,8,0:0:0:0:
412,64,162415,6,0,L|448:20,2,50,0|0|0,0:0|0:0|0:0,0:0:0:0:
316,88,163104,1,0,0:0:0:0:
224,52,163449,1,8,0:0:0:0:
160,128,163794,2,0,P|156:220|172:236,1,100
232,288,164484,1,0,0:0:0:0:
320,244,164828,1,8,0:0:0:0:
192,92,165518,5,6,0:0:0:0:
256,192,165691,12,4,168277,0:0:0:0:
56,160,173794,6,0,P|112:144|164:168,1,100,8|4,3:0|3:0,0:0:0:0:
208,240,174484,2,0,P|255:254|302:237,1,100,8|4,3:0|3:0,0:0:0:0:
355,150,175173,1,8,3:0:0:0:
291,74,175518,1,4,3:0:0:0:
198,111,175863,1,8,3:0:0:0:
205,211,176208,1,4,3:0:0:0:
256,192,176553,12,6,179311,0:0:0:0:
360,295,180001,6,0,P|354:246|328:204,1,100,0|8,0:0|0:0,0:0:0:0:
244,152,180691,2,0,P|192:140|136:156,1,100,2|8,0:0|0:0,0:0:0:0:
124,196,181208,2,0,P|75:206|27:194,1,100,0|2,0:0|0:0,0:0:0:0:
8,148,181725,1,8,0:0:0:0:
60,64,182070,6,0,P|168:24|208:36,2,150,2|0|8,0:0|0:0|0:0,0:0:0:0:
28,160,183449,2,0,L|12:272,1,100,2|8,0:0|0:0,0:0:0:0:
96,316,184139,2,0,L|110:217,1,100,0|8,0:0|0:0,0:0:0:0:
28,160,184828,6,0,P|96:176|224:128,1,200,6|0,0:0|0:0,0:0:0:0:
252,100,185691,2,0,P|296:80|320:80,1,50,2|8,0:0|0:0,0:0:0:0:
392,116,186208,2,0,L|388:216,1,100,2|8,0:0|0:0,0:0:0:0:
340,220,186725,2,0,L|336:320,1,100,0|2,0:0|0:0,0:0:0:0:
304,360,187242,1,8,0:0:0:0:
212,320,187587,6,0,B|164:292|120:304|120:304|100:280|56:276,2,150,2|0|8,0:0|0:0|0:0,0:0:0:0:
304,360,188966,2,0,P|344:324|313:189,1,200,2|0,0:0|0:0,0:0:0:0:
256,272,190001,1,8,0:0:0:0:
208,360,190346,6,0,P|168:324|196:191,1,200,6|0,0:0|0:0,0:0:0:0:
284,148,191380,1,8,0:0:0:0:
380,128,191725,2,0,P|440:148|480:136,1,100,2|8,0:0|0:0,0:0:0:0:
488,188,192242,2,0,P|468:233|476:281,1,100,0|2,0:0|0:0,0:0:0:0:
492,332,192760,1,8,0:0:0:0:
392,328,193104,6,0,L|288:320,1,100,2|8,0:0|0:0,0:0:0:0:
292,268,193622,2,0,L|188:260,1,100,0|2,0:0|0:0,0:0:0:0:
152,232,194139,1,8,0:0:0:0:
52,220,194484,2,0,P|20:172|16:116,1,100,2|8,0:0|0:0,0:0:0:0:
76,52,195173,2,0,P|108:100|112:156,1,100,2|8,0:0|0:0,0:0:0:0:
188,208,195863,6,0,P|256:240|331:191,2,150,6|0|8,0:0|0:0|0:0,0:0:0:0:
136,124,197242,2,0,P|93:170|86:209,1,100,2|8,0:0|0:0,0:0:0:0:
89,256,197760,2,0,P|135:298|174:305,1,100,0|2,0:0|0:0,0:0:0:0:
220,293,198277,1,8,0:0:0:0:
308,244,198622,6,0,P|324:200|312:132,1,100,2|8,0:0|0:0,0:0:0:0:
268,60,199311,1,2,0:0:0:0:
168,48,199656,1,8,0:0:0:0:
256,192,200001,12,6,201380,0:0:0:0:
