osu file format v13

[General]
AudioFilename: Watercolour.mp3
AudioLeadIn: 0
PreviewTime: 142044
Countdown: 0
SampleSet: Normal
StackLeniency: 0.7
Mode: 0
LetterboxInBreaks: 0
EpilepsyWarning: 1
WidescreenStoryboard: 1

[Editor]
Bookmarks: 11006,33074,55143,77212,99281,121350,143419,165488,187557,209626,231695,253764,275833,297902
DistanceSpacing: 1.6
BeatDivisor: 4
GridSize: 4
TimelineZoom: 1

[Metadata]
Title:Watercolour
TitleUnicode:Watercolour
Artist:Pendulum
ArtistUnicode:Pendulum
Creator:Kecco
Version:Insane
Source:
Tags:immersion drum and bass dnb d'n'b quiz-chan qc d33d deed irreversible ultimate lally watercolor lizzy collab collaboration
BeatmapID:569737
BeatmapSetID:109751

[Difficulty]
HPDrainRate:8
CircleSize:4
OverallDifficulty:8
ApproachRate:8.8
SliderMultiplier:2
SliderTickRate:1

[Events]
//Background and Video events
0,0,"BG.jpg",0,0
//Break Periods
2,187763,209003
2,231901,242107
//Storyboard Layer 0 (Background)
//Storyboard Layer 1 (Fail)
//Storyboard Layer 2 (Pass)
//Storyboard Layer 3 (Foreground)
Sprite,Foreground,Centre,"SB\QC.png",320,240 M,0,33074,,130,420 S,0,33074,,0.4 F,0,33074,33247,0,1 F,0,43937,44109,1,0 F,0,55143,55316,0,1 F,0,77040,77212,1,0 F,0,99281,,1 F,0,121350,,0 F,0,143419,,1 F,0,165488,,0 F,0,209626,,1 F,0,231695,,0 F,0,275833,,1 F,0,297902,,0
Sprite,Foreground,Centre,"SB\D33d.png",320,240 M,0,44109,,537,420 S,0,44109,,0.4 F,0,44109,44281,0,1 F,0,54971,55143,1,0 F,0,77212,77385,0,1 F,0,99281,,0 F,0,121350,,1 F,0,143419,,0 F,0,165488,,1 F,0,187557,,0 F,0,242730,,1 F,0,275833,,0
//Storyboard Sound Samples

[TimingPoints]
11012,344.827586206897,4,1,0,100,1,0
33080,-133.333333333333,4,3,0,50,0,0
43253,-133.333333333333,4,1,1,60,0,0
44115,-117.647058823529,4,2,0,50,0,0
46012,-133.333333333333,4,1,1,55,0,0
49632,-125,4,1,1,60,0,0
55149,-200,4,1,0,80,0,0
56184,-200,4,2,1,60,0,0
76874,-200,4,2,1,30,0,0
77218,-142.857142857143,4,2,0,50,0,0
79632,-133.333333333333,4,2,0,50,0,0
79977,-133.333333333333,4,2,0,55,0,0
82563,-133.333333333333,4,2,0,60,0,0
84115,-142.857142857143,4,2,0,60,0,0
84632,-142.857142857143,4,2,0,60,0,0
85494,-133.333333333333,4,2,0,65,0,0
85839,-142.857142857143,4,2,0,65,0,0
87391,-142.857142857143,4,2,0,65,0,0
87908,-100,4,3,0,70,0,0
98943,-117.647058823529,4,1,0,70,0,0
99287,-117.647058823529,4,2,1,80,0,1
120839,-117.647058823529,4,2,1,90,0,0
121356,-100,4,1,0,70,0,0
126874,-100,4,1,0,70,0,0
132391,-100,4,1,0,85,0,0
132412,-100,4,1,0,70,0,0
132908,-100,4,1,0,70,0,0
135149,-100,4,1,0,85,0,0
135171,-100,4,1,0,70,0,0
135667,-100,4,1,0,70,0,0
142563,-100,4,1,1,70,0,0
143425,-100,4,1,1,80,0,1
143512,-100,4,1,1,80,0,1
165494,-100,4,1,1,80,0,0
187046,-100,4,1,0,90,0,0
187563,-200,4,2,1,100,0,0
209632,-200,4,3,1,60,0,0
231701,-111.111111111111,4,2,1,100,0,0
242736,-111.111111111111,4,1,0,70,0,0
252391,-200,4,3,1,40,0,0
252563,-200,4,3,1,45,0,0
252736,-200,4,3,1,50,0,0
252908,-200,4,3,1,55,0,0
253080,-200,4,3,1,60,0,0
253253,-200,4,3,1,65,0,0
253425,-200,4,3,1,70,0,0
253598,-200,4,3,1,75,0,0
253770,-100,4,1,1,80,0,1
253943,-100,4,1,1,70,0,1
264460,-100,4,1,0,85,0,1
264805,-100,4,1,1,70,0,1
275149,-100,4,1,0,85,0,1
275839,-100,4,1,1,80,0,0
297908,-100,4,1,1,80,0,1
297994,-100,4,1,1,80,0,0

[Colours]
Combo1 : 255,15,117
Combo2 : 255,83,83
Combo3 : 255,128,64
Combo4 : 255,255,130
Combo5 : 0,225,113
Combo6 : 94,94,255
Combo7 : 167,79,255
Combo8 : 255,138,255

[HitObjects]
68,128,33080,6,0,B|104:120|104:120|96:80|112:40|152:24,1,150.000005722046,4|0,1:0|0:0,0:0:0:0:
180,96,33598,2,0,P|208:128|312:104,1,150.000005722046,0|2,0:0|0:0,0:0:0:0:
248,64,34115,1,4,0:0:0:0:
472,172,34460,6,0,L|460:252,1,75.0000028610231,4|0,1:3|0:0,0:0:0:0:
372,292,34805,1,0,0:0:0:0:
404,96,34977,2,0,L|392:176,1,75.0000028610231,0|2,1:3|0:0,0:0:0:0:
304,216,35322,1,0,0:0:0:0:
336,24,35494,1,4,0:0:0:0:
264,332,35839,6,0,P|228:348|128:312,1,150.000005722046,4|0,1:3|0:0,0:0:0:0:
196,204,36356,2,0,P|232:188|332:224,1,150.000005722046,0|2,0:3|0:0,0:0:0:0:
356,360,36874,1,0,1:0:0:0:
488,208,37218,6,0,P|500:152|500:116,1,75.0000028610231,4|0,1:3|0:0,0:0:0:0:
492,36,37563,1,0,0:0:0:0:
344,76,37736,2,0,P|292:72|260:70,1,75.0000028610231,8|0,1:3|0:0,0:0:0:0:
184,36,38080,2,0,P|148:56|96:60,1,75.0000028610231,0|2,1:0|0:2,0:0:0:0:
52,228,38598,6,0,P|56:296|96:372,1,150.000005722046,4|2,1:3|0:0,0:0:0:0:
220,236,39115,2,0,P|216:168|176:92,1,150.000005722046,4|0,0:0|1:0,0:0:0:0:
136,236,39632,1,4,3:0:0:0:
324,324,39977,6,0,P|392:336|464:276,1,150.000005722046,4|0,1:3|0:0,0:0:0:0:
352,132,40494,2,0,P|328:204|392:248,1,150.000005722046,4|2,3:0|0:0,0:0:0:0:
400,52,41012,2,0,P|332:40|260:100,1,150.000005722046,4|4,0:0|1:3,0:0:0:0:
256,176,41529,5,0,0:0:0:0:
172,192,41701,1,0,0:0:0:0:
192,72,41874,2,0,P|164:96|120:124,1,75.0000028610231,4|0,3:0|0:0,0:0:0:0:
48,152,42218,1,2,0:0:0:0:
48,152,42391,1,4,0:0:0:0:
95,303,42736,6,0,P|155:344|228:332,1,150.000005722046,4|0,1:3|0:0,0:0:0:0:
256,252,43253,2,0,P|312:292|400:264,1,150.000005722046,0|4,1:0|1:3,2:0:0:0:
472,208,43770,1,6,1:3:0:0:
400,120,43943,1,4,1:3:0:0:
332,208,44115,6,0,L|256:172,1,85.0000016212464,4|0,1:0|3:0,0:0:0:0:
176,136,44460,1,4,3:0:0:0:
176,52,44632,2,0,L|100:16,1,85.0000016212464,4|0,3:0|3:0,0:0:0:0:
20,52,44977,1,8,3:0:0:0:
20,136,45149,2,4,L|96:172,1,85.0000016212464,4|0,3:0|3:0,3:0:0:0:
96,256,45494,5,4,3:0:0:0:
176,220,45667,1,8,3:0:0:0:
256,256,45839,1,8,3:0:0:0:
256,152,46012,1,4,1:0:0:0:
424,216,46356,1,0,1:3:0:0:
424,311,46529,1,4,3:0:0:0:
364,384,46701,1,0,1:3:0:0:
308,316,46874,6,0,L|256:372,1,75.0000028610231,4|0,3:0|3:0,0:0:0:0:
204,316,47218,1,0,3:0:0:0:
152,372,47391,2,0,L|76:372,1,75.0000028610231,4|0,3:0|3:0,0:0:0:0:
23,318,47736,1,8,3:0:0:0:
76,264,47908,2,0,L|152:264,1,75.0000028610231,4|0,3:0|3:0,0:0:0:0:
204,208,48253,5,4,3:0:0:0:
256,152,48425,1,0,3:0:0:0:
308,208,48598,1,0,3:0:0:0:
376,152,48770,1,8,0:3:0:0:
340,68,48943,1,12,0:3:0:0:
256,36,49115,1,12,0:3:0:0:
172,68,49287,1,12,0:3:0:0:
136,152,49460,1,8,1:3:0:0:
88,212,49632,22,0,L|144:268,1,80,4|0,3:0|3:0,0:0:0:0:
144,380,49977,2,0,L|88:324,1,80,4|0,3:0|3:0,0:0:0:0:
200,324,50322,2,0,L|256:268,1,80,4|2,3:0|3:0,0:0:0:0:
256,380,50667,2,0,L|312:324,1,80,4|2,3:0|3:0,0:0:0:0:
424,324,51012,2,0,L|368:380,1,80,0|0,1:0|3:0,0:0:0:0:
368,268,51356,1,0,1:0:0:0:
432,192,51529,1,4,0:0:0:0:
256,16,51874,1,0,0:3:0:0:
256,16,52046,1,8,1:3:0:0:
256,192,52391,12,4,55149,1:0:0:0:
164,332,56184,37,0,0:0:0:0:
164,332,56356,1,0,0:0:0:0:
164,332,56529,2,0,P|256:368|348:332,1,200,2|0,0:0|0:0,0:0:0:0:
208,28,57908,2,0,P|96:128|108:276,1,300,2|0,0:0|0:0,0:0:0:0:
304,356,59287,2,0,P|416:256|404:108,1,300,2|0,0:0|0:0,0:0:0:0:
256,192,60667,1,2,0:0:0:0:
76,276,61356,5,0,0:0:0:0:
20,192,61701,1,0,0:0:0:0:
72,96,62046,2,0,P|164:28|260:24,1,200,2|2,0:0|0:0,0:0:0:0:
380,192,63425,2,0,P|288:260|192:264,1,200,2|0,0:0|0:0,0:0:0:0:
200,376,64460,2,0,P|364:344|472:244,1,300,2|2,0:0|0:0,0:0:0:0:
480,148,65839,1,0,0:0:0:0:
408,60,66184,1,2,0:0:0:0:
256,192,66874,5,0,0:0:0:0:
196,108,67218,1,0,0:0:0:0:
196,108,67391,1,0,0:0:0:0:
196,108,67563,2,0,P|152:192|204:280,1,200,2|0,0:0|0:0,0:0:0:0:
392,16,68943,2,0,P|472:196|380:376,2,400,2|2|0,0:0|0:0|0:0,0:0:0:0:
328,260,72391,6,0,P|292:304|236:328,1,100
204,328,72908,1,0,0:0:0:0:
204,328,73080,1,2,0:0:0:0:
116,276,73425,1,0,0:0:0:0:
140,180,73770,1,0,0:0:0:0:
60,120,74115,2,0,P|108:56|224:24,1,200,2|0,0:0|0:0,0:0:0:0:
256,116,75149,1,2,0:0:0:0:
292,23,75494,2,0,P|404:56|452:120,1,200,0|0,0:0|0:0,0:0:0:0:
256,232,76529,2,0,P|204:232|148:248,1,100,2|4,0:0|0:0,0:0:0:0:
256,376,77218,6,0,P|376:336|448:196,1,279.999991455078,4|0,3:0|1:0,3:0:0:0:
408,72,78253,1,2,3:2:0:0:
368,208,78598,2,0,P|328:272|268:296,1,139.999995727539,8|2,3:0|3:0,0:0:0:0:
200,284,79115,1,0,3:0:0:0:
152,232,79287,1,2,3:2:0:0:
148,160,79460,1,0,3:0:0:0:
188,100,79632,2,0,P|257:75|328:100,1,150.000005722046,8|4,3:0|3:0,0:0:0:0:
312,284,80322,5,2,3:0:0:0:
360,232,80494,1,0,3:2:0:0:
364,160,80667,1,2,3:2:0:0:
216,244,81012,1,0,3:0:0:0:
256,184,81184,1,0,3:0:0:0:
296,124,81356,1,4,3:2:0:0:
296,124,81529,1,2,3:2:0:0:
132,108,81874,2,0,P|112:204|188:300,1,225.000008583069,0|8,1:0|3:0,0:0:0:0:
136,364,82563,2,0,P|80:312|44:248,1,150.000005722046,4|2,3:0|3:0,3:0:0:0:
40,176,83080,1,0,3:0:0:0:
56,104,83253,1,0,3:0:0:0:
100,44,83425,1,2,3:0:0:0:
296,244,83770,5,0,3:0:0:0:
256,184,83943,1,0,3:0:0:0:
216,124,84115,2,0,P|184:176|216:244,1,139.999995727539,4|0,3:2|3:0,3:0:0:0:
256,304,84632,2,0,B|300:332|356:316|356:284|412:268|456:296,1,209.999993591309,0|8,1:0|3:0,0:0:0:0:
504,348,85322,1,0,3:2:0:0:
436,364,85494,1,4,3:0:0:0:
296,244,85839,2,0,P|328:192|296:120,1,139.999995727539,0|2,3:2|3:0,3:0:0:0:
216,244,86529,5,0,3:0:0:0:
176,184,86701,1,0,3:0:0:0:
216,124,86874,1,6,3:2:0:0:
216,124,87046,1,2,3:2:0:0:
256,304,87391,2,0,B|212:332|156:316|156:284|100:268|56:296,1,209.999993591309,0|8,1:0|3:0,0:0:0:0:
8,348,88080,1,0,3:2:0:0:
76,364,88253,1,4,3:0:0:0:
496,320,88598,5,8,1:0:0:0:
400,344,88770,1,8,3:0:0:0:
304,368,88943,1,4,0:0:0:0:
352,280,89115,1,8,3:0:0:0:
400,192,89287,1,8,1:0:0:0:
264,24,89632,1,4,1:1:0:0:
208,232,89977,1,8,1:0:0:0:
112,208,90149,1,8,3:0:0:0:
16,184,90322,1,4,1:2:0:0:
64,272,90494,1,8,3:0:0:0:
112,360,90667,1,8,1:0:0:0:
112,56,91012,6,0,P|200:80|256:168,1,200,4|8,1:3|1:0,0:0:0:0:
296,264,91529,1,8,3:0:0:0:
336,360,91701,1,4,3:0:0:0:
440,360,91874,1,8,3:0:0:0:
400,264,92046,1,8,1:0:0:0:
400,56,92391,2,0,P|312:80|256:168,1,200,4|8,1:0|1:0,0:0:0:0:
216,264,92908,1,8,3:0:0:0:
176,360,93080,1,4,1:2:0:0:
72,360,93253,1,8,3:0:0:0:
112,264,93425,1,8,1:0:0:0:
296,24,93770,6,0,L|384:72,1,100,4|0,3:0|0:0,0:0:0:0:
216,24,94115,2,0,L|128:72,1,100,8|0,1:0|0:0,0:0:0:0:
296,104,94460,2,0,L|344:192,1,100,4|0,3:0|0:0,0:0:0:0:
216,104,94805,2,0,L|168:192,1,100,8|0,1:0|0:0,0:0:0:0:
16,104,95149,2,0,L|64:192,1,100,4|0,1:0|0:0,0:0:0:0:
120,280,95494,1,8,1:0:0:0:
168,368,95667,1,8,0:0:0:0:
208,232,95839,1,4,1:2:0:0:
256,320,96012,1,8,3:0:0:0:
296,184,96184,1,8,1:0:0:0:
216,24,96529,6,0,L|128:72,1,100,4|0,3:0|0:0,0:0:0:0:
296,24,96874,2,0,L|384:72,1,100,8|0,1:0|0:0,0:0:0:0:
216,104,97218,2,0,L|168:192,1,100,4|0,3:0|0:0,0:0:0:0:
296,104,97563,2,0,L|344:192,1,100,8|0,1:0|0:0,0:0:0:0:
256,296,97908,1,4,3:0:0:0:
144,328,98080,1,4,0:0:0:0:
162,344,98167,1,0,0:0:0:0:
184,357,98253,1,8,1:2:0:0:
207,367,98339,1,0,0:0:0:0:
231,373,98425,1,0,0:0:0:0:
256,374,98512,1,0,0:0:0:0:
281,372,98598,1,8,1:2:0:0:
305,366,98684,1,0,0:0:0:0:
328,357,98770,1,0,0:0:0:0:
349,344,98856,1,0,0:0:0:0:
368,328,98943,1,8,1:0:0:0:
148,72,99287,6,0,P|104:64|52:72,1,85.0000016212464,4|2,1:1|0:0,0:0:0:0:
104,160,99632,1,8,1:0:0:0:
200,152,99805,2,0,B|280:180|284:128|368:156,1,170.000003242493,0|0,3:3|1:0,3:0:0:0:
496,252,100322,1,8,1:0:0:0:
384,228,100494,1,0,3:0:0:0:
456,144,100667,2,0,P|456:68|360:32,1,170.000003242493,0|8,1:0|1:0,0:0:0:0:
296,72,101184,2,0,P|284:132|176:160,1,170.000003242493,0|0,3:0|1:0,0:0:0:0:
128,96,101701,2,0,P|180:76|216:80,1,85.0000016212464,8|0,1:0|0:0,0:0:0:0:
88,172,102046,6,0,P|48:128|44:84,1,85.0000016212464,0|2,1:0|2:0,0:0:0:0:
186,154,102391,1,8,1:0:0:0:
172,264,102563,2,0,L|0:252,1,170.000003242493,0|0,3:0|1:0,0:0:0:0:
72,336,103080,2,0,L|168:343,1,85.0000016212464,8|0,1:0|0:0,0:0:0:0:
292,376,103425,1,0,1:0:0:0:
256,160,103770,1,8,1:0:0:0:
0,103,104115,6,0,L|84:120,1,85.0000016212464,0|0,3:0|1:0,0:0:0:0:
239,32,104460,2,0,L|156:16,1,85.0000016212464,8|0,3:1|1:0,0:0:0:0:
192,152,104805,6,0,P|140:216|142:330,1,170.000003242493,4|8,1:0|1:0,0:0:0:0:
232,296,105322,2,0,B|288:304|288:304|336:328|336:328|400:336,1,170.000003242493,0|0,3:0|1:0,0:0:0:0:
364,172,105839,2,0,P|351:214|356:256,1,85.0000016212464,8|0,1:0|0:0,0:0:0:0:
444,220,106184,2,0,P|456:176|376:76,1,170.000003242493,0|8,1:0|1:0,0:0:0:0:
288,36,106701,2,0,P|276:80|356:180,1,170.000003242493,0|0,3:0|1:0,0:0:0:0:
376,264,107218,1,8,1:0:0:0:
296,316,107391,1,0,0:0:0:0:
212,284,107563,6,0,L|196:188,1,85.0000016212464,0|2,1:0|0:0,0:0:0:0:
300,320,107908,1,8,1:0:0:0:
140,336,108080,2,0,P|112:256|112:160,1,170.000003242493,0|0,3:0|1:0,0:0:0:0:
230,106,108598,2,0,P|196:84|172:36,1,85.0000016212464,8|0,1:0|0:0,0:0:0:0:
316,76,108943,2,0,P|320:124|232:196,2,170.000003242493,0|8|0,1:0|1:0|1:0,0:0:0:0:
396,28,109805,1,8,1:2:0:0:
452,104,109977,1,8,1:0:0:0:
408,188,110149,1,0,1:0:0:0:
444,276,110322,6,0,P|376:308|288:256,1,170.000003242493,4|8,1:0|1:0,0:0:0:0:
280,176,110839,2,0,P|280:224|184:280,1,170.000003242493,0|0,3:0|1:0,0:0:0:0:
104,232,111356,2,0,P|56:236|20:224,1,85.0000016212464,8|0,1:0|0:0,0:0:0:0:
0,132,111701,2,0,P|72:160|164:136,1,170.000003242493,0|8,1:0|1:0,0:0:0:0:
220,68,112218,2,0,B|252:92|253:138|253:138|300:128|344:136,1,170.000003242493,0|0,3:0|1:0,0:0:0:0:
388,256,112736,2,0,P|348:264|304:260,1,85.0000016212464,8|0,1:0|0:0,0:0:0:0:
444,192,113080,6,0,P|472:248|420:336,1,170.000003242493,0|8,1:0|1:0,0:0:0:0:
328,320,113598,2,0,P|300:264|352:176,1,170.000003242493,0|0,3:0|1:0,0:0:0:0:
328,320,114115,2,0,L|240:344,1,85.0000016212464,8|0,1:0|0:0,0:0:0:0:
128,260,114460,2,0,L|36:244,1,85.0000016212464,0|0,1:0|0:0,0:0:0:0:
76,156,114805,5,8,1:0:0:0:
160,84,114977,1,0,0:0:0:0:
180,192,115149,1,0,1:0:0:0:
52,136,115322,1,0,1:0:0:0:
192,96,115494,1,8,1:0:0:0:
156,228,115667,1,0,1:0:0:0:
48,100,115839,6,0,L|136:80,2,85.0000016212464,0|2|8,1:0|0:0|1:0,0:0:0:0:
28,192,116356,2,0,L|212:148,1,170.000003242493,0|0,3:0|1:0,0:0:0:0:
288,164,116874,2,0,P|304:200|296:256,1,85.0000016212464,8|0,1:0|0:0,0:0:0:0:
372,108,117218,2,0,P|400:184|392:284,1,170.000003242493,0|8,1:0|1:0,0:0:0:0:
328,336,117736,2,0,B|248:368|248:312|160:340,1,170.000003242493,0|0,3:0|1:0,0:0:0:0:
72,312,118253,2,0,P|108:280|128:244,1,85.0000016212464,8|0,1:0|0:0,0:0:0:0:
120,156,118598,6,0,L|36:132,2,85.0000016212464,0|2|8,1:0|0:0|1:0,0:0:0:0:
212,132,119115,2,0,L|400:176,1,170.000003242493,0|0,3:0|1:0,0:0:0:0:
468,148,119632,2,0,P|484:112|488:60,1,85.0000016212464,8|0,1:0|0:0,0:0:0:0:
396,88,119977,2,0,L|300:68,1,85.0000016212464,0|0,1:0|1:0,0:0:0:0:
332,156,120322,2,0,L|244:188,1,85.0000016212464,8|0,1:0|0:0,0:0:0:0:
212,100,120667,5,2,2:0:0:0:
120,84,120839,1,8,1:0:0:0:
116,176,121012,1,8,1:0:0:0:
48,240,121184,1,0,1:0:0:0:
120,304,121356,6,0,P|256:358|392:304,1,300,4|2,1:0|3:0,0:0:0:0:
344,88,122218,1,8,1:3:0:0:
432,32,122391,2,4,P|480:48|504:88,1,100,8|0,1:2|3:0,0:0:0:0:
504,192,122736,1,4,3:0:0:0:
304,248,123080,2,0,L|256:336,1,100,8|0,1:2|3:0,0:0:0:0:
208,248,123425,1,0,0:0:0:0:
160,336,123598,1,8,3:0:0:0:
112,248,123770,1,12,1:2:0:0:
392,80,124115,6,0,P|256:26|120:80,1,300,4|2,1:0|3:0,0:0:0:0:
256,240,124977,1,8,1:3:0:0:
256,144,125149,1,8,1:2:0:0:
120,304,125494,2,0,P|168:336|208:352,1,100,2|0,1:3|3:0,0:0:0:0:
304,352,125839,2,0,P|360:328|392:304,1,100,8|0,1:2|3:0,0:0:0:0:
444,224,126184,1,2,1:3:0:0:
452,125,126356,1,4,3:0:0:0:
412,36,126529,1,8,0:0:0:0:
172,36,126874,6,0,P|271:34|352:88,1,200,4|0,1:0|1:3,0:0:0:0:
352,192,127391,2,0,B|312:220|264:200|248:184|200:164|160:192,1,200,0|4,1:0|3:0,0:0:0:0:
160,296,127908,2,0,P|338:349|440:192,1,400,4|8,1:2|1:2,0:0:0:0:
304,48,128943,1,10,0:3:0:0:
256,136,129115,1,4,3:0:0:0:
208,48,129287,1,8,1:2:0:0:
352,296,129632,6,0,P|174:349|72:192,1,400,4|8,1:0|1:3,3:0:0:0:
140,120,130494,1,4,3:0:0:0:
208,48,130667,1,8,1:2:0:0:
384,148,131012,2,0,P|332:160|300:192,1,100,4|0,1:0|3:0,0:0:0:0:
212,276,131356,2,0,P|256:296|300:276,1,100,8|0,1:2|3:0,0:0:0:0:
212,188,131701,2,0,P|174:154|128:144,1,100,0|4,1:2|3:0,0:0:0:0:
28,144,132046,1,8,0:0:0:0:
304,8,132391,6,0,P|397:26|440:120,1,200,4|8,0:1|1:2,0:0:0:0:
332,112,132908,2,0,P|351:198|440:256,1,200,2|8,1:3|1:3,0:0:0:0:
512,192,133425,1,8,1:2:0:0:
344,360,133770,1,4,3:0:0:0:
168,264,134115,2,0,L|256:312,1,100,8|0,1:2|3:0,0:0:0:0:
344,168,134460,2,0,L|256:216,1,100,2|0,1:2|3:0,0:0:0:0:
168,72,134805,1,12,0:2:0:0:
224,384,135149,6,0,P|131:366|88:272,1,200,4|8,0:1|1:2,0:0:0:0:
196,280,135667,2,0,P|177:194|80:136,1,200,2|8,1:3|1:3,0:0:0:0:
0,192,136184,1,8,1:2:0:0:
256,192,136529,1,4,3:0:0:0:
152,360,136874,1,8,0:0:0:0:
360,360,137218,1,2,1:3:0:0:
464,192,137563,1,10,0:2:0:0:
340,36,137908,6,0,P|241:34|160:88,1,200,4|0,1:0|1:3,0:0:0:0:
160,192,138425,2,0,B|200:220|248:200|264:184|312:164|352:192,1,200,0|8,1:0|3:0,0:0:0:0:
352,296,138943,2,0,P|174:349|72:192,1,400,4|8,1:2|1:2,0:0:0:0:
208,48,139977,1,10,0:3:0:0:
256,136,140149,1,4,3:0:0:0:
304,48,140322,1,8,1:2:0:0:
456,192,140667,6,0,P|360:214|296:288,1,200,4|8,1:0|1:2,0:0:0:0:
256,376,141184,2,0,P|160:354|96:280,1,200,2|4,3:0|3:0,0:0:0:0:
56,192,141701,1,8,0:2:0:0:
376,256,142046,5,4,1:3:0:0:
256,192,142218,1,4,1:3:0:0:
136,128,142391,1,8,1:3:0:0:
188,16,142563,1,2,3:2:0:0:
217,42,142649,1,0,3:0:0:0:
256,52,142736,1,0,1:2:0:0:
294,42,142822,1,0,3:0:0:0:
324,16,142908,1,8,0:0:0:0:
376,128,143080,1,8,0:0:0:0:
88,300,143425,6,2,P|64:204|120:116,1,200,6|8,0:0|0:0,0:0:0:0:
188,224,143943,2,0,B|296:212|268:284|376:272,1,200,2|4,0:0|0:3,0:0:0:0:
344,176,144460,1,10,0:0:0:0:
228,144,144632,1,0,0:0:0:0:
167,44,144805,2,2,P|80:80|36:180,1,200,6|8,0:0|0:0,0:0:0:0:
168,332,145322,2,0,P|124:268|156:156,1,200,2|4,0:0|0:3,0:0:0:0:
245,73,145839,1,10,0:0:0:0:
366,92,146012,1,0,0:0:0:0:
488,112,146184,6,0,L|472:224,1,100,2|0,0:0|3:0,0:0:0:0:
372,276,146529,1,8,0:0:0:0:
256,240,146701,2,0,P|200:212|72:272,1,200,2|0,1:0|1:0,3:0:0:0:
16,160,147218,2,0,L|0:48,1,100,10|0,0:0|3:0,0:0:0:0:
120,92,147563,2,0,L|136:204,1,100,4|0,0:3|3:0,0:0:0:0:
28,248,147908,1,10,0:0:0:0:
28,248,148080,1,0,3:0:0:0:
124,320,148253,2,0,L|260:304,1,100,2|0,0:0|0:0,0:0:0:0:
424,240,148598,2,0,L|288:224,1,100,10|0,0:0|0:0,0:0:0:0:
204,132,148943,6,2,P|288:92|404:88,1,200,2|8,0:0|0:0,0:0:0:0:
448,288,149460,2,0,P|364:328|248:332,1,200,2|0,0:0|0:0,0:0:0:0:
328,208,149977,1,10,0:0:0:0:
328,208,150149,1,0,3:0:0:0:
244,96,150322,2,2,P|160:56|44:52,1,200,6|8,0:0|0:0,0:0:0:0:
0,252,150839,2,0,P|84:292|200:296,1,200,2|0,0:0|0:0,0:0:0:0:
120,172,151356,1,10,0:0:0:0:
120,172,151529,1,0,3:0:0:0:
0,252,151701,6,0,P|-16:176|48:48,1,200,2|8,0:0|0:0,0:0:0:0:
132,20,152218,2,0,B|228:-4|232:48|332:24,1,200,2|0,0:0|0:0,0:0:0:0:
428,0,152736,1,10,0:0:0:0:
428,0,152908,1,0,0:0:0:0:
444,100,153080,2,0,P|448:164|440:228,1,100,2|0,0:3|3:0,0:0:0:0:
304,360,153425,2,0,P|300:300|308:240,1,100,10|0,0:0|0:0,0:0:0:0:
504,300,153770,2,0,P|440:304|376:296,1,100,2|0,0:0|3:0,0:0:0:0:
244,160,154115,2,0,P|304:156|364:164,1,100,10|2,0:0|0:2,0:0:0:0:
188,240,154460,6,2,P|124:224|84:104,1,200,6|8,0:0|0:0,0:0:0:0:
160,44,154977,2,0,B|260:16|256:76|356:48,1,200,2|0,0:0|0:0,0:0:0:0:
452,12,155494,2,0,L|460:132,1,100,10|0,0:0|0:0,0:0:0:0:
468,212,155839,2,2,P|456:272|328:320,1,200,6|8,0:0|0:0,0:0:0:0:
260,264,156356,2,0,P|248:204|130:152,1,200,2|0,0:0|0:0,0:0:0:0:
162,248,156874,1,10,0:0:0:0:
72,296,157046,1,0,0:0:0:0:
40,204,157218,6,0,P|60:144|44:8,1,200,2|8,0:0|0:0,0:0:0:0:
136,56,157736,2,0,P|216:76|332:56,1,200,2|0,0:0|0:0,0:0:0:0:
416,4,158253,2,0,L|432:112,1,100,10|0,0:0|0:0,0:0:0:0:
448,204,158598,2,0,P|376:224|340:220,1,100,2|0,0:3|0:0,0:0:0:0:
207,152,158943,2,0,B|256:140|256:140|305:152,1,100,10|0,0:0|0:0,0:0:0:0:
160,222,159287,2,0,P|136:224|64:204,1,100,2|0,0:0|0:0,0:0:0:0:
176,52,159632,2,0,P|200:50|272:70,1,100,10|0,0:0|0:0,0:0:0:0:
316,248,159977,6,2,P|296:304|164:336,1,200,6|8,0:0|0:0,0:0:0:0:
216,248,160494,2,0,P|236:192|368:160,1,200,2|0,0:0|0:0,0:0:0:0:
420,308,161012,2,0,P|388:344|340:368,1,100,10|0,0:0|0:0,0:0:0:0:
144,272,161356,2,2,P|136:212|172:76,1,200,2|8,0:0|0:0,0:0:0:0:
432,164,161874,2,0,P|356:216|252:184,1,200,2|0,0:0|0:0,0:0:0:0:
336,112,162391,1,10,0:0:0:0:
336,112,162563,1,0,0:0:0:0:
452,248,162736,6,0,P|396:280|256:272,1,200,2|8,0:0|0:0,0:0:0:0:
196,204,163253,2,0,P|140:172|0:180,1,200,2|0,0:0|0:0,0:0:0:0:
32,284,163770,1,10,0:0:0:0:
136,304,163943,1,0,0:0:0:0:
368,260,164115,6,0,L|408:160,2,100,4|4|8,0:3|0:3|0:0,0:0:0:0:
188,364,164632,5,0,0:0:0:0:
152,356,164718,1,0,0:0:0:0:
120,332,164805,1,0,0:0:0:0:
104,300,164891,1,0,0:0:0:0:
100,264,164977,1,8,0:0:0:0:
108,228,165063,1,0,0:0:0:0:
128,200,165149,5,8,0:0:0:0:
144,168,165236,1,0,0:0:0:0:
148,132,165322,1,0,0:0:0:0:
144,96,165408,1,0,0:0:0:0:
124,68,165494,1,4,0:0:0:0:
336,40,165839,21,8,0:0:0:0:
512,192,166184,2,0,P|433:251|336:248,1,200,2|8,1:3|1:2,3:0:0:0:
336,144,166701,2,0,P|257:85|160:88,1,200,4|2,1:2|3:0,3:0:0:0:
112,176,167218,2,0,P|72:208|24:216,1,100,8|0,1:0|3:0,0:0:0:0:
0,312,167563,22,0,P|79:371|176:368,1,200,2|8,1:3|1:2,3:0:0:0:
176,264,168080,2,0,P|255:205|352:208,1,200,4|2,1:2|3:0,3:0:0:0:
400,296,168598,2,0,P|440:328|488:336,1,100,8|0,1:0|3:0,0:0:0:0:
480,240,168943,6,0,P|476:143|408:72,1,200,2|8,1:3|1:2,3:0:0:0:
352,152,169460,2,0,P|255:155|176:96,1,200,2|2,1:3|3:0,3:0:0:0:
96,152,169977,1,8,1:2:0:0:
256,40,170322,1,2,0:3:0:0:
352,72,170494,1,4,3:0:0:0:
448,40,170667,1,8,1:0:0:0:
344,288,171012,6,0,P|256:328|168:288,1,200,4|8,1:0|1:2,0:0:0:0:
344,200,171701,1,2,1:3:0:0:
256,240,171874,1,4,3:3:0:0:
168,200,172046,1,8,0:0:0:0:
128,112,172218,2,0,P|56:160|24:264,1,200,4|2,1:2|3:0,0:0:0:0:
48,360,172736,1,8,0:0:0:0:
352,208,173080,5,2,3:3:0:0:
256,232,173253,1,4,3:0:0:0:
288,136,173425,1,8,0:0:0:0:
384,112,173598,2,0,P|456:160|488:264,1,200,4|2,1:2|3:0,0:0:0:0:
464,360,174115,1,8,0:0:0:0:
192,240,174460,5,2,0:3:0:0:
256,320,174632,1,4,3:0:0:0:
320,240,174805,1,8,0:0:0:0:
256,160,174977,1,2,3:0:0:0:
192,80,175149,2,0,L|104:128,1,100,4|0,1:0|3:0,0:0:0:0:
16,248,175494,2,0,L|104:200,1,100,8|0,1:0|3:0,0:0:0:0:
192,240,175839,1,2,1:3:0:0:
256,320,176012,1,4,3:3:0:0:
320,240,176184,1,8,0:0:0:0:
376,0,176529,21,4,1:0:0:0:
136,0,176874,1,8,0:0:0:0:
0,192,177218,2,0,P|79:251|176:248,1,200,2|8,1:3|1:2,3:0:0:0:
176,144,177736,2,0,P|255:85|352:88,1,200,2|2,1:3|3:0,3:0:0:0:
400,176,178253,2,0,P|440:208|488:216,1,100,8|0,1:0|3:0,0:0:0:0:
512,312,178598,22,0,P|433:371|336:368,1,200,2|8,1:3|1:2,3:0:0:0:
336,264,179115,2,0,P|257:205|160:208,1,200,2|2,1:3|3:0,3:0:0:0:
112,296,179632,2,0,P|72:328|24:336,1,100,8|0,1:0|3:0,0:0:0:0:
32,240,179977,6,0,P|36:143|104:72,1,200,2|8,1:3|1:2,3:0:0:0:
176,136,180494,1,0,3:0:0:0:
256,72,180667,2,0,P|304:120|344:128,1,100,2|0,3:0|3:0,0:0:0:0:
320,269,181012,2,0,P|328:240|376:192,1,100,2|0,3:0|3:0,0:0:0:0:
178,256,181356,2,0,P|208:264|256:312,1,100,2|4,3:0|3:0,0:0:0:0:
168,352,181701,1,8,0:0:0:0:
432,88,182046,6,0,P|344:24|256:8,1,200,4|8,1:0|0:0,0:0:0:0:
200,208,182736,1,0,0:0:0:0:
256,296,182908,1,4,3:0:0:0:
312,208,183080,1,8,1:2:0:0:
256,120,183253,2,0,P|168:136|80:200,1,200,4|2,1:2|3:0,0:0:0:0:
40,296,183770,1,8,0:0:0:0:
512,280,184115,6,0,P|424:296|336:360,1,200,2|8,1:3|1:2,0:0:0:0:
232,360,184632,2,0,P|296:272|372:224,1,200,4|2,1:2|3:3,0:0:0:0:
472,200,185149,1,8,0:0:0:0:
0,192,185494,6,0,P|88:208|176:272,1,200,2|8,1:3|1:2,0:0:0:0:
256,192,186012,1,8,3:0:0:0:
256,192,186184,1,4,1:3:0:0:
344,32,186356,5,8,3:0:0:0:
325,48,186443,1,8,3:0:0:0:
304,61,186529,1,8,3:0:0:0:
280,69,186615,1,8,3:0:0:0:
255,71,186701,1,0,3:0:0:0:
230,69,186787,1,0,0:0:0:0:
207,61,186874,1,4,3:0:0:0:
185,48,186960,1,8,3:0:0:0:
167,31,187046,1,8,0:0:0:0:
40,64,187218,1,8,0:0:0:0:
256,312,187563,1,4,0:0:0:0:
36,164,209632,6,0,P|24:220|136:316,1,200,4|2,0:0|0:0,0:0:0:0:
204,276,210667,1,0,0:0:0:0:
204,276,211356,1,4,0:0:0:0:
336,336,211701,2,0,P|344:300|344:224,1,100,2|0,0:0|0:2,0:0:0:0:
400,120,212391,6,0,P|336:108|184:108,1,200,4|0,0:2|0:0,0:0:0:0:
88,192,213425,2,0,B|204:188|204:188|304:204,1,200,0|4,0:0|0:0,0:0:0:0:
392,292,214460,1,2,0:0:0:0:
396,296,214805,2,0,B|364:336|256:348|256:244|148:260|112:300,1,300,2|2,0:2|0:0,0:0:0:0:
40,220,216184,1,4,0:0:0:0:
144,192,216529,1,0,0:0:0:0:
320,100,217218,6,0,P|368:132|380:264,1,200,2|4,0:0|0:2,0:0:0:0:
184,308,218598,1,2,0:0:0:0:
184,308,218943,2,0,P|136:276|124:144,1,200,4|0,0:0|0:2,0:0:0:0:
200,80,219977,2,0,P|284:116|388:92,1,200,2|2,0:0|0:2,0:0:0:0:
472,276,221356,5,2,0:0:0:0:
472,276,221701,2,0,P|412:320|276:344,1,200,0|4,0:0|0:0,0:0:0:0:
196,308,222736,1,2,0:0:0:0:
44,180,223425,6,0,P|80:84|180:40,1,200,4|2,0:2|0:0,0:0:0:0:
256,76,224460,2,0,B|352:108|356:48|452:80,1,200,0|4,0:0|0:0,0:0:0:0:
400,168,225494,2,0,P|404:220|432:268,1,100,2|4,0:0|0:2,0:0:0:0:
415,362,226184,2,0,P|464:353|504:324,1,100
364,272,226874,1,0,0:0:0:0:
272,232,227218,1,0,0:0:0:0:
240,320,227563,1,0,0:0:0:0:
140,276,227908,5,4,0:0:0:0:
140,276,228253,1,8,3:2:0:0:
356,96,228943,2,0,P|400:104|484:244,1,200,0|0,1:2|0:0,0:0:0:0:
364,220,229977,2,0,B|264:212|264:212|160:240,1,200,2|0,2:2|0:0,0:0:0:0:
56,192,231012,2,0,P|136:139|172:36,1,200,0|4,0:0|3:2,2:0:0:0:
128,40,242736,6,2,P|88:120|0:132,1,179.999994506836,6|4,1:0|3:0,0:0:0:0:
32,40,243253,1,2,1:0:0:0:
256,344,243770,1,8,1:2:0:0:
384,40,244115,2,2,P|424:120|512:132,1,179.999994506836,6|4,1:0|3:0,0:0:0:0:
480,40,244632,1,2,1:0:0:0:
80,192,245149,1,8,0:2:0:0:
320,280,245494,6,0,P|370:352|456:360,1,179.999994506836,8|4,0:3|1:3,0:0:0:0:
512,280,246012,1,2,1:3:0:0:
256,64,246529,1,8,0:2:0:0:
192,280,246874,2,0,P|142:352|56:360,1,179.999994506836,8|6,0:3|1:3,0:0:0:0:
192,192,247563,2,0,P|256:139|320:192,1,179.999994506836,8|8,1:3|1:2,0:0:0:0:
440,48,248253,5,6,0:0:0:0:
512,336,248598,1,8,0:0:0:0:
512,48,248943,1,8,1:3:0:0:
368,336,249287,1,4,1:3:0:0:
72,48,249632,1,6,0:0:0:0:
0,336,249977,1,8,0:0:0:0:
0,48,250322,1,8,1:3:0:0:
144,336,250667,1,8,0:0:0:0:
216,48,251012,5,4,1:0:0:0:
440,336,251356,1,4,1:0:0:0:
72,336,251701,1,4,1:0:0:0:
296,48,252046,1,4,1:0:0:0:
416,120,252391,5,6,3:0:0:0:
405,142,252477,1,0,0:0:0:0:
389,161,252563,1,8,0:0:0:0:
368,174,252649,1,0,0:0:0:0:
344,181,252736,1,6,0:0:0:0:
319,181,252822,1,0,0:0:0:0:
295,174,252908,1,8,0:0:0:0:
274,161,252994,1,0,0:0:0:0:
256,144,253080,1,6,0:0:0:0:
237,127,253167,1,0,0:0:0:0:
216,113,253253,1,8,0:0:0:0:
193,106,253339,1,0,0:0:0:0:
168,105,253425,1,6,0:0:0:0:
144,112,253512,1,0,0:0:0:0:
123,126,253598,1,0,1:0:0:0:
106,144,253684,1,0,0:0:0:0:
96,168,253770,2,0,P|112:248|216:272,1,200,4|8,1:0|0:0,0:0:0:0:
512,64,254460,5,2,1:3:0:0:
432,120,254632,1,4,3:0:0:0:
336,120,254805,1,8,0:0:0:0:
256,64,254977,2,0,P|177:5|80:8,1,200,4|2,1:2|3:0,0:2:0:0:
0,64,255494,1,8,0:0:0:0:
0,320,255839,5,2,1:3:0:0:
80,376,256012,1,4,3:0:0:0:
176,376,256184,1,8,0:0:0:0:
256,320,256356,2,0,P|335:261|432:264,1,200,4|2,1:2|3:0,0:0:0:0:
512,320,256874,1,8,0:0:0:0:
392,56,257218,6,0,P|479:101|512:192,1,200,4|8,1:3|1:0,3:0:0:0:
464,280,257736,1,0,3:0:0:0:
416,192,257908,2,0,L|328:144,1,100,4|0,1:0|3:0,0:0:0:0:
368,280,258253,2,0,L|280:328,1,100,8|0,1:3|3:0,0:0:0:0:
256,192,258598,1,2,1:3:0:0:
144,280,258770,1,4,1:3:0:0:
32,192,258943,1,10,1:0:0:0:
344,64,259287,6,0,P|256:24|168:64,1,200,4|8,1:0|1:0,0:0:0:0:
160,168,259805,1,0,3:0:0:0:
256,136,259977,1,2,1:3:0:0:
320,216,260149,1,4,3:3:0:0:
416,184,260322,1,8,1:0:0:0:
480,264,260494,6,0,P|412:338|320:368,1,200,4|2,1:2|3:0,0:0:0:0:
208,296,261012,2,0,P|256:285|304:296,1,100,8|2,1:0|3:2,0:0:0:0:
192,368,261356,2,0,P|144:379|96:368,1,100,2|4,1:3|3:0,0:0:0:0:
24,296,261701,1,8,0:0:0:0:
0,192,261874,6,0,P|79:133|176:136,1,200,4|2,1:0|3:2,0:0:0:0:
256,192,262391,1,8,0:0:0:0:
336,248,262563,1,2,3:2:0:0:
256,304,262736,1,2,1:3:0:0:
336,360,262908,1,4,3:0:0:0:
416,304,263080,1,8,0:0:0:0:
304,0,263425,6,0,L|352:88,1,100,4|0,1:0|3:0,0:0:0:0:
208,48,263770,2,0,L|160:136,1,100,8|0,1:3|3:0,0:0:0:0:
300,192,264115,1,2,1:3:0:0:
256,336,264287,1,4,1:3:0:0:
212,192,264460,1,8,1:0:0:0:
512,64,264805,5,4,1:0:0:0:
256,260,265149,1,8,0:0:0:0:
0,64,265494,1,2,1:3:0:0:
80,120,265667,1,4,3:0:0:0:
176,120,265839,1,8,0:0:0:0:
256,64,266012,2,0,P|335:5|432:8,1,200,4|2,1:2|3:2,0:0:0:0:
512,64,266529,1,8,0:0:0:0:
512,320,266874,21,2,1:3:0:0:
432,376,267046,1,4,3:0:0:0:
336,376,267218,1,8,0:0:0:0:
256,320,267391,2,0,P|177:261|80:264,1,200,4|2,1:2|3:2,0:0:0:0:
0,320,267908,1,8,0:0:0:0:
120,56,268253,6,0,P|33:101|0:192,1,200,4|8,1:3|1:0,3:0:0:0:
48,280,268770,1,0,3:0:0:0:
96,192,268943,2,0,L|184:144,1,100,4|0,1:0|3:0,0:0:0:0:
144,280,269287,2,0,L|232:328,1,100,8|0,1:3|3:0,0:0:0:0:
256,192,269632,1,2,1:3:0:0:
368,280,269805,1,4,1:3:0:0:
480,192,269977,1,10,1:0:0:0:
168,64,270322,6,0,P|256:24|344:64,1,200,4|8,1:0|1:0,0:0:0:0:
352,168,270839,1,0,3:0:0:0:
256,136,271012,1,2,1:3:0:0:
192,216,271184,1,4,3:3:0:0:
96,184,271356,1,8,1:0:0:0:
32,264,271529,6,0,P|100:338|192:368,1,200,4|2,1:2|3:2,0:0:0:0:
304,296,272046,2,0,P|256:285|208:296,1,100,8|2,1:0|3:0,0:0:0:0:
320,368,272391,2,0,P|368:379|416:368,1,100,2|4,1:3|3:0,0:0:0:0:
488,296,272736,1,8,0:0:0:0:
480,192,272908,6,0,P|412:118|320:88,1,200,4|2,1:0|3:2,0:0:0:0:
208,160,273425,2,0,P|256:171|304:160,1,100,8|2,1:0|3:0,0:0:0:0:
192,88,273770,2,0,P|144:77|96:88,1,100,4|4,1:2|3:0,0:0:0:0:
24,160,274115,1,8,0:0:0:0:
328,352,274460,5,4,3:0:0:0:
184,352,274632,1,4,3:0:0:0:
256,224,274805,2,0,P|304:212|336:176,1,100,8|0,0:0|3:0,0:0:0:0:
176,176,275149,1,4,1:2:0:0:
336,80,275322,1,8,0:0:0:0:
256,32,275494,2,0,P|208:44|176:80,1,100,8|8,1:0|3:0,0:0:0:0:
272,156,275839,6,2,P|276:208|168:292,1,200,2|8,0:0|0:0,0:0:0:0:
184,192,276356,2,0,P|176:124|60:72,1,200,0|0,3:0|0:0,0:0:0:0:
92,168,276874,2,0,L|60:296,1,100,8|2,0:0|2:2,0:0:0:0:
144,336,277218,2,0,L|176:212,1,100,0|0,0:0|3:0,0:0:0:0:
180,140,277563,2,0,P|232:120|284:120,1,100,8|0,0:0|0:0,0:0:0:0:
428,200,277908,2,0,P|376:216|316:212,1,100,2|0,0:0|3:0,0:0:0:0:
396,112,278253,1,10,1:0:0:0:
500,172,278425,1,0,3:0:0:0:
448,272,278598,6,2,P|392:304|256:316,1,200,2|8,0:0|0:0,0:0:0:0:
104,220,279115,2,0,P|152:200|216:204,1,100,0|0,1:0|3:0,0:0:0:0:
148,64,279460,2,0,P|204:76|248:120,1,100,0|8,0:2|0:0,0:0:0:0:
276,192,279805,1,2,2:2:0:0:
372,164,279977,2,0,P|412:132|428:76,2,100,0|0|8,0:0|0:0|0:0,0:0:0:0:
328,76,280494,1,0,0:0:0:0:
208,88,280667,6,2,L|188:192,1,100,2|0,0:0|3:0,0:0:0:0:
100,108,281012,2,2,L|80:216,1,100,10|0,0:0|3:0,0:0:0:0:
96,312,281356,2,2,P|144:348|276:296,1,200,6|8,0:0|0:0,0:0:0:0:
320,212,281874,2,2,P|407:164|492:208,1,200,2|0,0:0|0:0,0:0:0:0:
392,296,282391,2,2,P|272:304|248:132,1,300,10|0,0:0|3:0,0:0:0:0:
260,28,283080,2,0,P|212:20|160:24,1,100,10|0,0:0|3:0,0:0:0:0:
32,64,283425,2,0,L|44:176,1,100,2|0,0:0|0:0,0:0:0:0:
120,328,283770,2,0,L|132:216,1,100,10|0,0:0|3:0,0:0:0:0:
116,132,284115,6,2,P|188:92|308:97,1,200,2|8,0:0|0:0,0:0:0:0:
340,280,284632,2,2,P|268:320|147:314,1,200,2|0,0:0|0:0,0:0:0:0:
228,204,285149,1,8,0:0:0:0:
228,204,285322,1,0,3:0:0:0:
376,124,285494,2,0,P|428:120|484:136,1,100,0|0,0:0|3:0,0:0:0:0:
324,200,285839,2,0,P|268:200|216:184,1,100,8|0,0:0|3:0,0:0:0:0:
136,140,286184,2,0,L|152:40,1,100,10|0,0:0|1:0,0:0:0:0:
56,152,286529,2,0,L|40:256,1,100,10|0,0:0|0:0,0:0:0:0:
88,340,286874,6,2,P|192:368|272:280,1,200,6|8,0:0|0:0,0:0:0:0:
320,160,287391,2,2,P|224:128|136:224,1,200,2|0,0:0|0:0,0:0:0:0:
242,232,287908,2,0,P|302:248|350:276,1,100,8|0,0:0|3:0,0:0:0:0:
412,328,288253,1,0,0:0:0:0:
504,280,288425,1,0,0:0:0:0:
376,200,288598,1,10,0:0:0:0:
280,160,288770,1,0,3:0:0:0:
256,64,288943,5,2,0:0:0:0:
256,64,289115,1,0,0:0:0:0:
96,76,289287,1,10,0:0:0:0:
96,76,289460,1,0,3:0:0:0:
64,224,289632,6,2,P|64:284|204:344,1,200,2|8,0:0|0:0,0:0:0:0:
260,308,290149,2,0,P|312:288|368:292,1,100,0|0,0:0|3:0,0:0:0:0:
508,352,290494,2,0,P|447:371|392:364,1,100,0|8,1:0|0:0,0:0:0:0:
444,272,290839,1,0,0:0:0:0:
440,172,291012,2,0,P|428:116|300:40,1,200,0|8,0:0|0:0,0:0:0:0:
256,120,291529,6,2,P|232:176|248:228,1,100,0|2,0:0|0:0,0:0:0:0:
312,292,291874,2,2,P|336:240|320:176,1,100,0|10,0:0|0:0,0:0:0:0:
308,92,292218,1,0,3:0:0:0:
188,16,292391,6,2,P|112:24|64:156,1,200,6|8,0:0|0:0,0:0:0:0:
164,284,292908,2,2,P|200:196|136:96,1,200,2|0,0:0|0:0,0:0:0:0:
68,240,293425,2,2,P|129:362|259:317,1,300,10|0,0:0|0:0,0:0:0:0:
356,280,294115,2,0,P|355:229|372:176,1,100,10|0,0:0|3:0,0:0:0:0:
464,140,294460,2,0,P|464:200|448:244,2,100,2|0|10,0:0|0:0|0:0,0:0:0:0:
424,32,294977,1,0,0:0:0:0:
288,56,295149,6,2,P|208:56|112:148,1,200,4|8,0:0|0:0,0:0:0:0:
140,228,295667,1,0,0:0:0:0:
148,260,295753,1,0,0:0:0:0:
144,296,295839,1,0,0:0:0:0:
124,324,295925,1,0,0:0:0:0:
92,340,296012,1,8,0:0:0:0:
132,160,296184,5,0,0:0:0:0:
124,128,296270,1,0,0:0:0:0:
128,92,296356,1,0,0:0:0:0:
148,64,296443,1,0,0:0:0:0:
180,48,296529,2,0,L|300:56,1,100,8|0,0:0|0:0,0:0:0:0:
416,88,296874,2,0,P|417:146|412:192,1,100,8|0,0:0|0:0,0:0:0:0:
232,296,297218,2,0,P|229:248|240:160,2,100,0|8|8,0:0|0:0|0:0,0:0:0:0:
368,336,297736,1,0,0:3:0:0:
344,176,297908,5,4,0:0:0:0:
