osu file format v13

[General]
AudioFilename: Watercolour.mp3
AudioLeadIn: 0
PreviewTime: 142044
Countdown: 0
SampleSet: Soft
StackLeniency: 0.7
Mode: 0
LetterboxInBreaks: 0
EpilepsyWarning: 1
WidescreenStoryboard: 1

[Editor]
Bookmarks: 33078,55147,77216,99285,121354,143423,165492,187561,209630,231699,242734,253768,275837,297906
DistanceSpacing: 1.6
BeatDivisor: 4
GridSize: 4
TimelineZoom: 1.7

[Metadata]
Title:Watercolour
TitleUnicode:Watercolour
Artist:Pendulum
ArtistUnicode:Pendulum
Creator:Kecco
Version:Hard
Source:
Tags:immersion drum and bass dnb d'n'b quiz-chan qc d33d deed irreversible ultimate lally watercolor lizzy collab collaboration
BeatmapID:569736
BeatmapSetID:109751

[Difficulty]
HPDrainRate:6
CircleSize:3.8
OverallDifficulty:6
ApproachRate:8
SliderMultiplier:1.1
SliderTickRate:1

[Events]
//Background and Video events
0,0,"BG.jpg",0,0
//Break Periods
2,187763,208882
2,231901,241986
//Storyboard Layer 0 (Background)
//Storyboard Layer 1 (Fail)
//Storyboard Layer 2 (Pass)
//Storyboard Layer 3 (Foreground)
Sprite,Foreground,Centre,"SB\QC.png",320,240 S,0,33078,,0.4019357 F,0,33078,33423,0,1 M,0,33078,54803,140,442 F,0,33423,54803,1 M,0,54803,55147,140,442 F,0,54803,55147,1,0
Sprite,Foreground,Centre,"SB\Irreversible.png",320,240 M,0,55147,,327,442 F,0,55147,55492,0,1 S,0,55147,77216,0.7027097 F,0,55492,76872,1 F,0,76872,77216,1,0
Sprite,Foreground,Centre,"SB\QC.png",320,240 S,0,99285,,0.4019357 F,0,99285,99630,0,1 M,0,99285,121010,140,442 F,0,99630,121010,1 M,0,121010,121354,140,442 F,0,121010,121354,1,0
Sprite,Foreground,Centre,"SB\Irreversible.png",320,240 M,0,121354,,327,442 F,0,121354,121699,0,1 S,0,121354,143423,0.7027097 F,0,121699,143079,1 F,0,143079,143423,1,0
Sprite,Foreground,Centre,"SB\QC.png",320,240 S,0,165492,,0.4019357 F,0,165492,165837,0,1 M,0,165492,187217,140,442 F,0,165837,187217,1 M,0,187217,187561,140,442 F,0,187217,187561,1,0
Sprite,Foreground,Centre,"SB\Irreversible.png",320,240 M,0,209630,,327,442 F,0,209630,209975,0,1 S,0,209630,231699,0.7027097 F,0,209975,231355,1 F,0,231355,231699,1,0
Sprite,Foreground,Centre,"SB\QC.png",320,240 S,0,275837,,0.4019357 F,0,275837,276182,0,1 M,0,275837,297562,140,442 F,0,276182,297562,1 M,0,297562,297906,140,442 F,0,297562,297906,1,0
Sprite,Foreground,Centre,"SB\Anonymous.png",320,240 S,0,77216,,0.6614194 F,0,77216,77561,0,1 M,0,77216,99285,440,442 F,0,77561,98941,1 F,0,98941,99285,1,0
Sprite,Foreground,Centre,"SB\Anonymous.png",320,240 S,0,143423,,0.6614194 F,0,143423,143768,0,1 M,0,143423,165492,440,442 F,0,143768,165148,1 F,0,165148,165492,1,0
Sprite,Foreground,Centre,"SB\Anonymous.png",320,240 S,0,242734,,0.6614194 F,0,242734,243079,0,1 M,0,242734,264803,440,442 F,0,243079,264459,1 F,0,264459,264803,1 F,0,264803,275492,1 F,0,275492,275837,1,0
//Storyboard Sound Samples

[TimingPoints]
11012,344.827586206897,4,2,0,50,1,0
33080,-100,4,3,0,55,0,0
56529,-133.333333333333,4,2,0,50,0,0
57908,-133.333333333333,4,2,0,45,0,0
59287,-153.846153846153,4,2,0,40,0,0
60667,-133.333333333333,4,2,0,50,0,0
63425,-133.333333333333,4,2,0,45,0,0
64805,-133.333333333333,4,2,0,40,0,0
66184,-133.333333333333,4,2,0,50,0,0
68943,-133.333333333333,4,2,0,45,0,0
70322,-133.333333333333,4,2,0,40,0,0
71701,-133.333333333333,4,2,0,50,0,0
74115,-133.333333333333,4,2,0,35,0,0
77218,-133.333333333333,4,2,0,50,0,0
96529,-100,4,2,0,70,0,0
99287,-83.3333333333333,4,1,0,70,0,1
102046,-83.3333333333333,4,1,0,70,0,1
102391,-83.3333333333333,4,1,0,70,0,1
102736,-83.3333333333333,4,1,0,70,0,1
103080,-83.3333333333333,4,1,0,70,0,1
118943,-83.3333333333333,4,1,0,70,0,1
119287,-83.3333333333333,4,1,0,70,0,1
119632,-83.3333333333333,4,1,0,70,0,1
120322,-83.3333333333333,4,1,0,70,0,1
120667,-83.3333333333333,4,1,0,70,0,1
121012,-83.3333333333333,4,1,0,70,0,0
121356,-83.3333333333333,4,1,0,70,0,0
127391,-100,4,1,0,70,0,0
127908,-100,4,1,0,70,0,0
128598,-100,4,1,0,70,0,0
131356,-100,4,1,0,70,0,0
131701,-90.9090909090909,4,1,0,70,0,0
132046,-83.3333333333333,4,1,0,70,0,0
142046,-100,4,1,0,70,0,0
143425,-83.3333333333333,4,1,0,70,0,1
151701,-83.3333333333333,4,1,0,70,0,1
153080,-83.3333333333333,4,1,0,70,0,1
153425,-83.3333333333333,4,1,0,70,0,1
153770,-83.3333333333333,4,1,0,70,0,1
154115,-83.3333333333333,4,1,0,70,0,1
154460,-83.3333333333333,4,1,0,70,0,1
165494,-83.3333333333333,4,1,0,65,0,0
176529,-83.3333333333333,4,1,0,70,0,1
176615,-83.3333333333333,4,1,0,70,0,0
209632,-100,4,2,0,50,0,0
231701,-100,4,3,0,55,0,0
242736,-100,4,2,0,70,0,0
251012,-90.9090909090909,4,2,0,70,0,0
251529,-76.9230769230769,4,2,0,70,0,0
252046,-66.6666666666667,4,2,0,70,0,0
252391,-100,4,2,0,70,0,0
253770,-83.3333333333333,4,1,0,70,0,1
275753,-100,4,1,0,70,0,0
275839,-90.9090909090909,4,1,0,85,0,1
275925,-90.9090909090909,4,1,0,85,0,0
297908,-90.9090909090909,4,1,0,85,0,1
297994,-90.9090909090909,4,1,0,85,0,0

[Colours]
Combo1 : 255,15,117
Combo2 : 255,83,83
Combo3 : 255,128,64
Combo4 : 255,255,130
Combo5 : 0,225,113
Combo6 : 94,94,255
Combo7 : 167,79,255
Combo8 : 255,138,255

[HitObjects]
52,96,33080,6,0,B|72:120|100:124|100:124|160:120,1,110,4|0,1:0|0:0,0:0:0:0:
204,60,33598,2,0,B|237:88|229:135|229:135|252:140|264:148,1,110,4|2,0:0|0:0,0:0:0:0:
332,140,34115,1,4,0:0:0:0:
512,208,34460,2,0,B|520:272|520:272|496:324,1,110,4|0,1:3|0:0,0:0:0:0:
416,376,34977,2,0,B|408:312|408:312|432:260,1,110,4|2,0:0|0:0,0:0:0:0:
356,232,35494,2,0,P|360:188|352:156,1,55,4|0,0:0|2:0,0:0:0:0:
284,204,35839,6,0,P|236:184|168:200,1,110,4|0,1:3|0:0,0:0:0:0:
124,264,36356,2,0,B|96:236|96:236|100:152,1,110,4|2,0:0|0:0,0:0:0:0:
60,92,36874,1,0,1:0:0:0:
247,154,37218,2,0,P|296:175|349:163,1,110,4|0,1:3|0:0,0:0:0:0:
358,73,37736,2,0,P|308:52|256:64,1,110,12|0,0:0|1:0,0:0:0:0:
208,168,38253,1,2,2:0:0:0:
356,288,38598,6,0,P|404:256|404:196,1,110,4|2,1:3|0:0,0:0:0:0:
416,132,39115,2,0,B|360:148|360:148|304:144,1,110,4|0,0:0|1:0,0:0:0:0:
232,132,39632,1,4,0:0:0:0:
100,212,39977,2,0,P|88:268|104:320,1,110,4|0,1:3|0:0,0:0:0:0:
176,236,40494,2,0,P|188:180|172:128,1,110,4|2,0:0|0:0,0:0:0:0:
112,84,41012,2,0,L|232:92,1,110,4|4,0:0|1:3,0:0:0:0:
372,128,41701,5,0,0:0:0:0:
372,128,41874,2,0,P|324:172|260:168,1,110,4|2,0:0|0:0,0:0:0:0:
232,236,42391,2,0,P|228:172|176:128,2,110,4|4|0,0:0|1:3|0:0,0:0:0:0:
188,300,43253,2,0,L|124:312,1,55,4|0,1:3|1:0,0:0:0:0:
272,328,43598,2,0,L|228:364,1,55,0|4,1:0|1:3,0:0:0:0:
360,308,43943,1,0,1:0:0:0:
360,308,44115,6,0,B|376:260|376:260|380:192,1,110,4|0,0:0|0:0,0:0:0:0:
300,128,44632,2,0,B|286:178|286:178|280:244,1,110,4|2,0:0|0:0,0:0:0:0:
188,252,45149,2,0,P|140:240|104:172,2,110,4|4|0,0:0|1:3|0:0,0:0:0:0:
184,172,46012,1,4,1:3:0:0:
188,176,46356,1,0,1:0:0:0:
296,128,46529,1,4,0:3:0:0:
192,180,46701,1,0,1:0:0:0:
296,128,46874,6,0,B|352:104|352:104|432:120,1,110,4|0,0:0|0:0,0:0:0:0:
436,180,47391,2,0,P|414:229|420:296,1,110,4|2,0:0|0:0,0:0:0:0:
356,332,47908,2,0,L|480:340,2,110,4|4|0,0:0|1:3|0:0,0:0:0:0:
300,280,48770,2,0,L|248:304,1,55,4|0,1:3|1:0,0:0:0:0:
192,252,49115,2,0,L|132:264,1,55,0|4,1:0|1:3,0:0:0:0:
76,216,49460,1,0,1:0:0:0:
44,148,49632,6,0,P|64:92|140:76,1,110,4|2,0:0|0:0,0:0:0:0:
164,124,50149,1,4,0:0:0:0:
236,100,50322,2,0,L|360:116,1,110,4|2,0:0|0:0,0:0:0:0:
424,112,50839,1,4,0:0:0:0:
352,192,51012,2,0,L|228:176,1,110,4|2,0:0|0:0,0:0:0:0:
164,153,51529,1,0,1:0:0:0:
174,233,51701,6,0,L|145:297,1,55,4|0,0:0|1:0,0:0:0:0:
242,288,52046,2,0,L|214:353,1,55,2|0,0:0|1:0,0:0:0:0:
324,264,52391,6,0,P|376:256|420:192,1,110,4|2,0:0|0:0,0:0:0:0:
340,188,52908,1,4,0:0:0:0:
276,144,53080,2,0,P|224:136|180:72,1,110,4|2,0:0|0:0,0:0:0:0:
132,40,53598,1,4,0:0:0:0:
96,108,53770,2,0,P|48:132|24:188,1,110,4|2,0:0|0:0,0:0:0:0:
92,240,54287,5,0,1:0:0:0:
211,278,54460,1,4,1:3:0:0:
92,317,54632,1,4,1:3:0:0:
166,216,54805,1,0,1:0:0:0:
166,341,54977,1,0,1:0:0:0:
92,240,55149,1,4,1:0:0:0:
20,108,56184,6,0,L|68:64,1,55,0|0,2:0|2:0,0:0:0:0:
84,52,56529,2,0,P|112:104|60:192,1,165.000006294251,0|0,2:0|0:0,0:0:0:0:
85,327,57908,6,0,P|113:275|61:187,1,165.000006294251,2|0,0:0|0:0,0:0:0:0:
184,368,59287,2,0,L|336:368,1,142.99999345398,2|0,0:0|0:0,0:0:0:0:
416,384,60667,5,2,0:0:0:0:
424,236,61356,2,0,P|438:197|432:152,1,82.5000031471254
352,188,62046,6,0,P|280:168|197:204,1,165.000006294251
199,201,63425,2,0,P|196:116|128:68,1,165.000006294251,2|0,0:0|0:0,0:0:0:0:
104,168,64460,1,0,0:0:0:0:
256,36,64805,5,2,0:0:0:0:
296,224,65494,1,0,0:0:0:0:
104,168,66184,1,2,0:0:0:0:
392,312,67218,2,0,L|404:268,1,41.2500015735627,0|0,0:0|0:0,0:0:0:0:
412,244,67563,6,0,P|452:172|416:92,1,165.000006294251
356,160,68943,2,0,P|299:128|203:162,1,165.000006294251,2|0,0:0|0:0,0:0:0:0:
108,336,70322,2,0,P|182:366|255:333,1,165.000006294251,2|0,0:0|0:0,0:0:0:0:
256,196,71701,5,2,0:0:0:0:
428,292,72391,2,0,L|436:200,1,82.5000031471254
456,184,72908,1,0,0:0:0:0:
476,160,73080,2,0,P|452:116|412:92,1,82.5000031471254,2|0,0:0|0:0,0:0:0:0:
312,132,73770,1,0,0:0:0:0:
256,192,74115,12,2,77218,0:0:0:0:
176,112,77908,6,0,P|196:164|216:200,1,82.5000031471254,0|2,0:0|0:0,0:0:0:0:
336,112,78598,2,0,P|316:164|296:200,1,82.5000031471254,2|2,0:3|0:0,0:0:0:0:
308,260,79115,1,0,0:0:0:0:
348,320,79287,1,2,0:0:0:0:
352,324,79460,1,0,0:0:0:0:
280,344,79632,2,0,B|240:352|240:352|196:328,1,82.5000031471254,2|0,0:0|0:0,0:0:0:0:
68,176,80322,6,0,P|60:240|68:272,2,82.5000031471254,0|2|2,0:0|0:3|0:0,0:0:0:0:
148,52,81356,1,2,0:0:0:0:
152,56,81529,2,0,L|236:32,1,82.5000031471254,0|2,0:0|0:0,0:0:0:0:
356,228,82391,1,2,0:0:0:0:
360,232,82563,2,0,P|360:284|364:332,2,82.5000031471254,2|0|0,0:0|0:0|0:0,0:0:0:0:
400,172,83425,1,2,0:3:0:0:
292,72,83770,5,2,0:0:0:0:
296,76,83943,1,0,0:0:0:0:
244,124,84115,2,0,P|184:132|144:132,1,82.5000031471254,2|0,0:0|0:0,0:0:0:0:
156,128,84632,2,0,P|156:180|160:224,1,82.5000031471254,2|0,0:0|0:0,0:0:0:0:
124,272,85149,1,0,0:0:0:0:
164,332,85322,2,0,P|256:328|276:296,1,123.750004720688,2|0,0:0|0:0,0:0:0:0:
248,160,86184,6,0,L|240:204|248:248,2,82.5000031471254,2|2|2,0:3|0:0|0:0,0:0:0:0:
212,96,87046,1,0,0:0:0:0:
348,52,87391,2,0,P|408:48|444:48,2,82.5000031471254,2|0|2,0:0|0:0|0:0,0:0:0:0:
316,120,88253,6,0,L|308:172,1,41.2500015735627,4|0,0:0|0:0,0:0:0:0:
344,224,88598,1,8,0:0:0:0:
252,320,88943,1,2,0:3:0:0:
136,240,89287,1,8,0:0:0:0:
232,136,89632,2,0,L|240:84,1,41.2500015735627
200,36,89977,1,8,0:0:0:0:
76,104,90322,2,0,L|32:96,2,41.2500015735627,2|0|8,0:3|0:0|0:0,0:0:0:0:
132,232,91012,6,0,P|124:288|128:320,2,82.5000031471254,4|8|2,0:0|0:0|0:3,0:0:0:0:
256,168,92046,1,8,0:0:0:0:
380,232,92391,2,0,P|388:288|384:320,1,82.5000031471254,0|8,0:0|0:0,0:0:0:0:
320,344,92908,1,0,0:0:0:0:
256,308,93080,2,0,L|204:320,1,41.2500015735627,2|0,0:3|0:0,0:0:0:0:
240,236,93425,2,0,L|184:224,1,41.2500015735627,8|0,0:0|0:0,0:0:0:0:
168,164,93770,6,0,B|152:124|152:124|172:72,1,82.5000031471254,4|8,0:0|0:0,0:0:0:0:
345,87,94460,2,0,B|360:124|360:124|344:164,1,82.5000031471254,2|8,0:3|0:0,0:0:0:0:
256,272,95149,1,4,0:0:0:0:
208,132,95494,2,0,L|204:80,1,41.2500015735627,8|0,0:0|0:0,0:0:0:0:
276,104,95839,2,0,L|280:156,1,41.2500015735627,2|0,0:3|0:0,0:0:0:0:
228,200,96184,2,0,P|180:208|144:208,1,82.5000031471254,8|4,0:0|0:0,0:0:0:0:
100,272,96701,5,0,0:0:0:0:
104,276,96874,2,0,P|108:320|108:352,1,55,8|0,0:0|0:0,0:0:0:0:
200,344,97218,2,0,P|196:300|196:268,1,55,4|0,0:0|0:0,0:0:0:0:
288,268,97563,2,0,P|344:268|400:264,1,110,8|4,0:0|0:0,0:0:0:0:
440,180,98080,1,0,0:0:0:0:
384,104,98253,2,0,P|380:72|380:40,1,55,12|0,0:0|0:0,0:0:0:0:
292,84,98598,2,0,P|296:116|296:148,1,55,4|0,0:0|0:0,0:0:0:0:
236,212,98943,1,12,0:0:0:0:
24,296,99287,6,0,P|21:263|28:231,1,65.9999979858399,4|2,0:0|2:0,3:0:0:0:
81,174,99632,1,8,0:0:0:0:
144,220,99805,2,0,P|192:224|268:188,1,131.99999597168,0|4,0:0|0:3,0:0:0:0:
305,274,100322,1,8,0:0:0:0:
380,228,100494,1,0,3:0:0:0:
384,232,100667,2,0,B|424:196|424:196|428:116,1,131.99999597168,4|8,1:3|0:0,0:0:0:0:
360,76,101184,2,0,P|324:104|236:80,1,131.99999597168,4|0,0:3|1:2,3:0:0:0:
296,28,101701,1,8,0:0:0:0:
364,80,101874,1,0,3:0:0:0:
384,156,102046,6,0,P|300:185|232:172,1,131.99999597168,0|8,0:0|3:1,0:0:0:0:
196,132,102563,2,0,B|176:164|183:200|183:200|140:196|112:204,1,131.99999597168,0|4,1:0|3:0,3:0:0:0:
28,172,103080,1,8,0:0:0:0:
32,72,103253,1,0,3:0:0:0:
36,76,103425,2,0,B|100:60|100:60|176:60,1,131.99999597168,0|8,1:0|0:0,1:0:0:0:
388,104,104115,2,0,P|407:130|416:162,1,65.9999979858399,0|0,3:1|1:2,0:0:0:0:
294,221,104460,2,0,P|274:194|265:162,1,65.9999979858399,8|0,3:1|1:2,0:0:0:0:
384,248,104805,6,0,P|388:288|308:328,1,131.99999597168,4|8,0:0|0:0,0:0:0:0:
256,280,105322,2,0,B|232:272|208:276|208:276|196:304|168:324|132:324,1,131.99999597168,0|4,0:0|1:3,0:0:0:0:
136,244,105839,2,0,L|72:216,1,65.9999979858399,8|0,3:1|0:0,0:0:0:0:
60,140,106184,2,0,P|120:144|164:80,1,131.99999597168,0|8,0:0|0:0,0:0:0:0:
108,32,106701,2,0,L|244:48,1,131.99999597168,0|8,0:0|3:2,0:0:0:0:
304,92,107218,1,8,0:0:0:0:
376,64,107391,1,0,0:0:0:0:
448,100,107563,6,0,L|432:188,1,65.9999979858399,0|2,0:0|3:2,0:0:0:0:
364,196,107908,1,8,0:0:0:0:
284,188,108080,2,0,P|224:188|152:204,1,131.99999597168,0|4,0:0|0:3,0:0:0:0:
244,292,108598,2,0,P|316:288|384:264,2,131.99999597168,8|0|8,0:0|0:0|0:0,0:0:0:0:
104,208,109632,2,0,P|68:208|24:196,1,65.9999979858399,0|0,0:0|0:2,0:0:0:0:
92,116,109977,2,0,P|73:84|60:44,1,65.9999979858399,8|0,0:0|0:0,0:0:0:0:
168,36,110322,6,0,L|320:56,1,131.99999597168,4|8,0:0|0:0,0:0:0:0:
320,132,110839,2,0,L|168:112,1,131.99999597168,0|4,0:0|1:3,0:0:0:0:
116,148,111356,2,0,P|108:188|124:240,1,65.9999979858399,8|0,0:0|3:0,0:0:0:0:
176,264,111701,2,0,P|220:232|304:268,1,131.99999597168,0|8,0:0|0:0,0:0:0:0:
300,328,112218,2,0,P|256:360|172:324,1,131.99999597168,0|4,0:0|0:3,0:0:0:0:
112,312,112736,2,0,P|84:316|36:304,1,65.9999979858399,8|0,0:0|0:0,0:0:0:0:
84,240,113080,6,0,P|100:168|92:104,1,131.99999597168,0|8,0:0|0:0,0:0:0:0:
196,64,113598,2,0,P|180:136|188:200,1,131.99999597168,0|0,0:0|0:0,0:0:0:0:
280,168,114115,2,0,L|416:172,2,131.99999597168,8|0|8,0:0|0:2|0:0,0:0:0:0:
420,244,115149,2,0,L|408:312,1,65.9999979858399
340,268,115494,2,0,L|328:336,1,65.9999979858399,8|0,0:0|0:0,0:0:0:0:
252,316,115839,6,0,P|185:296|112:308,1,131.99999597168,4|8,0:0|0:0,0:0:0:0:
72,364,116356,2,0,P|96:320|88:236,1,131.99999597168,0|4,0:0|0:3,0:0:0:0:
80,160,116874,2,0,P|45:158|12:164,1,65.9999979858399,8|0,0:0|0:0,0:0:0:0:
156,208,117218,2,0,P|224:212|288:204,1,131.99999597168,0|8,0:0|0:0,0:0:0:0:
252,132,117736,2,0,P|317:124|383:128,1,131.99999597168,0|8,0:0|0:2,0:0:0:0:
460,144,118253,2,0,P|464:112|464:72,1,65.9999979858399,8|0,0:0|0:0,0:0:0:0:
408,200,118598,6,0,B|400:260|400:280|400:280|364:276|324:284,1,131.99999597168,0|8,0:0|0:0,0:0:0:0:
308,348,119115,2,0,B|276:336|264:304|264:284|264:284|236:282|212:288,1,131.99999597168
140,312,119632,2,0,L|64:308,1,65.9999979858399,8|0,0:0|0:0,0:0:0:0:
40,236,119977,6,0,L|56:168,1,65.9999979858399,4|4,0:3|0:3,0:0:0:0:
116,120,120322,2,0,L|136:192,1,65.9999979858399,10|0,0:0|0:0,0:0:0:0:
208,212,120667,2,0,P|256:216|280:212,1,65.9999979858399,2|8,0:0|0:0,0:0:0:0:
400,128,121012,2,0,P|359:126|332:132,1,65.9999979858399,10|0,0:0|0:0,0:0:0:0:
264,72,121356,6,0,P|200:52|140:76,1,131.99999597168,6|8,0:0|0:0,0:0:0:0:
106,146,121874,2,0,L|154:274,1,131.99999597168,0|0,0:0|0:0,0:0:0:0:
214,318,122391,1,8,0:0:0:0:
289,296,122563,1,0,0:0:0:0:
362,327,122736,2,0,P|405:281|413:205,1,131.99999597168,0|8,0:0|3:1,0:0:0:0:
481,71,123425,5,0,0:0:0:0:
340,143,123770,1,8,0:0:0:0:
207,55,124115,6,0,P|127:63|83:115,1,131.99999597168,0|8,0:0|0:0,0:0:0:0:
102,175,124632,2,0,L|66:307,1,131.99999597168
113,367,125149,1,8,0:0:0:0:
186,335,125322,1,0,0:0:0:0:
255,373,125494,5,0,0:0:0:0:
374,248,125839,1,8,0:0:0:0:
336,66,126184,1,2,0:0:0:0:
512,128,126529,1,2,0:3:0:0:
336,65,126874,6,2,P|345:134|401:168,1,131.99999597168,6|8,0:0|0:0,0:0:0:0:
426,189,127391,2,2,P|369:165|318:193,1,110,2|0,0:0|0:0,0:0:0:0:
294,218,127908,6,2,B|230:278|154:218|86:286,1,220,10|8,0:0|0:0,0:0:0:0:
84,364,128770,1,0,3:0:0:0:
160,336,128943,1,8,0:3:0:0:
328,364,129287,1,10,0:0:0:0:
296,240,129632,6,0,B|300:192|380:212|370:105|304:76|256:116|256:116|208:77|144:108|132:212|216:196|216:232,1,440
256,356,131356,6,0,L|328:348,1,55,8|0,0:0|0:0,0:0:0:0:
328,320,131701,2,0,L|396:272,1,60.5000018463135
376,252,132046,2,0,L|388:180,1,65.9999979858399,8|0,0:0|0:0,0:0:0:0:
398,108,132391,6,0,P|346:60|266:44,1,131.99999597168,4|8,0:0|0:0,0:0:0:0:
220,84,132908,2,0,L|85:122,1,131.99999597168,0|0,0:0|3:0,0:0:0:0:
132,188,133425,1,8,0:0:0:0:
96,259,133598,1,0,3:0:0:0:
150,316,133770,2,0,P|190:326|234:316,1,65.9999979858399,0|0,0:0|3:0,0:0:0:0:
288,292,134115,2,0,P|320:289|352:299,1,65.9999979858399,8|0,0:0|0:0,0:0:0:0:
420,342,134460,5,0,0:0:0:0:
480,196,134805,1,8,0:0:0:0:
420,46,135149,6,0,L|368:174,1,131.99999597168,0|8,0:0|0:0,0:0:0:0:
294,143,135667,2,0,P|254:111|150:103,1,131.99999597168,0|0,0:0|3:0,0:0:0:0:
105,133,136184,1,8,0:0:0:0:
170,177,136356,1,0,0:0:0:0:
176,97,136529,1,0,0:0:0:0:
105,133,136701,1,0,0:0:0:0:
170,177,136874,5,8,0:0:0:0:
383,124,137218,1,2,0:0:0:0:
321,333,137563,1,2,0:3:0:0:
321,333,137908,6,2,P|317:277|285:189,1,131.99999597168,6|8,0:0|0:0,0:0:0:0:
293,205,138425,2,2,B|223:197|168:251|168:251|137:236|103:242,1,197.99999395752,2|10,0:3|0:0,3:0:0:0:
212,361,139287,1,0,0:0:0:0:
293,206,139632,5,8,0:0:0:0:
280,127,139805,1,0,0:0:0:0:
266,49,139977,2,2,P|309:84|384:99,1,131.99999597168,0|10,0:0|0:0,0:0:0:0:
136,280,140667,1,0,0:0:0:0:
256,192,140839,12,0,142046,0:0:0:0:
256,96,142391,5,2,1:3:0:0:
400,84,142563,1,2,3:1:0:0:
412,232,142736,1,2,3:1:0:0:
268,240,142908,1,2,3:3:0:0:
180,280,143080,2,2,L|120:288,1,55,2|0,1:0|3:1,1:0:0:0:
52,228,143425,6,0,P|48:160|52:88,1,131.99999597168,4|8,0:0|0:0,0:0:0:0:
128,44,143943,2,0,P|176:96|144:152,1,131.99999597168,2|0,0:3|0:0,0:0:0:0:
256,184,144460,2,0,L|256:264,1,65.9999979858399,8|0,0:0|0:0,0:0:0:0:
357,145,144805,2,0,P|337:85|384:44,1,131.99999597168,0|8,0:0|0:0,0:0:0:0:
460,96,145322,2,0,P|463:162|460:228,1,131.99999597168,2|0,0:3|0:0,0:0:0:0:
372,260,145839,5,8,0:0:0:0:
312,328,146012,1,0,0:0:0:0:
228,292,146184,2,0,L|152:288,2,65.9999979858399,0|0|8,0:0|3:0|0:0,0:0:0:0:
260,204,146701,2,0,P|252:136|252:52,1,131.99999597168,2|0,0:3|0:0,0:0:0:0:
360,188,147218,2,0,P|364:228|364:272,1,65.9999979858399,8|0,0:0|0:0,0:0:0:0:
308,328,147563,6,0,L|232:340,1,65.9999979858399,4|0,0:0|0:0,0:0:0:0:
172,280,147908,1,8,0:0:0:0:
196,192,148080,2,0,P|196:144|192:112,1,65.9999979858399,2|2,0:3|0:3,0:0:0:0:
124,64,148425,2,0,L|132:16,2,32.99999899292,8|0|8,0:0|0:0|0:0,0:0:0:0:
32,112,148770,5,0,0:0:0:0:
32,112,148943,2,0,B|40:160|40:160|24:184|20:216|36:252,1,131.99999597168,4|8,0:0|0:0,0:0:0:0:
128,212,149460,2,0,P|120:284|72:324,1,131.99999597168,2|0,0:3|0:0,0:0:0:0:
128,212,149977,2,0,L|200:216,1,65.9999979858399,8|0,0:0|0:0,0:0:0:0:
304,204,150322,2,0,P|336:148|320:80,1,131.99999597168,0|8,0:0|0:0,0:0:0:0:
136,100,150839,2,0,P|192:136|272:120,1,131.99999597168,2|0,0:3|0:0,0:0:0:0:
356,96,151356,2,0,B|351:59|351:59|360:8,1,65.9999979858399,8|0,0:0|0:0,0:0:0:0:
432,176,151701,6,0,P|448:240|440:308,1,131.99999597168,0|8,0:0|0:0,0:0:0:0:
352,328,152218,1,2,0:3:0:0:
272,72,152563,1,0,0:0:0:0:
296,160,152736,1,8,0:0:0:0:
208,136,152908,1,0,0:0:0:0:
132,84,153080,6,0,B|98:82|98:82|66:90,1,65.9999979858399,4|0,0:0|3:0,0:0:0:0:
64,184,153425,2,0,B|98:186|98:186|130:178,1,65.9999979858399,8|2,0:0|0:3,0:0:0:0:
216,148,153770,1,0,0:0:0:0:
260,68,153943,1,8,0:0:0:0:
340,112,154115,2,0,P|384:112|412:108,1,65.9999979858399,8|0,0:0|0:0,0:0:0:0:
452,192,154460,6,0,P|460:264|452:340,1,131.99999597168,4|8,0:0|0:0,0:0:0:0:
364,312,154977,2,0,L|220:292,1,131.99999597168,2|0,0:3|0:0,0:0:0:0:
200,192,155494,2,0,L|280:204,1,65.9999979858399,8|0,0:0|0:0,0:0:0:0:
336,140,155839,2,0,P|344:112|352:68,1,65.9999979858399,0|0,0:0|3:0,0:0:0:0:
260,80,156184,1,8,0:0:0:0:
260,80,156356,2,0,L|116:88,1,131.99999597168,2|0,0:3|0:0,0:0:0:0:
68,160,156874,1,8,0:0:0:0:
128,232,157046,5,0,0:0:0:0:
128,232,157218,2,0,B|136:300|136:300|200:336,1,131.99999597168,0|8,0:0|0:0,0:0:0:0:
320,331,157736,2,0,B|376:300|376:300|384:232,1,131.99999597168,2|0,0:3|0:0,0:0:0:0:
332,156,158253,5,8,0:0:0:0:
332,156,158425,2,0,L|340:72,1,65.9999979858399
268,32,158770,1,0,3:0:0:0:
188,76,158943,2,0,P|128:84|104:84,1,65.9999979858399,8|2,0:0|0:3,0:0:0:0:
148,172,159287,2,0,P|208:164|232:164,1,65.9999979858399
276,232,159632,1,8,0:0:0:0:
256,320,159805,5,0,0:0:0:0:
256,320,159891,1,0,0:0:0:0:
256,320,159977,1,4,0:0:0:0:
412,124,160322,1,8,0:0:0:0:
412,124,160494,1,2,1:3:0:0:
288,148,160667,1,0,3:0:0:0:
168,116,160839,1,0,0:0:0:0:
72,192,161012,6,0,P|68:260|80:352,1,131.99999597168,8|0,0:0|0:0,0:0:0:0:
136,100,161701,1,8,0:0:0:0:
136,100,161874,1,2,0:3:0:0:
240,116,162046,1,0,3:0:0:0:
292,208,162218,1,0,0:0:0:0:
392,252,162391,6,0,P|456:256|476:256,2,65.9999979858399,8|0|0,0:0|3:0|0:0,0:0:0:0:
256,76,163080,1,8,0:0:0:0:
256,76,163253,1,2,0:3:0:0:
192,284,163598,6,0,L|257:294,1,65.9999979858399,0|8,0:0|0:0,0:0:0:0:
332,236,163943,1,0,3:0:0:0:
332,236,164115,1,0,0:0:0:0:
280,160,164287,1,0,0:0:0:0:
364,124,164460,2,0,L|428:96,2,65.9999979858399,8|2|0,0:0|0:3|0:0,0:0:0:0:
276,148,164977,1,8,0:1:0:0:
204,92,165149,2,0,L|124:84,1,65.9999979858399,8|0,0:0|0:0,0:0:0:0:
124,88,165408,1,0,0:0:0:0:
111,90,165494,1,4,0:0:0:0:
60,332,165839,5,8,0:0:0:0:
232,260,166184,2,0,P|300:240|368:268,1,131.99999597168,2|8,3:3|0:0,0:0:0:0:
404,336,166701,2,0,P|396:260|432:216,1,131.99999597168,2|2,3:0|0:3,0:0:0:0:
484,292,167218,1,8,0:0:0:0:
452,112,167563,6,0,P|384:132|324:108,1,131.99999597168,2|8,3:0|0:0,0:0:0:0:
248,160,168080,2,0,P|186:139|124:159,1,131.99999597168,2|2,3:0|0:3,0:0:0:0:
84,244,168598,1,8,0:0:0:0:
256,316,168943,6,0,P|332:272|344:212,1,131.99999597168,2|8,3:0|0:0,0:0:0:0:
252,220,169460,2,0,B|224:160|224:160|240:80,1,131.99999597168,2|2,3:0|0:3,0:0:0:0:
152,56,169977,1,8,0:3:0:0:
336,64,170322,1,2,3:3:0:0:
380,148,170494,1,4,3:0:0:0:
432,68,170667,1,6,1:2:0:0:
360,320,171012,6,0,P|296:336|232:308,1,131.99999597168,4|8,0:0|0:0,0:0:0:0:
124,164,171701,2,0,P|188:148|248:176,1,131.99999597168,2|8,3:0|0:0,0:0:0:0:
324,224,172218,2,0,B|339:199|337:168|337:168|376:168|412:148,1,131.99999597168,2|2,3:0|0:3,0:0:0:0:
492,188,172736,1,8,1:0:0:0:
364,56,173080,6,0,L|224:40,1,131.99999597168,2|8,3:0|0:0,0:0:0:0:
260,132,173598,2,0,L|128:117,1,131.99999597168,2|2,3:0|0:3,0:0:0:0:
52,172,174115,1,8,0:0:0:0:
52,172,174460,6,0,L|60:244,1,65.9999979858399,2|0,3:0|0:0,0:0:0:0:
124,304,174805,1,8,0:0:0:0:
192,244,174977,2,0,P|272:228|328:248,1,131.99999597168,2|2,3:0|0:3,0:0:0:0:
404,276,175494,2,0,L|392:344,1,65.9999979858399,8|0,0:0|3:0,0:0:0:0:
488,216,175839,2,0,L|476:284,1,65.9999979858399,2|0,0:0|3:0,0:0:0:0:
420,176,176184,2,0,L|432:96,1,65.9999979858399,8|2,0:0|0:0,0:0:0:0:
472,28,176529,6,0,P|428:64|344:52,1,131.99999597168,4|8,0:0|0:0,0:0:0:0:
172,28,177218,2,2,P|152:72|64:92,1,131.99999597168,2|8,0:0|0:0,0:0:0:0:
60,188,177736,2,2,B|60:208|64:228|64:228|120:232|144:280,1,131.99999597168,2|2,0:0|3:2,0:0:0:0:
60,325,178253,2,0,P|84:353|132:361,1,65.9999979858399,8|0,0:0|3:0,0:0:0:0:
216,336,178598,6,2,P|248:276|328:260,1,131.99999597168,2|8,0:0|0:0,0:0:0:0:
424,348,179115,2,0,P|368:372|300:340,1,131.99999597168,2|2,0:0|0:0,0:0:0:0:
368,280,179632,1,8,0:0:0:0:
392,192,179805,1,0,1:0:0:0:
364,104,179977,6,0,L|444:92,2,65.9999979858399,2|0|8,0:0|3:2|0:0,0:0:0:0:
272,76,180494,2,0,B|212:64|204:88|140:76,1,131.99999597168,2|2,0:0|0:0,0:0:0:0:
60,116,181012,2,0,P|52:148|60:184,1,65.9999979858399,8|0,0:0|3:0,0:0:0:0:
156,272,181356,2,0,P|172:216|132:140,1,131.99999597168,2|8,0:0|0:0,0:0:0:0:
80,220,181874,6,2,P|64:268|104:348,1,131.99999597168,6|2,0:0|0:0,0:0:0:0:
196,336,182391,2,0,L|264:288,1,65.9999979858399,8|0,0:0|3:0,0:0:0:0:
304,220,182736,2,2,P|280:264|320:356,1,131.99999597168,2|8,0:0|0:0,0:0:0:0:
376,280,183253,2,2,P|400:236|356:140,1,131.99999597168,2|2,0:0|0:0,0:0:0:0:
304,108,183770,2,0,P|336:92|360:68,1,65.9999979858399,8|0,0:0|3:0,0:0:0:0:
280,20,184115,6,2,P|240:40|212:124,1,131.99999597168,2|8,0:0|0:0,0:0:0:0:
280,184,184632,2,0,P|216:168|152:216,1,131.99999597168,2|2,0:0|0:0,0:0:0:0:
176,292,185149,2,0,P|240:308|304:260,1,131.99999597168,8|2,0:0|0:0,0:0:0:0:
364,216,185667,1,2,0:0:0:0:
452,240,185839,1,8,0:0:0:0:
432,148,186012,2,2,P|384:112|368:40,1,131.99999597168,2|2,0:0|0:0,0:0:0:0:
280,76,186529,1,0,0:0:0:0:
184,72,186701,2,0,L|144:68,4,32.99999899292,0|0|2|0|8,0:0|0:0|3:3|0:0|0:0,0:0:0:0:
228,152,187218,1,8,0:0:0:0:
244,160,187563,5,4,2:1:0:0:
40,192,209632,5,0,0:0:0:0:
256,40,210322,1,2,0:3:0:0:
472,188,211012,1,0,0:0:0:0:
440,316,211356,1,0,0:0:0:0:
340,232,211701,1,2,0:3:0:0:
340,232,212391,6,2,P|256:172|128:204,1,220,4|2,0:0|0:3,0:0:0:0:
40,271,213425,1,2,0:0:0:0:
164,316,213770,2,0,P|252:204|244:120,1,220,2|2,0:0|0:3,0:0:0:0:
160,32,214805,1,2,0:0:0:0:
152,164,215149,2,0,P|232:212|348:180,1,220,2|2,0:0|0:3,0:0:0:0:
100,92,216529,5,0,0:0:0:0:
32,204,216874,1,0,0:0:0:0:
104,316,217218,2,0,P|168:336|224:324,1,110,2|0,0:3|0:0,0:0:0:0:
332,276,217908,6,2,P|296:196|336:76,1,220,4|2,0:0|0:3,0:0:0:0:
464,40,218943,1,2,0:0:0:0:
400,156,219287,2,0,P|320:192|200:152,1,220,2|2,0:0|0:3,0:0:0:0:
200,152,220667,6,2,L|64:336,1,220,0|2,1:0|0:3,0:0:0:0:
332,336,222046,1,0,0:0:0:0:
464,336,222391,1,4,3:0:0:0:
396,224,222736,1,2,0:3:0:0:
40,248,223425,6,2,P|124:188|252:220,1,220,4|2,0:0|0:3,0:0:0:0:
340,288,224460,1,2,0:0:0:0:
216,332,224805,2,0,P|128:220|136:136,1,220,2|2,0:0|0:3,0:0:0:0:
220,48,225839,1,0,0:0:0:0:
228,180,226184,2,0,P|148:228|32:196,2,220,4|0|0,0:0|0:3|0:0,0:0:0:0:
308,76,227908,1,0,0:0:0:0:
432,120,228253,1,2,3:0:0:0:
256,316,228943,5,0,1:0:0:0:
256,68,229977,1,0,0:0:0:0:
384,96,230322,1,2,0:0:0:0:
136,192,231012,1,0,3:0:0:0:
428,288,231701,1,4,1:2:0:0:
108,96,242736,6,0,L|244:88,1,110,0|2,1:0|0:0,0:0:0:0:
404,288,243425,2,0,L|268:296,1,110,0|2,1:0|0:0,0:0:0:0:
352,44,244115,2,0,P|360:100|358:153,1,110,0|2,1:0|0:0,0:0:0:0:
160,340,244805,2,0,P|152:284|153:230,1,110,0|2,1:0|0:0,0:0:0:0:
212,180,245322,5,0,0:0:0:0:
280,216,245494,2,0,B|360:212|360:212|404:224,1,110,0|2,1:0|0:0,0:0:0:0:
460,248,246012,2,0,P|444:164|420:148,1,110,0|0,1:0|0:0,0:0:0:0:
380,92,246529,2,0,L|384:24,1,55,2|0,1:2|0:0,0:0:0:0:
280,84,246874,2,0,L|276:152,2,55,0|0|2,1:0|0:0|1:2,0:0:0:0:
112,296,247563,6,0,P|196:300|232:292,1,110,0|2,1:0|1:2,0:0:0:0:
264,232,248080,2,0,B|324:196|324:196|368:192,1,110,0|0,1:0|0:0,0:0:0:0:
436,220,248598,1,2,1:2:0:0:
468,148,248770,1,0,0:0:0:0:
412,92,248943,6,0,P|336:88|304:64,1,110,0|2,1:0|0:2,0:0:0:0:
264,132,249460,2,0,L|272:244,1,110,0|0,1:0|0:0,0:0:0:0:
224,304,249977,2,0,L|156:296,1,55,2|0,1:2|0:0,0:0:0:0:
96,316,250322,2,0,P|100:260|148:224,1,110,0|2,1:0|0:2,0:0:0:0:
156,108,250839,1,0,3:0:0:0:
92,56,251012,6,0,P|100:108|88:188,1,121.000003692627,0|2,1:0|3:2,0:0:0:0:
180,152,251529,2,0,L|324:160,1,142.99999345398,0|0,1:0|3:2,0:0:0:0:
396,116,252046,2,0,P|408:152|392:212,1,82.5000031471254,0|0,1:0|0:0,1:0:0:0:
492,256,252391,5,0,1:0:0:0:
420,312,252563,1,0,3:0:0:0:
344,248,252736,1,4,1:0:0:0:
268,316,252908,1,0,0:0:0:0:
196,244,253080,2,0,L|124:240,1,55,4|0,1:0|0:0,0:0:0:0:
88,152,253425,1,4,1:0:0:0:
148,76,253598,1,0,1:0:0:0:
240,124,253770,6,0,P|320:116|360:72,2,131.99999597168,4|8|0,0:2|0:0|0:0,0:0:0:0:
152,80,254632,1,0,0:0:0:0:
92,156,254805,1,8,0:0:0:0:
156,240,254977,2,0,B|188:248|188:248|208:232|208:232|252:252|292:256,1,131.99999597168
388,216,255494,2,0,P|388:264|372:288,1,65.9999979858399,8|0,0:0|0:0,0:0:0:0:
324,176,255839,2,0,P|388:140|448:172,1,131.99999597168,0|8,0:0|0:0,0:0:0:0:
248,176,256356,6,0,L|96:152,1,131.99999597168
52,68,256874,1,8,0:0:0:0:
260,100,257218,2,0,P|316:140|320:200,1,131.99999597168,0|8,0:0|0:0,0:0:0:0:
292,300,257736,1,0,0:0:0:0:
188,124,258080,2,0,P|168:56|168:40,1,65.9999979858399,0|8,0:0|0:0,0:0:0:0:
152,192,258425,1,0,0:0:0:0:
228,264,258598,6,0,L|364:272,1,131.99999597168,0|8,0:0|0:0,0:0:0:0:
304,208,259115,2,0,P|276:292|312:344,1,131.99999597168,4|0,0:0|0:0,0:0:0:0:
188,328,259632,2,0,L|104:324,1,65.9999979858399,8|0,0:0|0:0,0:0:0:0:
54,253,259977,2,0,P|54:161|90:117,1,131.99999597168,0|8,0:0|0:0,0:0:0:0:
140,204,260494,2,0,B|228:200|228:200|268:176,1,131.99999597168
288,72,261012,1,8,0:0:0:0:
192,104,261184,1,0,0:0:0:0:
270,180,261356,2,0,L|354:180,1,65.9999979858399
412,248,261701,5,8,0:0:0:0:
332,320,261874,2,0,P|264:300|244:232,1,131.99999597168
136,212,262391,2,0,L|52:212,1,65.9999979858399,8|0,0:0|0:0,0:0:0:0:
172,276,262736,2,0,P|192:192|240:172,1,131.99999597168,0|8,0:0|0:0,0:0:0:0:
340,156,263253,2,0,L|484:144,1,131.99999597168
471,145,263770,1,8,0:0:0:0:
304,344,264115,6,0,P|286:281|314:223,1,131.99999597168,0|8,0:0|0:0,0:0:0:0:
392,166,264632,2,0,P|409:228|381:286,1,131.99999597168,4|0,0:0|0:0,0:0:0:0:
276,336,265149,2,0,P|246:350|213:354,1,65.9999979858399,8|0,1:0|0:0,0:0:0:0:
220,252,265494,2,0,P|156:260|76:240,1,131.99999597168,0|8,0:0|0:0,0:0:0:0:
208,168,266012,2,0,P|280:192|300:252,1,131.99999597168
252,344,266529,1,8,0:0:0:0:
128,172,266874,6,0,B|112:112|112:112|104:72|140:36,1,131.99999597168,0|8,0:0|0:0,0:0:0:0:
196,132,267391,2,0,P|200:208|140:248,1,131.99999597168
64,280,267908,2,0,B|60:316|60:316|64:368,1,65.9999979858399,8|0,0:0|0:0,0:0:0:0:
62,345,268253,1,0,0:0:0:0:
272,328,268598,1,8,0:0:0:0:
272,328,268770,2,0,L|428:308,1,131.99999597168
460,224,269287,6,0,P|472:184|468:136,1,65.9999979858399,8|0,0:0|0:0,0:0:0:0:
340,128,269632,2,0,P|376:160|408:168,1,65.9999979858399,0|0,0:0|0:0,0:0:0:0:
468,48,269977,2,0,P|440:68|420:100,1,65.9999979858399,8|2,0:0|1:3,0:0:0:0:
320,128,270322,6,0,L|168:124,1,131.99999597168,4|8,0:0|0:0,0:0:0:0:
156,200,270839,2,0,L|308:204,1,131.99999597168,0|0,0:0|0:0,0:0:0:0:
328,300,271356,1,8,0:0:0:0:
230,293,271529,1,0,3:0:0:0:
128,284,271701,2,0,P|68:224|80:164,1,131.99999597168,0|8,0:0|0:0,0:0:0:0:
180,116,272218,2,0,P|240:176|228:236,1,131.99999597168,0|8,0:0|0:0,0:0:0:0:
128,256,272736,2,0,P|100:228|88:192,1,65.9999979858399,8|0,1:0|3:0,0:0:0:0:
112,76,273080,5,0,0:0:0:0:
304,164,273425,1,8,0:0:0:0:
304,164,273598,2,0,P|408:160|444:156,1,131.99999597168,0|0,0:0|0:0,0:0:0:0:
384,88,274115,2,0,P|360:168|388:220,1,131.99999597168,8|0,0:0|0:0,0:0:0:0:
444,292,274632,2,0,L|492:352,2,65.9999979858399,0|8|0,0:0|0:0|0:0,0:0:0:0:
344,328,275149,1,0,1:0:0:0:
240,308,275322,1,2,1:3:0:0:
308,228,275494,1,2,1:3:0:0:
160,300,275839,6,2,P|96:316|44:284,1,121.000003692627,6|8,0:0|0:0,0:0:0:0:
56,204,276356,2,2,P|120:188|172:220,1,121.000003692627,2|2,0:0|2:2,0:0:0:0:
268,192,276874,1,8,0:0:0:0:
268,192,277218,2,0,L|280:128,2,60.5000018463135,0|0|10,0:0|0:0|0:0,0:0:0:0:
208,256,277736,1,0,3:0:0:0:
292,276,277908,2,0,P|328:280|356:276,1,60.5000018463135,2|0,3:1|0:0,0:0:0:0:
364,192,278253,2,0,B|360:152|368:108,1,60.5000018463135,10|0,0:0|3:0,0:0:0:0:
400,56,278598,6,2,L|260:48,1,121.000003692627,2|8,0:0|0:0,0:0:0:0:
312,128,279115,2,2,L|456:136,1,121.000003692627,2|2,3:1|0:2,0:0:0:0:
464,236,279632,1,8,0:0:0:0:
464,236,279977,2,0,P|416:240|388:256,1,60.5000018463135,0|0,0:0|3:0,0:0:0:0:
340,344,280322,2,0,P|372:336|396:316,1,60.5000018463135,10|4,3:1|3:0,0:0:0:0:
328,264,280667,1,2,1:1:0:0:
332,268,280839,1,0,3:0:0:0:
196,260,281012,2,0,P|232:276|260:280,1,60.5000018463135,10|0,0:0|3:0,0:0:0:0:
92,212,281356,6,2,P|88:276|112:336,1,121.000003692627,6|8,0:0|0:0,0:0:0:0:
184,352,281874,2,2,B|244:344|244:344|312:360,1,121.000003692627,2|0,3:1|0:0,0:0:0:0:
364,296,282391,2,2,P|316:280|300:144,1,181.500005538941,10|0,1:1|3:0,0:0:0:0:
356,120,283080,2,0,L|420:112,1,60.5000018463135,10|0,0:0|3:0,0:0:0:0:
280,64,283425,2,2,L|216:56,1,60.5000018463135,2|0,0:0|3:0,0:0:0:0:
92,80,283770,1,10,0:0:0:0:
92,80,284115,2,2,P|116:152|104:256,1,181.500005538941,2|2,0:0|0:0,0:0:0:0:
244,348,284977,1,4,3:0:0:0:
244,348,285149,1,8,0:0:0:0:
392,268,285494,6,0,L|328:248,1,60.5000018463135
372,176,285839,2,0,P|384:144|384:112,1,60.5000018463135,10|0,0:0|3:0,0:0:0:0:
324,60,286184,2,0,P|312:96|312:124,1,60.5000018463135,2|0,0:0|3:0,0:0:0:0:
232,88,286529,2,2,P|180:84|148:88,1,60.5000018463135,10|0,0:0|3:0,0:0:0:0:
92,60,286874,6,2,P|68:96|100:184,1,121.000003692627,6|8,0:0|0:0,0:0:0:0:
188,256,287391,2,2,P|212:220|180:132,1,121.000003692627,2|0,3:1|0:0,0:0:0:0:
128,196,287908,1,8,0:0:0:0:
256,308,288253,2,0,L|340:320,1,60.5000018463135,0|0,0:0|3:0,0:0:0:0:
396,288,288598,1,10,0:0:0:0:
376,204,288770,1,0,3:0:0:0:
432,140,288943,2,0,L|368:120,1,60.5000018463135,2|0,3:1|0:0,0:0:0:0:
336,48,289287,2,0,L|268:76,1,60.5000018463135,10|0,0:0|3:0,0:0:0:0:
196,64,289632,6,2,P|164:88|168:188,1,121.000003692627,2|8,0:0|0:0,0:0:0:0:
296,220,290149,2,2,P|272:156|216:136,1,121.000003692627,2|0,3:1|0:0,0:0:0:0:
160,232,290667,1,8,0:0:0:0:
160,232,291012,2,0,P|120:228|92:232,1,60.5000018463135,0|0,0:0|3:0,0:0:0:0:
236,256,291356,2,0,P|276:260|304:256,1,60.5000018463135,8|0,0:0|0:0,0:0:0:0:
376,228,291701,2,0,L|384:296,1,60.5000018463135,2|0,0:0|3:0,0:0:0:0:
448,224,292046,2,2,L|440:148,1,60.5000018463135,10|0,0:0|3:0,0:0:0:0:
452,80,292391,6,2,B|396:104|396:104|332:104,1,121.000003692627,6|8,0:0|0:0,0:0:0:0:
264,60,292908,2,2,B|240:100|260:144|260:144|232:147|216:152,1,121.000003692627,2|0,0:0|0:0,0:0:0:0:
144,128,293425,2,2,B|152:148|164:224|84:200|96:276|104:296,1,181.500005538941,10|0,0:0|0:0,0:0:0:0:
185,275,294115,2,2,L|269:295,1,60.5000018463135,10|0,0:0|3:0,0:0:0:0:
361,219,294460,2,2,P|329:215|281:239,1,60.5000018463135,2|0,0:0|3:0,0:0:0:0:
337,307,294805,1,10,0:0:0:0:
384,128,295149,2,2,B|404:104|404:72|404:72|396:8,1,121.000003692627,2|8,0:0|0:0,0:0:0:0:
328,80,295667,6,0,L|296:72,4,30.2500009231568,0|0|0|0|8,0:0|0:0|0:0|0:0|0:0,0:0:0:0:
224,120,296184,2,0,L|184:124,4,30.2500009231568,0|0|0|0|8,0:0|0:0|0:0|0:0|0:0,0:0:0:0:
292,172,296701,1,0,0:0:0:0:
320,252,296874,1,8,0:0:0:0:
236,232,297046,1,0,0:0:0:0:
300,136,297218,5,0,0:0:0:0:
344,272,297391,1,8,0:0:0:0:
204,240,297563,2,0,P|172:234|144:232,1,60.5000018463135,8|0,0:0|0:0,0:0:0:0:
68,140,297908,1,4,0:0:0:0:
