osu file format v9

[General]
AudioFilename: The Vulture[cut].mp3
AudioLeadIn: 0
PreviewTime: 140592
Countdown: 0
SampleSet: Soft
StackLeniency: 0.7
Mode: 0
LetterboxInBreaks: 1

[Editor]
DistanceSpacing: 0
BeatDivisor: 4
GridSize: 8

[Metadata]
Title:The Vulture
Artist:Pendulum
Creator:La Cataline
Version:Insane
Source:
Tags:immersion h3k1ru reiji reiji-rj

[Difficulty]
HPDrainRate:7
CircleSize:4
OverallDifficulty:7
ApproachRate:8
SliderMultiplier:1.8
SliderTickRate:1

[Events]
//Background and Video events
0,0,"bgimage.jpg"
//Break Periods
2,31068,43832
//Storyboard Layer 0 (Background)
//Storyboard Layer 1 (Fail)
//Storyboard Layer 2 (Pass)
//Storyboard Layer 3 (Foreground)
//Storyboard Sound Samples
//Background Colour Transformations
3,100,0,0,0

[TimingPoints]
3440,428.571428571429,4,2,1,82,1,0
17797,-100,4,2,1,62,0,0
18797,-100,4,2,1,82,0,0
19511,-100,4,2,1,62,0,0
20440,-100,4,2,1,82,0,0
21225,-100,4,2,1,62,0,0
22225,-100,4,2,1,82,0,0
22940,-100,4,2,1,62,0,0
23940,-100,4,2,1,82,0,0
24654,-100,4,2,1,62,0,0
25654,-100,4,2,1,82,0,0
26368,-100,4,2,1,62,0,0
27297,-100,4,2,1,82,0,0
28011,-100,4,2,1,62,0,0
29011,-100,4,2,1,82,0,0
29725,-100,4,2,1,62,0,0
30761,-100,4,1,1,82,0,0
44475,-100,4,2,0,82,0,0
51332,-100,4,1,0,82,0,0
53047,-100,4,1,1,82,0,0
58297,-66.6666666666667,4,1,0,82,0,0
70190,-100,4,2,0,43,0,0
70618,-83.3333333333333,4,1,0,82,0,0
71904,-83.3333333333333,4,2,1,82,0,0
92154,-83.3333333333333,4,1,1,82,0,0
99440,-66.6666666666667,4,1,0,82,0,0
99547,-66.6666666666667,4,2,1,82,0,0
106190,-66.6666666666667,4,2,0,82,0,0
106404,-66.6666666666667,4,2,1,82,0,0
111440,-66.6666666666667,4,1,0,82,0,0
111868,-66.6666666666667,4,2,0,82,0,0
112297,-66.6666666666667,4,1,0,82,0,0
113047,-83.3333333333333,4,1,0,82,0,0
113368,-83.3333333333333,4,2,0,82,0,0
113475,-83.3333333333333,4,1,0,82,0,0
115082,-83.3333333333333,4,2,0,82,0,0
115190,-83.3333333333333,4,1,0,82,0,0
116797,-83.3333333333333,4,2,0,82,0,0
116904,-83.3333333333333,4,1,0,82,0,0
120225,-83.3333333333333,4,2,0,82,0,0
120332,-83.3333333333333,4,1,0,82,0,0
121940,-83.3333333333333,4,2,0,82,0,0
122047,-83.3333333333333,4,1,0,82,0,0
122475,-83.3333333333333,4,2,0,82,0,0
122582,-83.3333333333333,4,1,0,82,0,0
123654,-83.3333333333333,4,2,0,82,0,0
123761,-83.3333333333333,4,1,0,82,0,0
127082,-83.3333333333333,4,2,1,82,0,0
133297,-83.3333333333333,4,1,1,82,0,0
140582,-100,4,1,1,82,0,1
154297,-100,4,1,1,82,0,0

[Colours]
Combo1 : 0,128,128
Combo2 : 128,193,62
Combo3 : 223,40,100

[HitObjects]
424,304,3440,1,2
416,288,3547,1,0
408,272,3654,2,0,B|456:256|464:192,1,90,0|0
336,96,4082,1,2
336,96,4297,2,0,B|288:112|288:168,1,90
327,244,4725,2,0,B|376:228|376:176,1,90,0|0
96,256,5154,5,2
88,272,5261,1,0
80,288,5368,2,0,B|128:304|136:368,1,90
208,256,5797,1,2
272,344,6011,1,0
240,232,6225,1,0
304,328,6440,1,0
344,224,6654,1,0
368,208,6761,1,0
392,192,6868,6,0,B|416:152|376:104,1,90,2|0
379,108,7190,1,0
379,108,7297,2,0,B|312:112|240:80,1,135
216,80,7725,2,0,B|96:88,1,90
296,304,8154,2,0,B|416:312,1,90,0|2
472,264,8582,6,0,B|416:224|416:144,1,135,2|0
336,72,9011,2,0,B|384:96|384:160,1,90,0|2
224,152,9440,2,0,B|173:180|127:123,1,90,0|2
344,216,9868,2,0,B|400:232|392:304,1,90,2|0
312,288,10297,6,0,B|269:314|218:316,1,90,2|0
208,321,10618,1,0
190,324,10725,2,0,B|111:281|42:314,1,135,8|0
60,307,11154,2,0,B|32:213,2,90,0|0|2
16,120,11797,1,0
40,104,11904,1,0
64,88,12011,6,0,B|112:96|160:80,1,90,2|0
176,72,12332,1,0
200,56,12440,2,0,B|272:32|352:56,1,135,8|0
333,50,12868,2,0,B|392:128,2,90,0|0|0
256,208,13725,6,0,B|264:280|360:312,1,135,2|0
368,312,14154,2,0,B|456:328,1,90,8|0
256,352,14582,1,0
144,312,14797,2,0,B|56:328,1,90,2|0
256,224,15225,1,2
256,200,15332,1,0
256,176,15440,6,0,B|216:128|144:88,1,135,2|0
128,80,15869,2,0,B|88:168,1,90,8|0
256,56,16297,1,0
384,80,16511,2,0,B|424:168,1,90,2|2
344,104,17154,6,0,B|160:104,1,180,4|8
164,104,18011,5,0
92,176,18225,1,6
180,224,18440,1,0
92,272,18654,1,6
16,320,18868,2,0,B|196:320,1,180,6|2
196,320,19725,5,0
280,264,19940,1,6
184,208,20154,1,4
268,152,20368,1,0
352,112,20582,2,0,B|168:112,1,180,4|8
172,112,21440,6,0,B|133:142|141:214,1,90,0|6
318,236,21868,2,0,B|356:205|348:133,1,90,0|6
269,94,22297,2,0,B|221:158|253:198|205:270,1,180,4|2
210,262,23154,6,0,B|88:272,1,90,2|4
302,262,23582,2,0,B|424:272,1,90,6|0
120,270,24011,6,0,B|88:310|16:286,1,90,4|0
64,222,24440,2,0,B|96:182|168:206,1,90,10|0
160,176,24761,1,0
176,152,24868,6,8,B|200:64,1,90,0|6
328,88,25297,2,0,B|304:176,1,90,0|6
360,256,25725,6,0,B|390:294|440:276,1,90,4|0
291,310,26154,2,4,B|260:271|210:289,1,90,2|4
184,296,26475,1,0
160,312,26582,5,0
80,264,26797,1,2
144,200,27011,1,4
56,168,27225,1,0
120,96,27440,2,0,B|317:71,1,180,4|8
416,56,28082,1,4
432,64,28190,1,0
448,72,28297,2,0,B|464:112|448:168,1,90,0|4
368,216,28725,2,0,B|360:320,1,90,0|4
248,104,29154,6,0,B|264:312,1,180,6|2
261,283,29797,1,4
261,283,29904,1,0
261,283,30011,1,0
176,296,30225,5,2
272,384,30440,1,4
344,280,30654,1,0
264,304,30868,5,4
104,104,44582,6,0,B|80:168,2,45,4|0|0
168,160,45011,2,0,B|160:224,2,45,0|0|2
240,200,45440,2,0,B|248:264,2,45,2|0|0
328,216,45868,2,2,B|352:264,2,45,2|2|2
424,208,46297,6,0,B|398:157,2,45
294,192,46725,2,0,B|287:136,2,45,8|0|2
190,142,47154,2,0,B|196:86,2,45,2|0|0
98,68,47583,2,0,B|117:15,2,45,4|0|0
80,192,48011,5,0
80,192,48118,1,0
80,192,48225,1,0
144,288,48440,1,0
144,288,48547,1,0
144,288,48654,1,2
256,312,48868,1,2
256,312,48975,1,0
256,312,49082,1,0
352,256,49297,1,2
352,256,49404,1,2
352,256,49511,1,2
256,208,49725,5,2
256,208,49832,1,0
256,208,49939,1,2
336,160,50154,1,8
336,160,50261,1,0
336,160,50368,1,2
424,192,50582,1,2
424,192,50689,1,0
424,192,50796,1,0
448,280,51011,1,4
448,280,51118,1,0
448,280,51225,1,0
256,360,51440,5,4
424,192,51868,1,0
256,24,52297,1,0
88,192,52725,1,0
256,176,53154,5,0
255,271,53368,1,0
336,224,53582,1,8
256,176,53797,1,0
161,175,54011,5,0
208,256,54225,1,0
256,176,54440,1,8
232,88,54654,1,0
328,112,54868,6,0,B|384:104,3,45,0|0|0|0
392,104,55297,1,8
384,120,55404,1,0
376,136,55511,1,0
368,152,55618,1,0
360,168,55725,1,0
352,184,55832,1,0
344,200,55940,1,0
336,216,56047,1,0
328,232,56154,1,8
320,248,56261,1,0
312,264,56368,1,0
304,280,56475,1,0
296,296,56582,2,0,B|336:312,24,30
120,256,58618,5,2
112,240,58725,2,0,B|80:168|104:96,1,134.999995976687,0|2
240,144,59154,2,0,B|343:179|455:123,1,202.49999396503,0|2
512,160,59582,2,0,B|526:75|455:42,1,134.999995976687,0|2
448,216,60011,2,2,B|440:296|504:336,1,134.999995976687,0|0
472,360,60332,2,0,B|408:336|336:352,1,134.999995976687,2|2
328,312,60654,2,0,B|256:288|192:320,1,134.999995976687
88,288,61082,1,0
64,272,61190,1,2
96,168,61404,1,2
88,136,61511,1,0
200,160,61725,6,0,B|280:176|336:120,1,134.999995976687
336,112,62047,1,2
344,88,62154,1,0
456,152,62368,1,2
448,184,62475,1,0
440,216,62582,1,0
344,320,62797,1,0
320,336,62904,2,2,B|176:336,2,134.999995976687
344,320,63440,6,2,B|312:256|320:168,1,134.999995976687,2|0
216,56,63868,2,2,B|248:120|240:208,1,134.999995976687,2|0
240,216,64190,1,2
144,208,64404,1,2
120,200,64511,1,0
184,296,64725,2,2,B|176:368,2,67.4999979883433
320,192,65154,6,2,B|392:160|472:208,1,134.999995976687,0|0
480,208,65475,1,2
472,176,65582,2,0,B|440:104|488:24,1,134.999995976687,0|2
476,45,66011,1,2
376,48,66225,1,0
384,72,66332,1,2
320,136,66547,1,0
312,120,66654,6,2,B|224:80|128:144|40:104,1,269.999991953373,0|2
45,106,67190,2,0,B|63:191|23:239,1,134.999995976687,0|2
8,256,67511,2,0,B|93:237|141:277,1,134.999995976687
152,296,67832,1,2
168,312,67940,2,2,B|320:312,1,134.999995976687,0|2
336,312,68261,1,0
368,312,68368,1,2
256,192,68582,5,4
376,192,68797,1,0
400,176,68904,1,2
320,80,69118,2,0,B|256:53|176:80,1,134.999995976687,2|0
176,104,69440,2,0,B|160:224|40:224,1,202.49999396503,0|2
39,224,69868,1,4
88,336,70082,1,6
208,312,70297,2,0,B|320:312,1,90
298,312,71154,5,0
136,234,71368,1,2
214,72,71582,1,0
376,150,71797,1,2
347,239,72011,6,0,B|288:240|256:192,1,108.000002574921,4|2
225,93,72440,2,0,B|267:135|256:192,1,108.000002574921,8|2
208,283,72868,2,4,B|208:223|256:192,1,108.000002574921,4|0
256,192,73297,1,8
347,238,73511,2,0,B|463:246,1,108.000002574921,0|4
152,160,73940,2,0,B|35:151,1,108.000002574921,2|8
256,192,74368,6,2,B|199:293,1,108.000002574921,2|4
256,192,74797,2,2,B|312:90,1,108.000002574921,0|4
203,286,75226,2,0,B|91:333,1,108.000002574921,0|4
308,97,75655,2,0,B|420:50,1,108.000002574921,2|8
407,55,76082,5,2
368,176,76297,1,4
488,152,76511,1,0
368,176,76725,1,8
456,264,76940,1,0
368,176,77154,2,0,B|256:216|152:176,1,216.000005149841,4|8
156,177,78011,5,4
224,64,78225,1,2
248,56,78332,1,8
272,48,78440,2,0,B|400:72,1,108.000002574921,0|8
288,128,78868,2,0,B|408:176,1,108.000002574921,4|2
320,224,79297,2,0,B|432:304,1,108.000002574921,8|2
256,312,79725,5,4
144,248,79940,1,2
256,192,80154,1,8
368,136,80368,1,2
272,72,80582,5,4
256,192,80797,1,0
144,248,81011,1,8
256,192,81225,6,2,B|195:190|161:148,1,108.000002574921,2|4
256,192,81653,2,2,B|316:193|350:235,1,108.000002574921,2|4
161,148,82082,2,0,B|87:43,1,108.000002574921,2|4
350,235,82511,2,2,B|424:340,1,108.000002574921,2|8
80,136,82940,5,2
160,264,83154,1,4
240,144,83368,1,2
160,180,83582,5,8
304,208,83796,1,0
256,56,84010,1,4
256,192,84118,12,4,85725
344,72,86154,5,4
440,128,86368,1,2
328,216,86582,1,0
368,88,86797,5,8
464,144,87011,1,4
352,232,87225,1,2
488,160,87440,5,0
472,304,87654,1,0
472,304,87761,1,2
472,304,87868,1,4
376,248,88082,5,0
200,312,88297,1,0
136,136,88511,1,2
136,136,88618,1,0
136,136,88725,1,4
312,72,88940,1,2
328,216,89154,5,2
288,120,89369,1,0
184,168,89583,1,4
224,264,89797,1,2
312,320,90011,5,0
416,320,90225,1,8
368,216,90440,1,4
416,320,90654,1,2
480,216,90868,5,0
424,120,91082,1,0
424,120,91190,1,2
424,120,91297,1,4
312,120,91511,1,0
200,120,91725,1,0
128,208,91940,1,2
144,208,92047,1,2
160,208,92154,6,2,B|392:208,1,216.000005149841,2|6
294,132,92797,2,0,B|350:18,1,108.000002574921,0|2
192,152,93225,2,0,B|95:103,1,108.000002574921,2|0
265,228,93654,2,0,B|304:346,1,108.000002574921,2|0
128,112,94082,6,0,B|64:224,1,108.000002574921,0|2
384,112,94510,2,0,B|448:224,1,108.000002574921,0|2
216,184,94939,2,0,B|216:56,1,108.000002574921,2|0
296,128,95367,2,0,B|296:256,1,108.000002574921,2|0
400,248,95797,6,0,B|464:160,1,108.000002574921,2|2
349,54,96226,2,2,B|328:112|352:160,1,108.000002574921,0|2
256,308,96654,2,0,B|256:200,1,108.000002574921,2|0
162,54,97083,2,0,B|184:112|160:160,1,108.000002574921,2|0
112,248,97511,2,0,B|48:160,1,108.000002574921,0|6
160,160,97940,5,0
216,256,98154,1,2
312,256,98368,1,0
264,168,98582,1,0
216,80,98797,1,0
264,168,99011,1,0
312,80,99225,1,0
384,168,99440,5,4
472,232,99654,1,0
464,248,99761,1,2
384,312,99975,1,2
368,328,100082,2,0,B|224:331,1,134.999995976687,0|4
128,296,100511,1,0
112,272,100618,1,2
128,176,100832,1,0
112,152,100940,1,2
24,80,101154,6,0,B|104:88|160:24,1,134.999995976687,4|0
168,56,101475,2,4,B|246:49|289:100,1,134.999995976687,4|2
320,80,101797,2,0,B|364:129|442:123,1,134.999995976687,4|4
432,248,102225,1,0
400,232,102332,1,4
376,224,102440,2,0,B|297:216|253:266,1,134.999995976687,0|4
160,336,102868,5,4
64,248,103082,1,0
48,224,103190,1,2
112,160,103404,1,0
112,128,103511,1,2
200,64,103725,2,0,B|280:40|336:96,1,134.999995976687,4|0
352,72,104047,1,2
384,56,104154,2,0,B|352:144|400:208,1,134.999995976687,0|2
464,280,104582,6,0,B|376:248|312:296,1,134.999995976687,4|0
304,312,104904,2,0,B|291:229|219:221,1,134.999995976687,4|2
210,147,105225,2,0,B|203:218|120:232,1,134.999995976687,4|4
40,184,105654,1,0
32,208,105761,1,4
32,232,105868,2,0,B|45:315|117:323,1,134.999995976687,4|6
56,56,106297,6,0,B|128:32|192:56,1,134.999995976687,4|2
208,40,106618,1,2
344,112,106833,1,2
360,96,106940,1,0
456,192,107154,1,4
344,248,107368,5,0
336,264,107475,1,6
216,184,107690,1,2
216,208,107797,1,8
88,224,108011,1,4
48,352,108225,5,2
32,368,108332,1,2
168,336,108547,1,2
184,344,108654,2,0,B|256:376|320:336,1,134.999995976687,0|4
424,304,109082,1,0
416,288,109190,1,4
400,272,109297,2,0,B|347:218|267:218,1,134.999995976687,0|8
96,64,109725,6,0,B|208:40|288:120,1,202.49999396503,4|0
283,115,110154,2,0,B|368:192|480:168,1,202.49999396503,4|0
464,208,110582,2,0,B|352:232|272:152,1,202.49999396503,0|6
276,156,111011,2,0,B|191:79|79:103,1,202.49999396503,4|0
88,101,111440,1,4
144,240,112083,1,0
144,240,112190,1,0
144,240,112297,5,2
208,80,112511,1,2
368,144,112725,1,0
304,304,112940,1,2
412,254,113154,6,0,B|312:214,1,108.000002574921,2|0
99,129,113582,2,0,B|199:169,1,108.000002574921,0|2
128,304,114011,2,0,B|200:312|232:248,1,108.000002574921,0|2
289,119,114440,2,2,B|312:72|384:80,1,108.000002574921,0|2
328,225,114868,2,0,B|376:248|368:320,1,108.000002574921,2|0
183,158,115297,2,0,B|136:136|144:64,1,108.000002574921,2|0
72,200,115725,6,2,B|152:248|128:344,1,162.000003862381,2|0
104,352,116154,2,2,B|144:312|208:328,1,108.000002574921,0|2
312,344,116582,2,0,B|371:359|411:319,1,108.000002574921,2|0
344,248,117011,2,0,B|368:136,1,108.000002574921,0|2
166,134,117440,2,0,B|144:240,1,108.000002574921,0|2
144,240,117868,1,0
256,192,118082,1,2
366,142,118297,1,4
366,142,118725,1,2
304,304,119154,6,2,B|352:232|448:240,1,162.000003862381,0|0
440,272,119582,2,2,B|416:216|440:168,1,108.000002574921,0|2
224,64,120011,2,0,B|248:120|224:168,1,108.000002574921,2|0
332,167,120440,6,0,B|440:167,1,108.000002574921,0|2
336,208,120868,2,2,B|228:208,1,108.000002574921,0|2
264,88,121297,2,0,B|408:88,1,108.000002574921,0|2
248,312,121725,2,0,B|104:312,1,108.000002574921,2|0
140,312,122154,2,0,B|168:224|104:136,1,162.000003862381,2|0
96,176,122582,2,2,B|152:168|184:120,1,108.000002574921,0|2
88,80,123011,2,0,B|32:88|0:136,1,108.000002574921,0|2
184,176,123440,6,0,B|192:232|240:264,1,108.000002574921,2|0
328,208,123868,2,0,B|320:152|272:120,1,108.000002574921,0|2
272,120,124297,2,2,B|216:128|184:176,1,108.000002574921,0|2
240,264,124725,2,2,B|296:256|328:208,1,108.000002574921,0|2
256,192,125154,5,6
256,192,125368,12,4,126868
96,160,127296,5,4
144,240,127510,1,0
224,192,127725,1,0
176,112,127939,1,8
256,64,128153,1,4
304,144,128368,1,2
240,128,128582,5,8
320,80,128796,1,0
368,160,129011,1,4
288,208,129225,1,0
304,144,129439,5,0
416,88,129653,1,8
472,200,129868,1,4
360,256,130082,1,2
264,296,130297,6,0,B|208:368|88:336,1,162.000003862381,8|2
88,304,130726,2,0,B|152:312|192:288,1,108.000002574921,0|4
240,224,131155,2,0,B|296:152|416:184,1,162.000003862381,0|2
400,178,131583,1,4
416,178,131690,1,0
432,178,131797,1,0
400,296,132011,5,8
256,344,132225,1,2
104,296,132440,1,4
256,344,132654,1,2
400,296,132868,1,0
256,344,133082,1,0
256,328,133190,1,4
256,320,133297,6,2,B|256:88,1,216.000005149841,0|6
112,112,133940,2,2,B|176:120|224:64,1,108.000002574921,0|2
398,112,134368,2,0,B|336:120|301:78,1,108.000002574921,2|0
304,180,134797,2,0,B|304:288,1,108.000002574921,2|2
208,180,135225,2,2,B|208:288,1,108.000002574921,0|2
128,256,135654,6,2,B|24:280,1,108.000002574921,0|2
192,136,136082,2,0,B|160:24,1,108.000002574921,2|0
320,136,136511,2,0,B|352:24,1,108.000002574921,2|2
384,256,136940,2,0,B|488:280,1,108.000002574921,0|2
256,232,137368,5,0
128,256,137582,1,2
256,232,137797,1,2
192,136,138011,1,0
256,232,138225,1,2
320,136,138440,1,2
256,232,138654,1,0
384,256,138868,5,4
384,256,139082,1,0
320,352,139297,1,0
320,352,139511,1,0
192,352,139725,1,0
192,352,139940,1,0
128,256,140154,1,0
128,256,140368,1,0
256,192,140582,5,4
256,192,141011,1,0
256,280,141225,1,0
200,104,141440,1,2
312,104,141654,1,2
312,104,142082,5,2
256,192,142297,1,0
368,192,142511,1,0
256,192,142725,1,0
256,280,142940,1,0
144,192,143154,1,2
160,88,143368,1,0
168,72,143475,1,0
176,56,143582,2,2,B|232:80|296:32|360:56,1,180,6|6
353,54,144440,5,0
445,94,144654,1,0
357,142,144868,1,2
445,94,145082,1,2
448,96,145511,1,2
448,192,145725,2,0,B|432:296,1,90,0|2
360,248,146154,2,0,B|272:288,1,90
168,256,146582,2,0,B|304:192,1,135,2|0
277,127,147011,2,2,B|109:207,1,180,6|6
114,204,147868,5,0
114,204,148082,1,0
398,204,148297,1,2
398,204,148511,1,2
398,204,148940,5,2
256,312,149154,1,0
256,128,149368,1,2
256,312,149582,1,0
114,204,149797,1,0
192,56,150011,2,0,B|336:56,1,135,2|0
352,128,150440,2,2,B|160:128,1,180,6|6
172,128,151297,6,0,B|112:208,1,90,0|0
352,128,151725,2,0,B|412:48,1,90,2|2
406,56,152368,1,2
456,192,152582,5,4
456,192,152797,2,0,B|376:272,1,90,2|0
240,280,153225,1,2
224,296,153332,1,0
208,312,153440,2,2,B|120:312,1,90,0|0
304,80,153868,2,2,B|392:80,1,90,6|0
256,192,154297,5,4
