osu file format v13

[General]
AudioFilename: Pendulum - The Island.mp3
AudioLeadIn: 2500
PreviewTime: 335525
Countdown: 0
SampleSet: Soft
StackLeniency: 0.8
Mode: 0
LetterboxInBreaks: 1
WidescreenStoryboard: 0

[Editor]
Bookmarks: 122192,133145,150764,152192,153144,228859,244097,257430,293621,382787,522311
DistanceSpacing: 1.4
BeatDivisor: 4
GridSize: 4
TimelineZoom: 2.5

[Metadata]
Title:The Island
TitleUnicode:The Island
Artist:Pendulum
ArtistUnicode:Pendulum
Creator:Sala-
Version:Absolution
Source:
Tags:Immersion dawn dusk dubstep drum_and_bass instrumental electronic house music
BeatmapID:315867
BeatmapSetID:123756

[Difficulty]
HPDrainRate:7
CircleSize:4
OverallDifficulty:8
ApproachRate:8.5
SliderMultiplier:1.4
SliderTickRate:1

[Events]
//Background and Video events
0,0,"BG_Island.jpg",0,0
//Break Periods
2,46202,52946
2,183344,195803
2,293821,296755
2,320487,331041
2,427154,441041
//Storyboard Layer 0 (Background)
//Storyboard Layer 1 (Fail)
//Storyboard Layer 2 (Pass)
//Storyboard Layer 3 (Foreground)
//Storyboard Sound Samples
//Background Colour Transformations
3,100,0,0,0

[TimingPoints]
288,476.19,4,2,0,30,1,0
645,-100,4,2,1,15,0,0
764,-100,4,2,1,20,0,0
1002,-100,4,2,1,10,0,0
1240,-100,4,2,1,15,0,0
1478,-100,4,2,1,10,0,0
1716,-100,4,2,1,15,0,0
1954,-100,4,2,1,10,0,0
2192,-100,4,2,1,15,0,0
2430,-100,4,2,1,10,0,0
3145,-100,4,2,1,15,0,0
3859,-100,4,2,1,10,0,0
4097,-100,4,2,1,15,0,0
4335,-100,4,2,1,10,0,0
4573,-100,4,2,1,15,0,0
4811,-100,4,2,1,10,0,0
5049,-100,4,2,1,15,0,0
5287,-100,4,2,1,10,0,0
5526,-100,4,2,1,15,0,0
5764,-100,4,2,1,10,0,0
6002,-100,4,2,1,15,0,0
6240,-100,4,2,1,10,0,0
6954,-100,4,2,1,15,0,0
7668,-100,4,2,1,10,0,0
7907,-100,4,2,0,30,0,0
8264,-100,4,2,1,10,0,0
8383,-100,4,2,1,15,0,0
8621,-100,4,2,1,10,0,0
8859,-100,4,2,1,15,0,0
9097,-100,4,2,1,10,0,0
9335,-100,4,2,1,15,0,0
9573,-100,4,2,1,10,0,0
9811,-100,4,2,1,15,0,0
10049,-100,4,2,1,10,0,0
10764,-100,4,2,1,15,0,0
11478,-100,4,2,1,10,0,0
11716,-100,4,2,1,15,0,0
12430,-100,4,2,1,10,0,0
12668,-100,4,2,1,15,0,0
12907,-100,4,2,1,10,0,0
13145,-100,4,2,1,15,0,0
13383,-100,4,2,1,10,0,0
13621,-100,4,2,1,15,0,0
13859,-100,4,2,1,10,0,0
14573,-100,4,2,1,15,0,0
15287,-100,4,2,1,10,0,0
15526,-100,4,2,0,30,0,0
16002,-100,4,2,1,15,0,0
16240,-100,4,2,1,10,0,0
16478,-100,4,2,1,15,0,0
16716,-100,4,2,1,10,0,0
16954,-100,4,2,1,15,0,0
17192,-100,4,2,1,10,0,0
17430,-100,4,2,1,15,0,0
17668,-100,4,2,1,10,0,0
18383,-100,4,2,1,15,0,0
19097,-100,4,2,1,10,0,0
19335,-100,4,2,1,15,0,0
19573,-100,4,2,1,10,0,0
20287,-100,4,2,1,15,0,0
20526,-100,4,2,1,10,0,0
20764,-100,4,2,1,15,0,0
21002,-100,4,2,1,10,0,0
21240,-100,4,2,1,15,0,0
21478,-100,4,2,1,10,0,0
22192,-100,4,2,1,15,0,0
22907,-100,4,2,1,10,0,0
23145,-100,4,2,0,30,0,0
23502,-100,4,2,1,10,0,0
23621,-100,4,2,0,10,0,0
23859,-100,4,2,0,18,0,0
24097,-90.9090909090909,4,2,0,15,0,0
24335,-90.9090909090909,4,2,0,22,0,0
24573,-90.9090909090909,4,2,0,20,0,0
24811,-90.9090909090909,4,2,0,26,0,0
25049,-83.3333333333333,4,2,0,25,0,0
25287,-83.3333333333333,4,2,0,30,0,0
25526,-83.3333333333333,4,2,0,30,0,0
25764,-83.3333333333333,4,2,0,34,0,0
26002,-76.9230769230769,4,2,0,35,0,0
26240,-76.9230769230769,4,2,0,38,0,0
26478,-76.9230769230769,4,2,0,40,0,0
26716,-76.9230769230769,4,2,0,42,0,0
26954,-76.9230769230769,4,2,0,45,0,0
27192,-76.9230769230769,4,2,0,46,0,0
27430,-76.9230769230769,4,2,0,50,0,0
30764,-66.6666666666667,4,1,0,40,0,0
31121,-66.6666666666667,4,1,0,30,0,0
34573,-66.6666666666667,4,1,0,35,0,0
36478,-66.6666666666667,4,1,0,45,0,0
37430,-66.6666666666667,4,1,0,60,0,0
38383,-55.5555555555556,4,1,0,80,0,0
38621,-55.5555555555556,4,1,0,60,0,0
38859,-66.6666666666667,4,1,0,40,0,0
39335,-55.5555555555556,4,1,0,80,0,0
39573,-55.5555555555556,4,1,0,65,0,0
39811,-62.5,4,1,0,45,0,0
40287,-55.5555555555556,4,1,0,80,0,0
40526,-55.5555555555556,4,1,0,70,0,0
40764,-58.8235294117647,4,1,0,50,0,0
41240,-55.5555555555556,4,1,0,80,0,0
41478,-55.5555555555556,4,1,0,75,0,0
41716,-55.5555555555556,4,1,0,55,0,0
42192,-52.6315789473684,4,1,0,80,0,0
45526,-50,4,1,0,45,0,0
53621,-66.6666666666667,4,1,1,22,0,0
54097,-66.6666666666667,4,1,0,25,0,0
54573,-66.6666666666667,4,1,1,28,0,0
55049,-66.6666666666667,4,1,0,31,0,0
55526,-66.6666666666667,4,1,1,34,0,0
56002,-66.6666666666667,4,1,0,37,0,0
56478,-66.6666666666667,4,1,1,40,0,0
56954,-66.6666666666667,4,1,0,43,0,0
57430,-66.6666666666667,4,1,1,46,0,0
57906,-66.6666666666667,4,1,0,49,0,0
58383,-66.6666666666667,4,1,1,52,0,0
58859,-66.6666666666667,4,1,0,55,0,0
61240,-62.5,4,1,2,70,0,1
76478,-62.5,4,1,1,70,0,1
91716,-62.5,4,2,0,60,0,0
96002,-62.5,4,2,0,30,0,0
96240,-62.5,4,2,0,60,0,0
96954,-62.5,4,2,0,25,0,0
97192,-62.5,4,2,0,60,0,0
99811,-62.5,4,2,0,30,0,0
100049,-62.5,4,2,0,60,0,0
100764,-62.5,4,2,0,25,0,0
101002,-62.5,4,2,0,60,0,0
103145,-62.5,4,2,0,35,0,0
103383,-62.5,4,2,0,60,0,0
103621,-62.5,4,2,0,30,0,0
103859,-62.5,4,2,0,60,0,0
104573,-62.5,4,2,0,25,0,0
104811,-62.5,4,2,0,60,0,0
106954,-62.5,4,2,0,70,0,0
108383,-62.5,4,2,0,50,0,0
108621,-62.5,4,2,0,70,0,0
109335,-62.5,4,2,0,50,0,0
109573,-62.5,4,2,0,70,0,0
110287,-62.5,4,2,0,50,0,0
110525,-62.5,4,2,0,70,0,0
111240,-62.5,4,2,0,50,0,0
111478,-62.5,4,2,0,70,0,0
112192,-62.5,4,2,0,50,0,0
112430,-62.5,4,2,0,70,0,0
113145,-62.5,4,2,0,50,0,0
113383,-62.5,4,2,0,70,0,0
113978,-62.5,4,2,0,50,0,0
114335,-62.5,4,2,0,70,0,0
114573,-62.5,4,2,0,60,0,0
133383,-62.5,4,2,0,18,0,0
135764,-62.5,4,2,0,60,0,0
137192,-133.333333333333,4,1,0,57,0,0
137430,-133.333333333333,4,1,0,60,0,0
137787,-133.333333333333,4,1,0,50,0,0
137906,-90.9090909090909,4,1,0,55,0,0
138264,-90.9090909090909,4,1,0,50,0,0
138383,-71.4285714285714,4,1,0,50,0,0
139335,-71.4285714285714,4,1,0,40,0,0
139811,-62.5,4,1,0,35,0,0
140168,-62.5,4,1,1,50,0,0
145049,-62.5,4,1,1,55,0,0
146954,-62.5,4,1,1,60,0,0
148859,-62.5,4,1,1,65,0,0
149811,-62.5,4,1,1,70,0,0
150764,-62.5,4,1,1,75,0,0
151716,-62.5,4,1,1,85,0,0
152668,-62.5,4,1,2,70,0,1
153144,-55.5555555555556,4,1,2,70,0,1
167906,-55.5555555555556,4,1,1,70,0,1
183025,-55.5555555555556,4,1,2,85,0,1
183144,-55.5555555555556,4,2,0,35,0,0
196478,-90.9090909090909,4,2,0,25,0,0
198383,-66.6666666666667,4,2,0,60,0,0
206478,-66.6666666666667,4,2,0,30,0,0
206716,-66.6666666666667,4,2,0,60,0,0
207430,-66.6666666666667,4,2,0,25,0,0
207668,-66.6666666666667,4,2,0,60,0,0
210287,-66.6666666666667,4,2,0,28,0,0
210525,-66.6666666666667,4,2,0,60,0,0
211240,-66.6666666666667,4,2,0,20,0,0
211478,-66.6666666666667,4,2,0,60,0,0
212192,-66.6666666666667,4,2,0,18,0,0
212430,-66.6666666666667,4,2,0,60,0,0
213144,-66.6666666666667,4,2,0,16,0,0
213383,-66.6666666666667,4,2,0,70,0,0
214097,-66.6666666666667,4,2,0,50,0,0
214573,-66.6666666666667,4,2,0,70,0,0
215049,-66.6666666666667,4,2,0,50,0,0
215287,-66.6666666666667,4,2,0,70,0,0
216002,-66.6666666666667,4,2,0,50,0,0
216240,-66.6666666666667,4,2,0,70,0,0
216954,-66.6666666666667,4,2,0,50,0,0
217192,-66.6666666666667,4,2,0,70,0,0
217906,-66.6666666666667,4,2,0,50,0,0
218144,-66.6666666666667,4,2,0,70,0,0
218859,-66.6666666666667,4,2,0,50,0,0
219097,-66.6666666666667,4,2,0,70,0,0
219811,-66.6666666666667,4,2,0,50,0,0
220049,-66.6666666666667,4,2,0,70,0,0
221240,-66.6666666666667,4,2,0,60,0,0
228859,-58.8235294117647,4,2,0,60,0,0
244097,-58.8235294117647,4,1,0,60,0,0
244454,-58.8235294117647,4,1,0,50,0,0
244573,-58.8235294117647,4,1,0,55,0,0
244811,-58.8235294117647,4,1,0,50,0,0
246002,-58.8235294117647,4,1,0,40,0,0
246240,-58.8235294117647,4,1,0,50,0,0
246478,-58.8235294117647,4,1,0,35,0,0
246716,-58.8235294117647,4,1,1,50,0,0
251716,-58.8235294117647,4,1,1,55,0,0
253621,-58.8235294117647,4,1,1,60,0,0
255525,-58.8235294117647,4,1,1,65,0,0
256478,-58.8235294117647,4,1,1,70,0,0
257430,-58.8235294117647,4,1,1,75,0,0
258382,-58.8235294117647,4,1,1,85,0,0
259335,-55.5555555555556,4,1,2,70,0,1
280287,-55.5555555555556,4,1,2,70,0,1
281240,-55.5555555555556,4,1,2,70,0,1
281716,-50,4,1,2,70,0,1
282192,-55.5555555555556,4,1,2,70,0,1
290049,-55.5555555555556,4,1,2,25,0,0
293621,-90.9090909090909,4,1,1,25,0,0
297430,-71.4285714285714,4,1,1,50,0,0
301240,-76.9230769230769,4,1,1,45,0,0
305049,-83.3333333333333,4,1,1,40,0,0
308859,-83.3333333333333,4,1,1,35,0,0
312668,-83.3333333333333,4,1,1,30,0,0
316478,-83.3333333333333,4,1,1,25,0,0
331716,-83.3333333333333,4,1,1,10,0,0
332192,-83.3333333333333,4,1,1,15,0,0
332668,-83.3333333333333,4,1,1,20,0,0
333144,-83.3333333333333,4,1,1,25,0,0
333621,-83.3333333333333,4,1,1,30,0,0
333859,-83.3333333333333,4,1,1,35,0,0
334097,-83.3333333333333,4,1,1,40,0,0
334335,-83.3333333333333,4,1,1,45,0,0
334573,-83.3333333333333,4,1,1,50,0,0
334811,-83.3333333333333,4,1,1,35,0,0
334930,-83.3333333333333,4,1,1,20,0,0
335049,-83.3333333333333,4,1,1,50,0,0
336240,-83.3333333333333,4,1,0,52,0,0
336359,-83.3333333333333,4,1,0,53,0,0
336478,-76.9230769230769,4,1,1,42,0,0
336716,-76.9230769230769,4,1,0,56,0,0
336795,-76.9230769230769,4,1,0,57,0,0
336954,-76.9230769230769,4,1,0,58,0,0
337192,-76.9230769230769,4,1,0,60,0,0
337430,-76.9230769230769,4,1,1,46,0,0
337668,-76.9230769230769,4,1,0,64,0,0
337906,-66.6666666666667,4,1,1,48,0,0
338025,-66.6666666666667,4,1,0,67,0,0
338144,-66.6666666666667,4,1,0,68,0,0
338263,-66.6666666666667,4,1,0,69,0,0
338382,-58.8235294117647,4,1,1,50,0,0
338620,-58.8235294117647,4,1,0,72,0,0
338740,-58.8235294117647,4,1,0,73,0,0
338859,-50,4,1,1,52,0,0
339097,-50,4,1,0,76,0,0
339216,-50,4,1,0,77,0,0
339335,-66.6666666666667,4,1,1,54,0,0
339573,-66.6666666666667,4,1,1,55,0,0
339811,-66.6666666666667,4,1,1,30,0,0
340287,-66.6666666666667,4,1,1,55,0,0
341001,-66.6666666666667,4,1,1,70,0,0
341240,-66.6666666666667,4,1,1,55,0,0
341716,-66.6666666666667,4,1,1,30,0,0
342192,-66.6666666666667,4,1,1,55,0,0
342906,-66.6666666666667,4,1,1,70,0,0
343144,-76.9230769230769,4,1,0,40,0,0
343620,-76.9230769230769,4,1,0,50,0,0
343859,-76.9230769230769,4,1,0,52,0,0
343978,-76.9230769230769,4,1,0,53,0,0
344097,-76.9230769230769,4,1,1,42,0,0
344335,-76.9230769230769,4,1,0,56,0,0
344494,-76.9230769230769,4,1,0,57,0,0
344573,-76.9230769230769,4,1,0,58,0,0
344811,-76.9230769230769,4,1,0,60,0,0
345049,-76.9230769230769,4,1,1,46,0,0
345287,-76.9230769230769,4,1,0,64,0,0
345525,-76.9230769230769,4,1,1,48,0,0
345644,-76.9230769230769,4,1,0,67,0,0
345763,-76.9230769230769,4,1,0,68,0,0
345882,-76.9230769230769,4,1,0,69,0,0
346001,-58.8235294117647,4,1,1,50,0,0
346359,-58.8235294117647,4,1,0,73,0,0
346478,-50,4,1,1,52,0,0
346716,-50,4,1,0,76,0,0
346835,-50,4,1,0,77,0,0
346954,-50,4,1,1,54,0,0
347192,-50,4,1,1,55,0,0
347430,-50,4,1,1,30,0,0
347906,-50,4,1,1,55,0,0
348620,-50,4,1,1,70,0,0
348859,-50,4,1,1,55,0,0
349335,-50,4,1,1,30,0,0
349811,-50,4,1,1,55,0,0
350525,-76.9230769230769,4,1,0,40,0,0
350763,-76.9230769230769,4,1,0,40,0,1
351240,-76.9230769230769,4,1,0,50,0,1
351478,-76.9230769230769,4,1,0,52,0,1
351597,-76.9230769230769,4,1,0,53,0,1
351716,-76.9230769230769,4,1,1,42,0,1
351835,-76.9230769230769,4,1,0,55,0,1
351954,-76.9230769230769,4,1,0,56,0,1
352073,-76.9230769230769,4,1,0,57,0,1
352192,-76.9230769230769,4,1,1,44,0,1
352311,-76.9230769230769,4,1,0,59,0,1
352430,-76.9230769230769,4,1,0,60,0,1
352549,-76.9230769230769,4,1,0,61,0,1
352668,-58.8235294117647,4,1,1,46,0,1
352906,-58.8235294117647,4,1,0,64,0,1
353144,-58.8235294117647,4,1,1,48,0,1
353382,-58.8235294117647,4,1,0,68,0,1
353501,-58.8235294117647,4,1,0,69,0,1
353620,-58.8235294117647,4,1,1,50,0,1
353859,-58.8235294117647,4,1,0,72,0,1
353978,-58.8235294117647,4,1,0,73,0,1
354097,-58.8235294117647,4,1,1,52,0,1
354216,-58.8235294117647,4,1,0,75,0,1
354335,-58.8235294117647,4,1,0,76,0,1
354454,-58.8235294117647,4,1,0,77,0,1
354573,-58.8235294117647,4,1,0,50,0,1
355049,-58.8235294117647,4,1,1,56,0,1
355168,-58.8235294117647,4,1,0,83,0,1
355287,-58.8235294117647,4,1,0,84,0,1
355406,-58.8235294117647,4,1,0,85,0,1
355525,-58.8235294117647,4,1,1,58,0,1
355644,-58.8235294117647,4,1,0,87,0,1
355763,-58.8235294117647,4,1,0,88,0,1
355882,-58.8235294117647,4,1,0,89,0,1
356001,-58.8235294117647,4,1,1,60,0,1
356120,-58.8235294117647,4,1,0,91,0,1
356240,-58.8235294117647,4,1,0,92,0,1
356359,-58.8235294117647,4,1,0,93,0,1
356478,-58.8235294117647,4,1,1,94,0,1
357906,-58.8235294117647,4,1,0,50,0,1
358382,-83.3333333333333,4,1,0,40,0,0
358859,-58.8235294117647,4,2,0,70,0,0
359335,-58.1395348837209,4,2,0,70,0,0
359811,-57.4712643678161,4,2,0,70,0,0
361716,-90.9090909090909,4,2,0,70,0,0
362668,-58.8235294117647,4,2,0,70,0,0
366001,-58.8235294117647,4,1,0,40,0,0
366478,-58.8235294117647,4,1,0,50,0,0
366636,-58.8235294117647,4,1,0,51,0,0
366716,-58.8235294117647,4,1,0,52,0,0
366795,-58.8235294117647,4,1,0,53,0,0
366954,-58.8235294117647,4,1,0,54,0,0
367192,-58.8235294117647,4,1,0,56,0,0
367271,-58.8235294117647,4,1,0,57,0,0
367430,-58.8235294117647,4,1,0,58,0,0
367668,-58.8235294117647,4,1,0,60,0,0
367906,-58.8235294117647,4,1,1,46,0,0
368144,-58.8235294117647,4,1,0,64,0,0
368382,-58.8235294117647,4,1,1,48,0,0
368501,-58.8235294117647,4,1,0,67,0,0
368620,-58.8235294117647,4,1,0,68,0,0
368740,-58.8235294117647,4,1,0,69,0,0
368859,-58.8235294117647,4,1,1,50,0,0
368978,-58.8235294117647,4,1,0,71,0,0
369097,-58.8235294117647,4,1,0,72,0,0
369216,-58.8235294117647,4,1,0,73,0,0
369335,-58.8235294117647,4,1,1,52,0,0
369454,-58.8235294117647,4,1,0,75,0,0
369573,-58.8235294117647,4,1,0,76,0,0
369692,-58.8235294117647,4,1,0,77,0,0
369811,-58.8235294117647,4,1,1,54,0,0
370049,-58.8235294117647,4,1,1,55,0,0
370287,-58.8235294117647,4,1,1,30,0,0
370525,-58.8235294117647,4,2,0,79,0,0
373620,-100,4,1,0,40,0,0
374097,-71.4285714285714,4,1,0,50,0,0
374335,-71.4285714285714,4,1,0,52,0,0
374454,-71.4285714285714,4,1,0,53,0,0
374573,-71.4285714285714,4,1,1,42,0,0
374811,-71.4285714285714,4,1,0,56,0,0
374970,-71.4285714285714,4,1,0,57,0,0
375049,-71.4285714285714,4,1,1,44,0,0
375287,-71.4285714285714,4,1,0,60,0,0
375525,-71.4285714285714,4,1,1,46,0,0
375763,-71.4285714285714,4,1,0,64,0,0
376001,-71.4285714285714,4,1,1,48,0,0
376120,-71.4285714285714,4,1,0,67,0,0
376240,-66.6666666666667,4,1,0,68,0,0
376359,-66.6666666666667,4,1,0,69,0,0
376478,-58.8235294117647,4,1,1,50,0,0
376835,-58.8235294117647,4,1,0,73,0,0
376954,-50,4,1,1,52,0,0
377192,-50,4,1,0,76,0,0
377311,-50,4,1,0,77,0,0
377430,-58.8235294117647,4,1,1,54,0,0
377668,-58.8235294117647,4,1,1,55,0,0
377906,-58.8235294117647,4,1,1,30,0,0
378382,-58.8235294117647,4,1,1,55,0,0
379097,-58.8235294117647,4,1,1,70,0,0
379335,-58.8235294117647,4,1,1,55,0,0
379811,-58.8235294117647,4,1,1,30,0,0
380287,-58.8235294117647,4,1,1,55,0,0
380763,-58.8235294117647,4,1,0,55,0,0
381240,-133.333333333333,4,1,0,40,0,1
381716,-133.333333333333,4,1,0,50,0,1
381954,-62.5,4,1,0,52,0,1
382073,-62.5,4,1,0,53,0,1
382192,-62.5,4,1,1,42,0,1
382311,-62.5,4,1,0,55,0,1
382430,-62.5,4,1,0,56,0,1
382549,-62.5,4,1,0,57,0,1
382668,-62.5,4,1,0,44,0,1
382906,-62.5,4,1,0,55,0,1
383144,-62.5,4,1,1,41,0,1
383382,-62.5,4,1,0,49,0,1
383620,-62.5,4,1,0,48,0,1
383859,-62.5,4,1,0,68,0,1
383978,-62.5,4,1,0,69,0,1
384097,-62.5,4,1,0,50,0,1
384335,-62.5,4,1,0,72,0,1
384454,-62.5,4,1,0,73,0,1
384573,-62.5,4,1,0,52,0,1
384811,-62.5,4,1,0,71,0,1
385049,-62.5,4,1,1,49,0,1
385287,-62.5,4,1,0,65,0,1
385525,-55.5555555555556,4,1,0,56,0,1
385763,-55.5555555555556,4,1,0,68,0,1
385882,-55.5555555555556,4,1,0,80,0,1
386001,-55.5555555555556,4,1,0,83,0,1
386239,-55.5555555555556,4,1,0,84,0,1
386478,-55.5555555555556,4,1,0,85,0,1
386716,-55.5555555555556,4,1,0,86,0,1
386954,-55.5555555555556,4,1,1,87,0,1
388382,-55.5555555555556,4,1,0,50,0,1
388859,-83.3333333333333,4,1,0,40,0,0
389335,-58.8235294117647,4,2,0,70,0,0
396478,-100,4,1,0,40,0,0
396954,-66.6666666666667,4,1,0,50,0,0
397192,-66.6666666666667,4,1,0,52,0,0
397311,-66.6666666666667,4,1,0,53,0,0
397430,-66.6666666666667,4,1,1,42,0,0
397668,-66.6666666666667,4,1,0,56,0,0
397747,-66.6666666666667,4,1,0,57,0,0
397906,-66.6666666666667,4,1,0,58,0,0
398144,-66.6666666666667,4,1,0,60,0,0
398382,-66.6666666666667,4,1,1,46,0,0
398620,-66.6666666666667,4,1,0,64,0,0
398859,-66.6666666666667,4,1,1,48,0,0
398978,-66.6666666666667,4,1,0,67,0,0
399097,-66.6666666666667,4,1,0,68,0,0
399216,-66.6666666666667,4,1,0,69,0,0
399335,-58.8235294117647,4,1,1,50,0,0
399692,-58.8235294117647,4,1,0,73,0,0
399811,-50,4,1,1,52,0,0
400168,-50,4,1,0,77,0,0
400287,-62.5,4,1,1,54,0,0
400525,-62.5,4,1,1,55,0,0
400763,-62.5,4,1,1,30,0,0
401239,-62.5,4,1,1,55,0,0
401954,-62.5,4,1,1,70,0,0
402192,-62.5,4,1,1,55,0,0
402668,-62.5,4,1,1,30,0,0
403144,-62.5,4,1,1,55,0,0
403859,-62.5,4,1,1,70,0,0
404097,-100,4,1,0,40,0,0
404573,-71.4285714285714,4,1,0,50,0,0
404811,-71.4285714285714,4,1,0,52,0,0
404930,-71.4285714285714,4,1,0,53,0,0
405049,-58.8235294117647,4,1,1,42,0,0
405287,-58.8235294117647,4,1,0,56,0,0
405446,-58.8235294117647,4,1,0,57,0,0
405525,-58.8235294117647,4,1,1,44,0,0
405644,-58.8235294117647,4,1,0,59,0,0
405763,-58.8235294117647,4,1,0,60,0,0
405882,-58.8235294117647,4,1,0,61,0,0
406001,-58.8235294117647,4,1,1,46,0,0
406239,-58.8235294117647,4,1,0,64,0,0
406478,-58.8235294117647,4,1,1,48,0,0
406597,-58.8235294117647,4,1,0,67,0,0
406716,-58.8235294117647,4,1,0,68,0,0
406835,-58.8235294117647,4,1,0,69,0,0
406954,-58.8235294117647,4,1,1,50,0,0
407073,-58.8235294117647,4,1,0,71,0,0
407192,-58.8235294117647,4,1,0,72,0,0
407311,-58.8235294117647,4,1,0,73,0,0
407430,-58.8235294117647,4,1,1,52,0,0
407549,-58.8235294117647,4,1,0,75,0,0
407668,-58.8235294117647,4,1,0,76,0,0
407787,-58.8235294117647,4,1,0,77,0,0
407906,-58.8235294117647,4,1,1,54,0,0
408144,-58.8235294117647,4,1,1,55,0,0
408382,-58.8235294117647,4,1,1,30,0,0
408859,-58.8235294117647,4,1,1,55,0,0
409573,-58.8235294117647,4,1,1,70,0,0
409811,-58.8235294117647,4,1,1,55,0,0
410287,-58.8235294117647,4,1,1,30,0,0
410763,-58.8235294117647,4,1,1,55,0,0
411478,-58.8235294117647,4,1,0,40,0,0
411716,-142.857142857143,4,1,0,40,0,1
412192,-142.857142857143,4,1,0,50,0,1
412430,-83.3333333333333,4,1,0,52,0,1
412549,-83.3333333333333,4,1,0,53,0,1
412668,-83.3333333333333,4,1,1,42,0,1
412787,-83.3333333333333,4,1,0,55,0,1
412906,-83.3333333333333,4,1,0,56,0,1
413025,-83.3333333333333,4,1,0,57,0,1
413144,-83.3333333333333,4,1,1,44,0,1
413263,-83.3333333333333,4,1,0,59,0,1
413382,-83.3333333333333,4,1,0,60,0,1
413501,-83.3333333333333,4,1,0,61,0,1
413620,-100,4,1,1,46,0,1
413859,-83.3333333333333,4,1,0,64,0,1
414097,-66.6666666666667,4,1,1,48,0,1
414335,-66.6666666666667,4,1,0,68,0,1
414454,-66.6666666666667,4,1,0,69,0,1
414573,-66.6666666666667,4,1,1,50,0,1
414811,-66.6666666666667,4,1,0,70,0,1
414930,-66.6666666666667,4,1,0,73,0,1
415049,-66.6666666666667,4,1,1,52,0,1
415287,-66.6666666666667,4,1,0,76,0,1
415406,-66.6666666666667,4,1,0,77,0,1
415525,-66.6666666666667,4,1,1,54,0,1
416001,-66.6666666666667,4,1,1,56,0,1
416120,-66.6666666666667,4,1,0,83,0,1
416239,-66.6666666666667,4,1,0,84,0,1
416359,-66.6666666666667,4,1,0,85,0,1
416478,-66.6666666666667,4,1,1,58,0,1
416716,-66.6666666666667,4,1,0,88,0,1
416835,-66.6666666666667,4,1,0,89,0,1
416954,-66.6666666666667,4,1,1,60,0,1
417192,-66.6666666666667,4,1,0,92,0,1
417311,-66.6666666666667,4,1,0,93,0,1
417430,-66.6666666666667,4,1,1,94,0,1
418859,-66.6666666666667,4,1,0,50,0,1
419335,-66.6666666666667,4,1,0,40,0,0
419811,-62.5,4,2,0,70,0,0
423144,-111.111111111111,4,2,0,70,0,0
423620,-71.4285714285714,4,2,0,70,0,0
425049,-71.4285714285714,4,1,0,50,0,0
441716,-181.818181818181,4,1,0,20,0,0
457430,-166.666666666667,4,1,0,40,0,0
459335,-166.666666666667,4,1,0,45,0,0
461239,-166.666666666667,4,1,0,50,0,0
463144,-166.666666666667,4,1,0,55,0,0
472668,-166.666666666667,4,1,0,50,0,0
473144,-55.5555555555556,4,1,1,55,0,0
475049,-55.5555555555556,4,1,1,40,0,0
475208,-55.5555555555556,4,1,0,51,0,0
475366,-55.5555555555556,4,1,0,52,0,0
475525,-55.5555555555556,4,1,1,42,0,0
475684,-55.5555555555556,4,1,0,55,0,0
475843,-55.5555555555556,4,1,0,56,0,0
476001,-55.5555555555556,4,1,1,44,0,0
476160,-55.5555555555556,4,1,0,59,0,0
476319,-55.5555555555556,4,1,0,60,0,0
476478,-58.8235294117647,4,1,1,55,0,1
476954,-58.8235294117647,4,1,0,55,0,1
477192,-58.8235294117647,4,1,1,55,0,1
478144,-58.8235294117647,4,1,1,70,0,1
478382,-58.8235294117647,4,1,1,55,0,1
480049,-58.8235294117647,4,1,1,70,0,1
480287,-125,4,1,1,40,0,0
480763,-58.8235294117647,4,1,1,55,0,0
482192,-76.9230769230769,4,1,1,55,0,0
482668,-58.8235294117647,4,1,1,40,0,0
482787,-58.8235294117647,4,1,1,51,0,0
482906,-58.8235294117647,4,1,1,52,0,0
483025,-58.8235294117647,4,1,1,53,0,0
483144,-58.8235294117647,4,1,1,42,0,0
483263,-58.8235294117647,4,1,1,55,0,0
483382,-58.8235294117647,4,1,1,56,0,0
483501,-58.8235294117647,4,1,1,57,0,0
483620,-58.8235294117647,4,1,1,44,0,0
483739,-58.8235294117647,4,1,1,59,0,0
483858,-58.8235294117647,4,1,1,60,0,0
483977,-58.8235294117647,4,1,1,61,0,0
484097,-58.8235294117647,4,1,1,55,0,1
484573,-58.8235294117647,4,1,0,55,0,1
484811,-58.8235294117647,4,1,1,55,0,1
485763,-58.8235294117647,4,1,1,70,0,1
486001,-58.8235294117647,4,1,1,55,0,1
487668,-58.8235294117647,4,1,0,40,0,1
487906,-133.333333333333,4,1,1,40,0,0
488382,-133.333333333333,4,1,0,50,0,1
488620,-83.3333333333333,4,1,0,52,0,1
488739,-83.3333333333333,4,1,0,53,0,1
488858,-83.3333333333333,4,1,1,42,0,1
488977,-83.3333333333333,4,1,0,55,0,1
489097,-66.6666666666667,4,1,0,56,0,1
489216,-66.6666666666667,4,1,0,57,0,1
489335,-66.6666666666667,4,1,1,44,0,1
489454,-66.6666666666667,4,1,0,59,0,1
489573,-66.6666666666667,4,1,0,60,0,1
489692,-66.6666666666667,4,1,0,61,0,1
489811,-66.6666666666667,4,1,1,46,0,1
490049,-66.6666666666667,4,1,0,64,0,1
490287,-66.6666666666667,4,1,1,48,0,1
490406,-66.6666666666667,4,1,0,67,0,1
490525,-66.6666666666667,4,1,0,68,0,1
490644,-66.6666666666667,4,1,0,69,0,1
490763,-66.6666666666667,4,1,1,50,0,1
490882,-66.6666666666667,4,1,0,71,0,1
491001,-66.6666666666667,4,1,0,72,0,1
491120,-66.6666666666667,4,1,0,73,0,1
491239,-66.6666666666667,4,1,1,52,0,1
491358,-66.6666666666667,4,1,0,75,0,1
491477,-66.6666666666667,4,1,0,76,0,1
491597,-66.6666666666667,4,1,0,77,0,1
491716,-50,4,1,0,50,0,1
492192,-58.8235294117647,4,1,1,56,0,1
492549,-58.8235294117647,4,1,0,85,0,1
492668,-58.8235294117647,4,1,1,58,0,1
492906,-58.8235294117647,4,1,0,88,0,1
493025,-58.8235294117647,4,1,0,89,0,1
493144,-58.8235294117647,4,1,1,60,0,1
493382,-58.8235294117647,4,1,0,92,0,1
493501,-58.8235294117647,4,1,0,93,0,1
493620,-58.8235294117647,4,1,1,94,0,1
495049,-58.8235294117647,4,1,0,50,0,1
495525,-58.8235294117647,4,1,0,40,0,0
496001,-58.8235294117647,4,2,0,70,0,0
499335,-142.857142857143,4,2,0,70,0,0
499811,-62.5,4,2,0,70,0,0
503144,-62.5,4,1,0,50,0,0
503620,-50,4,1,1,55,0,0
505525,-50,4,1,1,40,0,0
505684,-50,4,1,0,51,0,0
505843,-50,4,1,0,52,0,0
506001,-50,4,1,1,42,0,0
506160,-50,4,1,0,55,0,0
506319,-50,4,1,0,56,0,0
506477,-50,4,1,1,44,0,0
506636,-50,4,1,0,59,0,0
506795,-50,4,1,0,60,0,0
506954,-50,4,1,1,55,0,1
507430,-50,4,1,0,55,0,1
507668,-50,4,1,1,55,0,1
508620,-50,4,1,1,70,0,1
508858,-50,4,1,1,55,0,1
510525,-50,4,1,1,70,0,1
510763,-100,4,1,0,40,0,0
511239,-100,4,1,1,55,0,0
511398,-62.5,4,1,1,55,0,0
513144,-62.5,4,1,1,40,0,0
513382,-62.5,4,1,0,52,0,0
513501,-62.5,4,1,0,53,0,0
513620,-62.5,4,1,1,42,0,0
513858,-62.5,4,1,0,56,0,0
513977,-62.5,4,1,0,57,0,0
514097,-62.5,4,1,1,44,0,0
514335,-62.5,4,1,0,60,0,0
514454,-62.5,4,1,0,61,0,0
514573,-62.5,4,1,1,55,0,1
515049,-62.5,4,1,0,55,0,1
515287,-62.5,4,1,1,55,0,1
516239,-62.5,4,1,1,70,0,1
516477,-62.5,4,1,1,55,0,0
516954,-62.5,4,1,1,30,0,0
517430,-62.5,4,1,1,55,0,0
517906,-62.5,4,1,0,55,0,0
518382,-133.333333333333,4,1,0,40,0,0
518858,-133.333333333333,4,1,0,50,0,1
519097,-66.6666666666667,4,1,0,52,0,1
519216,-66.6666666666667,4,1,0,53,0,1
519335,-66.6666666666667,4,1,1,42,0,1
519454,-66.6666666666667,4,1,0,55,0,1
519573,-66.6666666666667,4,1,0,56,0,1
519692,-66.6666666666667,4,1,0,57,0,1
519811,-66.6666666666667,4,1,0,44,0,1
520049,-66.6666666666667,4,1,0,55,0,1
520287,-66.6666666666667,4,1,1,41,0,1
520525,-66.6666666666667,4,1,0,49,0,1
520763,-58.8235294117647,4,1,0,48,0,1
521001,-58.8235294117647,4,1,0,68,0,1
521120,-58.8235294117647,4,1,0,69,0,1
521239,-58.8235294117647,4,1,0,50,0,1
521477,-58.8235294117647,4,1,0,72,0,1
521597,-58.8235294117647,4,1,0,73,0,1
521716,-58.8235294117647,4,1,0,52,0,1
521954,-58.8235294117647,4,1,0,76,0,1
522073,-58.8235294117647,4,1,0,77,0,1
522192,-71.4285714285714,4,1,1,49,0,1
522430,-71.4285714285714,4,1,0,50,0,1
522668,-50,4,1,0,56,0,1
522906,-50,4,1,0,60,0,1
523025,-50,4,1,0,64,0,1
523144,-50,4,1,1,57,0,1
523263,-50,4,1,0,87,0,1
523382,-50,4,1,0,88,0,1
523501,-50,4,1,0,89,0,1
523620,-50,4,1,1,60,0,1
523739,-50,4,1,0,91,0,1
523858,-50,4,1,0,92,0,1
523977,-50,4,1,0,93,0,1
524097,-50,4,1,1,94,0,1
525525,-50,4,1,0,50,0,1
526001,-74.074074074074,4,1,0,40,0,0
526477,-57.1428571428571,4,2,0,70,0,0
529811,-133.333333333333,4,2,0,70,0,0
530287,-66.6666666666667,4,2,0,70,0,0
530763,-58.8235294117647,4,2,0,70,0,0
531239,-52.6315789473684,4,2,0,70,0,0
531716,-50,4,1,0,50,0,0

[Colours]
Combo1 : 64,128,128
Combo2 : 128,128,128
Combo3 : 255,0,0
Combo4 : 255,128,0
Combo5 : 170,0,0
Combo6 : 128,255,255
Combo7 : 192,192,192
Combo8 : 0,128,255

[HitObjects]
442,256,288,6,2,P|378:304|331:288,1,105,4|0,1:1|0:0,0:0:0:0:
373,229,764,2,0,L|362:149,1,70,8|2,0:0|0:0,0:0:0:0:
295,197,1240,2,0,L|279:105,1,70,10|0,0:0|0:0,0:0:0:0:
215,165,1716,2,0,L|198:82,1,70,10|0,0:0|0:0,0:0:0:0:
147,51,2192,69,10,0:0:0:0:
147,51,2430,2,2,P|82:52|36:124,1,140,2|2,0:0|0:0,0:0:0:0:
44,188,3145,2,0,L|60:349,1,140,10|10,0:0|0:0,0:0:0:0:
148,291,3859,1,0,0:0:0:0:
218,351,4097,6,0,P|262:358|307:337,1,70,10|2,0:0|0:0,0:0:0:0:
340,291,4573,2,0,L|340:219|340:219,1,70,8|2,0:0|0:0,0:0:0:0:
403,149,5049,2,0,P|436:138|473:144,1,70,10|0,0:0|0:0,0:0:0:0:
510,275,5526,2,0,P|474:283|440:277,1,70,10|0,0:0|0:0,0:0:0:0:
281,188,6002,5,10,0:0:0:0:
281,188,6240,2,2,B|279:119|279:119|324:56,1,140,2|2,0:0|0:0,0:0:0:0:
328,254,6954,2,8,P|235:258|204:211,1,140,10|10,0:0|0:0,0:0:0:0:
191,145,7668,1,0,0:0:0:0:
169,70,7906,38,2,P|114:40|47:52,1,105,4|0,1:1|0:0,1:0:0:0:
35,50,8383,86,0,P|46:94|42:129,1,70,8|2,0:0|0:0,0:0:0:0:
31,187,8859,1,2,0:0:0:0:
31,257,9097,1,0,0:0:0:0:
92,292,9335,1,2,0:0:0:0:
152,257,9573,1,0,0:0:0:0:
153,187,9811,85,10,0:0:0:0:
153,187,10049,2,2,P|220:168|279:215,1,140,2|2,0:0|0:0,0:0:0:0:
206,245,10764,2,0,B|202:284|229:306|229:306|221:342|252:375,1,140,2|2,0:0|0:0,0:0:0:0:
339,293,11478,1,0,0:0:0:0:
411,318,11716,6,0,L|416:236,1,70,10|0,0:0|0:0,0:0:0:0:
448,178,12192,1,2,0:0:0:0:
420,105,12430,1,2,0:0:0:0:
366,50,12668,2,0,L|285:46,1,70,10|0,0:0|0:0,0:0:0:0:
232,90,13145,2,0,P|224:142|229:175,1,70,10|0,0:0|0:0,0:0:0:0:
270,221,13621,5,10,0:0:0:0:
335,179,13859,2,10,P|348:245|294:295,1,140,2|2,0:0|0:0,0:0:0:0:
278,127,14573,2,8,P|351:102|403:146,1,140,10|10,0:0|0:0,0:0:0:0:
423,207,15287,1,0,0:0:0:0:
428,207,15526,6,2,B|430:243|430:243|463:288|463:288|466:353,1,140,4|8,1:1|0:0,0:0:0:0:
383,354,16240,38,2,L|296:353,1,70,2|10,0:0|0:0,0:0:0:0:
270,286,16716,2,2,L|270:215,2,70,0|10|0,0:0|0:0|0:0,0:0:0:0:
208,333,17430,5,10,0:0:0:0:
201,184,17668,2,10,P|248:141|325:163,1,140,2|2,0:0|0:0,0:0:0:0:
330,341,18383,2,8,P|261:365|195:307,1,140,10|10,0:0|0:0,0:0:0:0:
157,240,19097,1,0,0:0:0:0:
135,137,19335,5,10,0:0:0:0:
189,47,19573,2,0,P|244:33|307:97,1,140,2|2,0:0|0:0,0:0:0:0:
253,174,20287,2,0,P|231:131|238:101,1,70,10|0,0:0|0:0,0:0:0:0:
397,120,20764,2,0,P|397:154|378:183,1,70,10|0,0:0|0:0,0:0:0:0:
280,318,21240,5,2,0:0:0:0:
280,317,21478,2,2,P|214:303|180:239,1,140,2|2,0:0|0:0,0:0:0:0:
243,150,22192,2,0,P|309:164|343:228,1,140,2|2,0:0|0:0,0:0:0:0:
262,236,22907,1,0,0:0:0:0:
42,140,23145,38,2,B|34:81|34:81|53:38|53:38,1,105,4|0,1:0|0:0,0:0:0:0:
90,37,23621,22,0,L|170:37,1,70,8|8,0:0|0:0,0:0:0:0:
226,100,24097,2,0,P|227:149|207:202,2,77.0000023498536,8|8|8,0:0|0:0|0:2,0:0:0:0:
293,36,24811,1,8,0:0:0:0:
387,70,25049,2,0,P|443:61|476:85,1,83.9999974365235,8|8,0:0|0:0,0:0:0:0:
470,222,25526,2,0,P|421:235|382:216,1,83.9999974365235,8|8,0:0|0:0,0:0:0:0:
253,149,26002,2,8,L|160:156,2,90.9999958343508,8|8|8,0:0|0:0|0:0,0:0:0:0:
320,281,26716,1,8,0:0:0:0:
196,255,26954,6,0,P|144:244|88:264,1,90.9999958343508,8|8,0:0|0:0,0:0:0:0:
13,352,27430,2,0,B|68:367|108:311,1,90.9999958343508,8|8,0:0|0:0,0:0:0:0:
30,190,27907,2,8,P|21:246|61:306,2,90.9999958343508,8|8|8,0:0|0:0|0:0,0:0:0:0:
42,72,28621,1,8,0:0:0:0:
146,41,28859,6,0,P|245:53|260:61,1,90.9999958343508,8|8,0:0|0:0,0:0:0:0:
374,148,29335,2,0,P|275:136|252:125,1,90.9999958343508,8|8,0:0|0:0,0:0:0:0:
93,184,29811,2,0,P|192:196|218:207,1,90.9999958343508,8|8,0:0|0:0,0:0:0:0:
344,284,30287,2,0,P|245:272|221:263,1,90.9999958343508,8|8,0:0|0:0,0:0:0:0:
437,88,30764,6,0,P|450:175|406:255,1,157.500006008148,4|0,0:0|0:0,0:0:0:0:
405,263,31240,2,8,P|335:253|304:269,1,105.000004005432,8|0,0:0|0:0,0:0:0:0:
189,314,31716,2,0,L|73:302,1,105.000004005432,8|0,0:0|0:0,0:0:0:0:
76,139,32192,1,8,0:0:0:0:
81,124,32311,1,0,0:0:0:0:
86,109,32430,1,8,0:0:0:0:
176,36,32668,2,0,P|256:20|288:40,2,105.000004005432,8|0|8,0:0|0:0|0:0,0:0:0:0:
232,149,33383,5,0,0:0:0:0:
349,103,33621,1,8,0:0:0:0:
458,165,33859,1,0,0:0:0:0:
462,290,34097,1,8,0:0:0:0:
349,347,34335,1,0,0:0:0:0:
322,219,34573,54,0,B|294:168|294:168|304:111,1,105.000004005432,8|0,0:0|0:0,0:0:0:0:
277,9,35049,2,0,B|246:58|246:58|192:78,1,105.000004005432,8|0,0:0|0:0,0:0:0:0:
121,156,35526,2,0,B|179:157|179:157|223:194,1,105.000004005432,8|0,0:0|0:0,0:0:0:0:
232,302,36002,1,8,0:0:0:0:
227,317,36121,1,0,0:0:0:0:
222,332,36240,1,8,0:0:0:0:
118,260,36478,6,0,L|78:158,2,105.000004005432,8|2|8,0:0|0:3|0:0,0:0:0:0:
192,349,37192,1,2,0:3:0:0:
258,179,37430,2,0,P|329:166|371:186,1,105.000004005432,8|2,0:0|0:3,0:0:0:0:
408,322,37907,2,8,P|337:335|295:315,1,105.000004005432,8|2,0:0|0:3,0:0:0:0:
396,38,38383,6,4,L|436:213,1,125.999996154785,4|0,0:0|0:0,0:0:0:0:
426,263,38859,1,2,2:0:0:0:
334,334,39097,1,0,2:0:0:0:
232,37,39335,6,0,L|268:191,1,125.999996154785,4|0,0:0|0:0,0:0:0:0:
246,282,39811,1,2,2:0:0:0:
147,340,40049,1,0,2:0:0:0:
60,246,40287,6,0,B|48:178|48:178|82:76,1,125.999996154785,4|0,0:0|0:0,0:0:0:0:
156,28,40764,1,2,2:0:0:0:
286,42,41002,1,0,2:0:0:0:
231,302,41240,6,0,B|219:234|219:234|253:132,1,125.999996154785,4|0,0:0|0:0,0:0:0:0:
327,84,41717,1,2,2:0:0:0:
457,98,41955,1,0,2:0:0:0:
394,329,42192,54,0,P|331:356|261:313,1,132.999996448517,4|0,0:0|0:0,0:0:0:0:
198,133,42668,2,0,P|258:103|315:130,1,132.999996448517,4|0,0:0|0:0,0:0:0:0:
198,308,43145,6,0,B|149:333|149:333|75:307,1,132.999996448517,4|0,0:0|0:0,0:0:0:0:
0,116,43621,2,0,B|47:89|47:89|121:115,1,132.999996448517,4|0,0:0|0:0,0:0:0:0:
273,190,44097,6,0,P|307:180|340:191,1,66.4999982242585,4|0,0:0|0:0,0:0:0:0:
336,288,44335,2,0,P|302:298|269:287,1,66.4999982242585,4|0,0:0|0:0,0:0:0:0:
150,169,44573,6,0,B|173:186|173:186|195:216,1,66.4999982242585,4|0,0:0|0:0,0:0:0:0:
99,242,44811,2,0,B|75:224|75:224|53:194,1,66.4999982242585,4|0,0:0|0:0,0:0:0:0:
161,53,45049,6,0,P|204:57|226:76,1,66.4999982242585,4|0,0:0|0:0,0:0:0:0:
259,162,45287,2,0,P|216:158|194:139,1,66.4999982242585,4|0,0:0|0:0,0:0:0:0:
317,86,45526,6,0,B|360:90|360:90|382:109,1,70,4|0,0:0|0:0,0:0:0:0:
404,212,45764,2,0,B|361:208|361:208|338:189,1,70,4|0,0:0|0:0,0:0:0:0:
476,129,46002,5,4,0:0:0:0:
128,292,53621,6,0,L|107:227,3,52.5000020027161,8|0|0|0,0:3|0:0|0:0|0:0,0:0:0:0:
165,104,54097,2,0,L|168:169,3,52.5000020027161,8|0|0|0,0:2|0:0|0:0|0:0,0:0:0:0:
235,261,54573,2,0,L|249:204,3,52.5000020027161,8|0|0|0,0:2|0:0|0:0|0:0,0:0:0:0:
353,139,55049,2,0,L|354:192,3,52.5000020027161,8|0|0|0,0:2|0:0|0:0|0:0,0:0:0:0:
284,320,55526,5,0,0:0:0:0:
260,332,55645,1,0,0:0:0:0:
232,336,55764,1,0,0:0:0:0:
208,332,55883,1,0,0:0:0:0:
184,316,56002,1,8,0:2:0:0:
168,296,56121,1,0,0:0:0:0:
160,272,56240,1,0,0:0:0:0:
160,244,56359,1,0,0:0:0:0:
172,220,56478,5,8,0:3:0:0:
192,204,56597,1,0,0:0:0:0:
212,188,56716,1,0,0:0:0:0:
232,172,56835,1,0,0:0:0:0:
252,156,56954,1,8,0:2:0:0:
268,136,57073,1,0,0:0:0:0:
280,112,57192,1,0,0:0:0:0:
272,88,57311,1,0,0:0:0:0:
260,64,57430,6,0,L|235:9,1,52.5000020027161,8|0,0:3|0:0,0:0:0:0:
213,68,57668,2,0,L|188:19,1,52.5000020027161
162,72,57906,2,0,L|137:17,1,52.5000020027161,8|0,0:2|0:0,0:0:0:0:
115,76,58145,2,0,L|90:27,1,52.5000020027161
36,223,58383,6,0,L|59:269,1,52.5000020027161,8|0,0:3|0:0,0:0:0:0:
88,219,58621,2,0,L|111:265,1,52.5000020027161,0|0,0:0|0:0,0:0:0:0:
143,217,58859,2,0,L|166:263,1,52.5000020027161,8|0,0:2|0:0,0:0:0:0:
195,213,59097,2,0,L|218:259,1,52.5000020027161,0|0,0:0|0:0,0:0:0:0:
256,192,59335,12,0,60764,2:0:0:0:
182,262,61240,86,0,P|167:158|194:84,1,168,4|0,0:0|0:0,0:0:0:0:
209,77,61716,1,10,0:0:0:0:
338,106,61954,1,0,0:0:0:0:
352,221,62192,2,0,P|299:231|254:201,1,112,0|0,0:0|0:0,0:0:0:0:
446,55,62668,2,0,L|453:173,1,112,10|4,0:0|3:0,0:0:0:0:
456,292,63145,6,0,P|316:345|241:272,1,224,0|10,0:0|0:0,0:0:0:0:
207,190,63859,1,0,0:0:0:0:
241,62,64097,2,0,L|340:124,1,112,0|0,0:0|0:0,0:0:0:0:
383,235,64573,2,0,L|280:172|280:172,1,112,10|4,0:0|3:0,0:0:0:0:
192,91,65049,6,0,B|143:69|143:69|95:76|80:112|80:112|56:240,1,224,0|10,0:0|0:0,0:0:0:0:
139,312,65764,1,4,3:0:0:0:
262,260,66002,2,0,P|274:198|252:136,1,112,4|2,0:3|3:0,0:0:0:0:
135,230,66478,1,10,0:0:0:0:
224,330,66716,1,0,0:0:0:0:
341,264,66954,54,0,P|361:184|284:65,1,224,0|10,0:0|0:0,0:0:0:0:
163,110,67668,2,0,P|106:139|61:123,1,112,0|0,3:0|0:0,0:0:0:0:
49,100,68026,2,0,L|56:43,1,56,0|0,3:0|0:0,0:0:0:0:
62,175,68383,2,0,P|65:267|50:324,1,112,10|0,0:0|3:0,0:0:0:0:
48,372,68859,6,0,P|188:342|262:366,1,224,4|10,0:0|0:0,0:0:0:0:
378,324,69573,1,0,0:0:0:0:
442,218,69811,2,0,P|451:120|434:93,1,112,0|0,0:0|0:0,0:0:0:0:
311,104,70287,2,0,P|311:214|325:233,1,112,10|4,0:0|3:0,0:0:0:0:
389,90,70764,6,0,P|337:28|232:112,1,224,0|10,0:0|0:0,0:0:0:0:
244,224,71478,1,0,0:0:0:0:
325,330,71716,1,0,0:0:0:0:
453,291,71954,1,0,0:0:0:0:
372,183,72192,1,10,0:0:0:0:
104,296,72430,5,4,3:0:0:0:
90,285,72549,1,0,0:0:0:0:
78,274,72668,2,0,P|63:182|132:74,1,224,0|8,0:0|0:0,0:0:0:0:
262,98,73383,1,4,3:0:0:0:
372,182,73621,2,0,P|384:234|363:290,1,112,4|2,0:3|3:0,0:0:0:0:
183,155,74097,2,0,P|164:99|179:48,1,112,10|2,0:0|0:3,0:0:0:0:
423,68,74573,6,0,P|443:170|402:279,1,224,0|10,0:0|0:0,0:0:0:0:
323,364,75287,1,0,0:0:0:0:
213,334,75526,2,0,B|174:334|174:334|147:317|147:317|101:317,1,112,0|0,0:0|0:0,0:0:0:0:
27,270,76002,2,0,P|13:222|39:117,1,112,10|0,0:0|3:0,0:0:0:0:
69,59,76478,54,0,P|140:41|176:56,1,112,4|0,3:1|3:0,0:0:0:0:
235,173,76954,2,0,P|164:191|128:176,1,112,8|0,1:3|3:0,0:0:0:0:
223,80,77430,2,0,P|325:74|387:173,1,224,0|8,3:0|0:3,0:0:0:0:
342,294,78145,1,0,3:0:0:0:
216,245,78383,6,0,B|133:225|133:225|58:260,2,168,2|2|0,3:0|2:3|0:0,0:0:0:0:
330,292,79335,2,0,P|398:313|456:260,1,112,0|0,3:0|3:0,0:0:0:0:
283,178,79811,2,0,P|230:226|247:303,1,112,0|0,3:0|3:0,0:0:0:0:
407,199,80287,6,0,P|413:135|333:68,2,168,2|2|0,0:3|0:3|0:0,0:0:0:0:
332,355,81240,2,0,L|286:252|286:252,1,112,0|0,3:0|3:0,0:0:0:0:
234,141,81716,2,0,L|167:232|167:232,1,112,0|0,3:0|3:0,0:0:0:0:
77,314,82192,6,0,L|245:331,2,168,2|2|0,3:0|2:3|0:0,0:0:0:0:
82,190,83145,5,6,2:0:0:0:
197,121,83383,1,2,3:0:0:0:
55,120,83621,1,8,0:3:0:0:
168,191,83859,1,2,3:0:0:0:
297,153,84097,54,0,P|365:269|306:336,1,224,4|8,3:1|0:3,0:0:0:0:
227,249,84811,1,0,0:0:0:0:
297,153,85049,2,0,L|426:143,1,112,0|0,3:0|3:0,0:0:0:0:
345,333,85526,2,0,L|223:341,1,112,8|0,0:3|3:0,0:0:0:0:
122,286,86002,6,0,P|100:206|162:147,2,168,2|2|0,3:0|2:3|0:0,0:0:0:0:
252,178,86954,2,0,P|187:143|145:153,1,112,0|0,3:0|3:0,3:0:0:0:
352,187,87430,2,0,P|351:133|317:85,1,112,8|0,0:3|3:0,0:0:0:0:
250,157,87906,6,0,L|432:125,1,168,2|2,3:0|2:3,0:0:0:0:
369,288,88621,1,0,0:0:0:0:
248,264,88859,2,0,P|181:271|138:356,2,168,2|2|0,3:0|2:3|0:0,0:0:0:0:
368,288,89811,6,0,P|435:281|478:196,2,168,2|2|0,3:0|2:3|0:0,0:0:0:0:
285,194,90764,1,0,0:0:0:0:
277,161,90883,1,0,0:0:0:0:
284,128,91002,1,0,0:0:0:0:
395,76,91240,1,0,0:3:0:0:
448,186,91478,1,0,0:0:0:0:
401,299,91716,6,0,P|337:325|298:294,1,112,4|0,1:0|0:0,0:0:0:0:
301,181,92192,2,0,P|364:154|403:185,1,112,8|0,0:1|0:0,0:0:0:0:
228,251,92668,1,0,3:0:0:0:
131,302,92906,1,0,3:1:0:0:
229,129,93145,1,8,0:1:0:0:
132,177,93383,1,0,0:0:0:0:
130,301,93621,54,0,P|70:277|56:190,1,112,0|0,3:0|0:0,0:0:0:0:
232,169,94097,2,0,P|241:231|172:288,1,112,0|0,3:0|0:0,0:0:0:0:
173,75,94573,2,0,B|250:73|250:73|359:117,2,168,0|0|0,3:0|0:0|0:0,0:0:0:0:
291,270,95526,6,0,P|344:294|409:261,1,112,4|0,3:1|0:0,0:0:0:0:
369,122,96002,2,0,P|336:176|368:242,1,112,12|0,3:1|0:0,0:0:0:0:
509,198,96478,2,0,P|451:169|392:200,1,112,0|0,3:0|0:0,0:0:0:0:
431,345,96954,2,0,P|461:286|437:225,1,112,12|0,3:1|0:0,0:0:0:0:
372,171,97430,6,0,L|389:281,2,112,0|0|8,3:0|0:0|0:1,0:0:0:0:
301,38,98145,1,0,0:0:0:0:
288,160,98383,2,0,L|313:328,2,168
183,103,99335,5,4,3:1:0:0:
72,22,99573,1,0,0:0:0:0:
184,112,99811,1,12,3:1:0:0:
60,175,100049,1,0,0:0:0:0:
186,124,100287,2,0,P|208:182|198:244,1,112,0|0,0:0|0:0,0:0:0:0:
289,336,100764,2,0,P|274:279|290:200,1,112,8|0,0:1|0:0,0:0:0:0:
363,55,101240,6,0,P|377:118|357:168,1,112,0|0,3:0|0:0,0:0:0:0:
187,109,101716,2,0,P|261:87|300:112,1,112,8|0,0:1|0:0,0:0:0:0:
400,262,102192,2,0,P|329:269|245:144,1,224,0|8,0:0|0:0,0:0:0:0:
361,50,102906,1,0,0:0:0:0:
465,189,103145,54,0,L|332:170,1,112,4|0,3:1|0:0,0:0:0:0:
208,254,103621,2,0,L|346:272,1,112,12|0,3:1|0:0,0:0:0:0:
260,160,104097,1,0,3:0:0:0:
123,260,104335,2,0,P|144:321|198:340,2,112,0|12|0,0:0|3:1|0:0,0:0:0:0:
257,154,105049,2,0,P|240:256|208:267,1,112,0|0,3:0|0:0,0:0:0:0:
120,154,105525,2,0,P|137:52|169:41,1,112,8|0,3:1|0:0,0:0:0:0:
409,46,106002,5,0,3:0:0:0:
344,163,106240,1,0,0:0:0:0:
337,136,106359,1,0,0:0:0:0:
331,108,106478,1,8,3:1:0:0:
263,212,106716,1,0,0:0:0:0:
269,238,106835,1,0,0:0:0:0:
276,264,106954,6,0,P|344:292|425:164,1,224,4|8,0:1|1:0,0:0:0:0:
331,109,107668,1,0,0:0:0:0:
211,47,107906,2,0,P|124:57|109:88,1,112,0|0,3:0|0:0,0:0:0:0:
52,190,108383,2,0,L|100:348,1,112,8|0,1:0|0:0,0:0:0:0:
209,346,108859,2,0,B|240:330|279:300|279:300|226:236|267:145,1,224,0|8,3:0|1:0,0:0:0:0:
340,68,109573,1,0,0:0:0:0:
454,138,109811,2,0,P|479:180|481:250,1,112,0|0,3:0|0:0,0:0:0:0:
355,285,110287,1,8,1:0:0:0:
231,232,110525,1,0,0:0:0:0:
172,88,110764,6,0,P|100:56|-12:152,1,224,0|8,3:0|1:0,0:0:0:0:
30,275,111478,1,0,0:0:0:0:
160,336,111716,2,0,P|218:308|244:241,1,112
238,213,112073,1,0,0:0:0:0:
224,162,112192,2,0,P|263:100|328:79,1,112,8|0,1:0|0:0,0:0:0:0:
435,76,112668,6,0,B|491:172|491:172|463:292,1,224,0|8,3:0|1:0,0:0:0:0:
348,339,113383,1,0,0:0:0:0:
226,299,113621,2,0,L|53:297,2,168,0|0|0,0:0|1:0|0:0,0:0:0:0:
268,148,114573,54,0,P|312:116|408:164,1,168,4|0,1:0|0:0,0:0:0:0:
418,219,115049,2,0,P|343:189|332:110,1,168,8|0,1:0|0:0,0:0:0:0:
404,88,115525,2,0,P|402:168|331:205,1,168,0|0,3:0|0:0,0:0:0:0:
256,252,116002,2,0,P|212:308|208:356,1,112,8|0,1:0|0:0,0:0:0:0:
168,232,116478,6,0,B|165:166|91:151|91:151|20:136|32:32,1,224,0|8,3:0|1:0,0:0:0:0:
148,40,117192,2,0,P|208:28|268:40,1,112,0|0,0:0|3:0,0:0:0:0:
364,100,117668,1,0,0:0:0:0:
372,128,117787,1,0,0:0:0:0:
380,156,117906,1,8,1:0:0:0:
356,276,118145,1,0,0:0:0:0:
233,292,118383,6,0,P|138:217|160:122,1,224,0|8,3:0|1:0,0:0:0:0:
261,62,119097,1,0,0:0:0:0:
381,85,119335,2,0,L|507:82,2,112,0|0|8,3:0|0:0|1:0,0:0:0:0:
278,153,120049,1,0,0:0:0:0:
398,179,120287,1,0,3:0:0:0:
294,245,120525,6,0,L|294:357,2,112,2|8|0,0:0|1:0|3:0,0:0:0:0:
298,121,121240,2,0,P|366:72|440:120,2,168,2|0|2,3:2|0:0|0:0,0:0:0:0:
250,234,122192,6,0,P|146:290|22:234,1,224,4|0,1:0|1:0,0:0:0:0:
39,138,122906,1,0,0:0:0:0:
136,68,123145,2,0,P|208:56|256:80,1,112,0|2,3:0|0:0,0:0:0:0:
332,187,123621,2,0,P|248:199|192:167,1,112,2|0,1:2|0:0,0:0:0:0:
316,80,124097,54,0,B|368:184|280:301,1,224,0|0,3:0|1:0,0:0:0:0:
196,332,124811,1,0,0:0:0:0:
196,332,125049,2,0,L|80:352,1,112,0|2,3:0|0:0,0:0:0:0:
148,244,125525,2,0,L|288:216,1,112,2|0,1:2|0:0,0:0:0:0:
366,163,126002,5,0,3:0:0:0:
407,96,126240,1,0,0:0:0:0:
250,91,126478,1,0,1:0:0:0:
287,160,126716,1,0,0:0:0:0:
370,27,126954,1,0,0:0:0:0:
290,33,127192,2,0,L|229:51,1,56
163,38,127430,2,0,P|93:47|66:79,1,112,2|0,1:2|0:0,0:0:0:0:
97,209,127906,1,0,3:0:0:0:
199,307,128145,6,0,P|256:324|323:296,2,112,2|0|0,0:0|1:0|3:0,0:0:0:0:
98,208,128859,2,0,P|90:149|98:40,2,168,2|0|2,3:2|0:0|0:0,0:0:0:0:
262,254,129811,6,0,P|346:210|351:164,1,112,4|0,1:0|2:0,0:0:0:0:
405,78,130287,1,0,1:0:0:0:
279,126,130525,2,0,L|279:183|279:183,2,56,0|0|0,0:0|0:0|3:0,0:0:0:0:
161,60,131002,2,0,P|95:36|37:55,2,112,2|2|0,0:0|1:2|0:0,0:0:0:0:
212,188,131716,6,0,B|180:304|180:304|39:348,1,224,0|0,3:0|1:0,0:0:0:0:
33,221,132430,1,0,0:0:0:0:
67,102,132668,2,0,P|133:39|169:40,2,112,0|2|2,3:0|0:0|1:2,0:0:0:0:
256,192,133383,12,2,135526,0:0:0:0:
256,191,135764,53,0,0:0:0:0:
161,235,136002,2,0,P|152:210|183:122,1,112,0|0,1:0|0:0,0:0:0:0:
362,51,136478,2,0,L|482:48,2,112,0|2|2,0:0|0:0|1:2,0:0:0:0:
225,86,137192,1,4,0:0:0:0:
228,117,137311,1,0,0:0:0:0:
227,143,137430,6,0,L|188:209,1,52.5000020027161,4|0,0:0|0:0,0:0:0:0:
230,275,137906,2,0,L|287:180,1,77.0000023498536,12|0,0:0|0:0,0:0:0:0:
367,129,138383,6,0,P|449:128|491:209,2,146.999995513916,2|2|2,0:2|0:2|0:3,0:0:0:0:
299,213,139335,2,0,L|164:236|164:236,1,97.9999970092774,4|0,0:0|0:0,0:0:0:0:
99,164,139811,6,0,L|261:138,1,112,12|0,0:0|0:0,0:0:0:0:
263,208,140287,2,0,P|289:125|166:80,2,224,2|8|0,0:2|0:0|0:0,0:0:0:0:
154,255,141478,1,0,0:0:0:0:
258,320,141716,1,8,0:0:0:0:
365,260,141954,1,0,0:0:0:0:
310,149,142192,6,0,P|297:84|323:44,1,112,0|0,0:0|0:0,0:0:0:0:
410,89,142668,1,8,0:0:0:0:
366,261,142906,2,0,P|270:286|167:207,1,224
214,34,143621,2,0,P|232:97|212:147,1,112,8|0,0:0|0:0,0:0:0:0:
101,276,144097,54,0,B|74:173|74:173|163:88,2,224,2|8|0,0:2|0:0|0:0,0:0:0:0:
220,306,145287,1,0,0:0:0:0:
248,313,145406,1,0,0:0:0:0:
276,320,145525,1,8,0:0:0:0:
91,154,145764,1,0,0:0:0:0:
85,181,145883,1,0,0:0:0:0:
78,208,146002,6,0,L|54:328,1,112,0|0,0:0|0:0,0:0:0:0:
180,144,146478,2,0,L|162:33,1,112,8|0,0:0|0:0,0:0:0:0:
300,171,146954,2,0,P|378:245|465:183,1,224,0|8,0:0|0:0,0:0:0:0:
393,90,147668,1,0,0:0:0:0:
235,110,147906,2,0,P|213:167|239:231,1,112,0|0,0:0|0:0,0:0:0:0:
298,314,148383,2,0,P|203:290|177:303,1,112,8|0,0:0|0:0,0:0:0:0:
82,344,148859,6,0,P|33:283|90:156,1,224,4|8,0:0|0:0,0:0:0:0:
190,99,149573,1,0,0:0:0:0:
240,211,149811,2,0,P|178:232|128:206,1,112,4|0,0:0|0:0,0:0:0:0:
191,99,150287,1,8,0:0:0:0:
312,80,150525,2,0,P|393:115|376:246,1,224,0|0,0:0|0:0,3:0:0:0:
294,318,151240,2,0,L|177:321,1,112,8|0,0:0|0:0,0:0:0:0:
148,204,151716,5,0,0:0:0:0:
387,236,152192,1,8,0:3:0:0:
300,50,152668,70,0,L|296:225,1,168,4|0,0:0|0:0,0:0:0:0:
313,284,153144,2,0,P|258:239|195:256,1,125.999996154785,8|0,0:0|0:0,0:0:0:0:
0,330,153621,2,0,P|70:319|99:261,1,125.999996154785,0|0,0:0|0:0,0:0:0:0:
128,61,154097,2,0,P|102:127|138:181,1,125.999996154785,8|4,0:0|0:3,0:0:0:0:
227,205,154573,6,0,B|331:159|331:159|306:76|349:12,1,251.999992309571,4|8,0:0|0:0,0:0:0:0:
477,73,155287,1,0,0:0:0:0:
497,222,155525,2,0,P|501:278|480:351,1,125.999996154785,0|0,0:0|0:0,0:0:0:0:
328,241,156002,2,0,P|318:179|345:99,1,125.999996154785,8|4,0:0|3:0,0:0:0:0:
412,232,156478,6,0,P|361:327|251:278,1,251.999992309571,4|8,0:0|0:0,0:0:0:0:
240,150,157192,1,4,3:0:0:0:
99,95,157430,1,2,3:0:0:0:
6,214,157668,1,0,0:0:0:0:
90,339,157906,1,8,0:0:0:0:
234,294,158144,1,0,0:0:0:0:
371,344,158383,6,0,B|487:328|487:328|511:196|511:196,1,251.999992309571,0|8,0:0|0:0,0:0:0:0:
440,76,159097,1,0,3:0:0:0:
306,113,159335,2,0,P|252:157|246:217,1,125.999996154785,0|0,0:0|0:0,0:0:0:0:
324,348,159811,2,0,L|320:197,1,125.999996154785,8|0,0:0|0:0,0:0:0:0:
289,87,160287,6,0,P|213:23|101:47,1,188.999994232178,4|0,0:0|0:0,0:0:0:0:
88,86,160764,1,8,0:0:0:0:
95,224,161002,1,0,0:0:0:0:
230,254,161240,2,0,P|334:270|350:290,1,125.999996154785,0|0,0:0|0:0,0:0:0:0:
470,225,161716,2,0,P|366:209|350:189,1,125.999996154785,8|4,0:0|3:0,0:0:0:0:
288,77,162192,2,0,P|377:32|429:146,1,251.999992309571,4|8,0:0|0:0,0:0:0:0:
324,282,162906,1,0,0:0:0:0:
263,316,163025,1,0,0:0:0:0:
194,326,163144,54,0,P|145:279|148:223,1,125.999996154785,0|0,0:0|0:0,0:0:0:0:
220,91,163621,2,0,L|231:234,1,125.999996154785,8|0,0:0|0:0,0:0:0:0:
339,320,164097,2,0,B|429:269|381:185|381:185|405:144|405:144|403:86,1,251.999992309571,4|8,0:0|0:0,0:0:0:0:
258,52,164811,2,0,B|191:45|191:45|129:70|129:70,2,125.999996154785,4|2|0,3:0|3:0|0:0,0:0:0:0:
292,199,165525,1,8,0:0:0:0:
170,290,165764,1,0,0:0:0:0:
68,183,166002,6,0,P|79:69|194:74,1,251.999992309571,0|8,0:0|0:0,0:0:0:0:
187,309,166716,2,0,B|132:337|132:337|75:308,2,125.999996154785,0|0|0,3:0|0:0|0:0,0:0:0:0:
292,219,167430,2,0,P|302:103|257:70,1,125.999996154785,8|0,0:0|0:0,0:0:0:0:
180,37,167906,6,0,B|132:34|89:47|89:47|51:129|84:212,1,251.999992309571,0|8,0:0|3:0,0:0:0:0:
144,325,168621,1,0,0:0:0:0:
295,321,168859,2,0,P|342:284|329:199,1,125.999996154785,0|0,0:0|3:0,0:0:0:0:
249,121,169335,2,0,P|206:163|230:245,1,125.999996154785,8|0,3:0|3:0,0:0:0:0:
330,152,169811,6,0,B|349:77|288:38|288:38|216:33,2,188.999994232178,2|2|0,3:0|2:3|0:0,0:0:0:0:
223,241,170764,2,0,P|171:257|98:174,1,125.999996154785,0|0,3:0|3:0,0:0:0:0:
253,166,171240,2,0,P|300:211|289:286,1,125.999996154785,8|0,1:3|3:0,0:0:0:0:
177,176,171716,6,0,P|207:106|315:121,2,188.999994232178,2|2|0,3:0|2:3|0:0,0:0:0:0:
221,297,172668,2,0,L|353:302,1,125.999996154785,0|0,3:0|3:0,0:0:0:0:
460,222,173144,2,0,P|466:163|424:67,1,125.999996154785,8|0,1:3|3:0,0:0:0:0:
231,214,173621,54,0,P|319:232|375:162,2,188.999994232178,2|2|0,3:0|2:3|0:0,0:0:0:0:
270,100,174573,1,6,2:0:0:0:
385,40,174811,1,2,3:0:0:0:
487,132,175049,1,8,0:3:0:0:
423,257,175287,1,2,3:0:0:0:
285,238,175525,6,0,B|215:224|158:226|158:226|206:170|169:68,1,251.999992309571,4|0,3:1|0:0,0:0:0:0:
44,79,176240,1,0,0:0:0:0:
83,211,176478,2,0,P|88:263|168:302,1,125.999996154785,0|0,3:0|3:0,0:0:0:0:
275,132,176954,2,0,P|189:131|160:181,1,125.999996154785,8|0,3:0|3:0,3:0:0:0:
371,217,177430,2,0,P|397:100|354:34,2,188.999994232178,2|2|0,3:0|2:3|0:0,0:0:0:0:
250,309,178383,2,0,P|181:310|149:258,1,125.999996154785,0|0,3:0|3:0,0:0:0:0:
72,138,178859,2,0,P|141:137|173:189,1,125.999996154785,8|0,0:3|3:0,0:0:0:0:
196,316,179335,6,0,P|255:348|345:283,1,188.999994232178,2|2,3:0|2:3,0:0:0:0:
345,214,179811,1,0,0:0:0:0:
342,144,179930,1,0,3:0:0:0:
372,82,180049,1,0,0:0:0:0:
281,186,180287,6,0,P|291:263|392:268,1,188.999994232178,2|2,3:0|2:3,0:0:0:0:
416,209,180764,1,0,0:0:0:0:
401,141,180883,1,0,3:0:0:0:
342,103,181002,1,0,0:0:0:0:
203,98,181240,6,0,B|120:96|120:96|57:224|57:224|56:224,1,188.999994232178,2|2,3:0|2:3,0:0:0:0:
86,259,181716,1,0,0:0:0:0:
132,310,181835,1,0,3:0:0:0:
190,273,181954,1,0,0:0:0:0:
143,85,182192,6,8,L|61:57,1,62.9999980773926,8|0,0:3|1:0,0:0:0:0:
340,53,182549,2,0,L|425:83,1,62.9999980773926,0|2,0:0|3:2,0:0:0:0:
415,235,182906,1,0,0:0:0:0:
409,266,183025,1,0,3:0:0:0:
403,296,183144,5,4,0:0:0:0:
256,192,196478,12,4,197906,1:2:0:0:
94,88,198383,38,0,P|97:164|243:166,1,210.000008010865,4|8,1:0|3:1,0:0:0:0:
285,109,199097,1,0,0:0:0:0:
352,202,199335,2,0,L|382:254,2,52.5000020027161,0|0|0,3:0|0:0|0:0,0:0:0:0:
285,109,199811,2,0,P|327:58|372:59,1,105.000004005432,8|0,3:1|0:0,0:0:0:0:
469,120,200287,6,0,L|382:317,1,210.000008010865,0|8,3:0|3:1,0:0:0:0:
262,345,201002,1,0,0:0:0:0:
151,311,201240,2,0,P|136:259|144:184,1,105.000004005432,0|0,3:0|0:0,0:0:0:0:
72,113,201716,2,0,P|161:88|206:102,1,105.000004005432,8|0,3:1|0:0,0:0:0:0:
403,180,202192,6,0,P|317:215|169:169,1,210.000008010865,0|8,3:0|3:1,0:0:0:0:
133,66,202906,1,0,0:0:0:0:
144,56,203025,1,0,0:0:0:0:
156,45,203144,2,0,L|304:87|304:87,1,105.000004005432,0|0,3:0|0:0,0:0:0:0:
380,305,203621,2,0,L|232:263|232:263,1,105.000004005432,8|0,3:1|0:0,0:0:0:0:
157,243,204097,6,0,P|142:176|188:123,1,105.000004005432,0|0,3:0|0:0,0:0:0:0:
349,154,204573,2,0,P|364:221|318:274,1,105.000004005432,8|0,0:1|0:0,0:0:0:0:
238,49,205049,2,0,B|358:21|337:86|453:50,1,210.000008010865,0|8,3:0|3:1,0:0:0:0:
446,189,205763,1,0,0:0:0:0:
343,252,206002,6,0,P|293:308|300:345,1,105.000004005432,4|0,3:1|0:0,0:0:0:0:
197,273,206478,2,0,P|139:245|85:274,1,105.000004005432,12|0,3:1|0:0,0:0:0:0:
159,155,206954,2,0,P|195:104|176:50,1,105.000004005432,0|0,3:0|0:0,0:0:0:0:
292,113,207430,2,0,P|355:128|402:105,1,105.000004005432,12|0,3:1|0:0,0:0:0:0:
470,30,207906,1,0,3:0:0:0:
355,47,208144,1,0,0:0:0:0:
470,45,208383,1,8,3:1:0:0:
355,31,208621,1,0,0:0:0:0:
241,65,208859,54,0,B|175:54|132:122|132:122|46:121|15:86,1,210.000008010865,0|8,3:0|3:1,0:0:0:0:
120,15,209573,1,0,0:0:0:0:
54,110,209811,2,0,P|43:191|49:263,1,105.000004005432,0|0,3:0|0:0,0:0:0:0:
14,309,210287,2,0,P|92:308|151:325,1,105.000004005432,12|0,3:1|0:0,0:0:0:0:
229,343,210763,1,0,3:0:0:0:
355,343,211002,1,0,0:0:0:0:
380,337,211121,1,0,0:0:0:0:
404,321,211240,2,0,L|396:212,1,105.000004005432,12|0,3:1|0:0,0:0:0:0:
321,57,211716,6,0,P|299:143|325:199,1,105.000004005432,0|0,3:0|0:0,0:0:0:0:
459,169,212192,2,0,P|481:83|455:27,1,105.000004005432,12|0,3:1|0:0,0:0:0:0:
302,157,212668,1,0,3:0:0:0:
210,299,212906,2,0,L|102:278,1,105.000004005432,0|12,0:0|3:1,0:0:0:0:
82,97,213383,6,0,P|126:34|261:64,1,210.000008010865
302,157,214097,2,0,L|304:265,1,105.000004005432,8|0,1:0|0:0,0:0:0:0:
206,199,214573,1,0,3:0:0:0:
360,88,214811,1,0,0:0:0:0:
407,92,214930,1,0,0:0:0:0:
451,106,215049,2,0,P|461:167|442:212,1,105.000004005432,8|0,1:0|0:0,0:0:0:0:
259,296,215525,6,0,P|249:235|268:190,1,105.000004005432,0|0,3:0|0:0,0:0:0:0:
459,223,216002,2,0,P|423:259|373:276,1,105.000004005432,8|0,1:1|0:0,0:0:0:0:
295,84,216478,2,0,P|343:104|377:143,1,105.000004005432,0|0,1:0|0:0,0:0:0:0:
261,299,216954,1,8,1:0:0:0:
163,219,217192,1,0,0:0:0:0:
154,194,217311,1,0,0:0:0:0:
155,167,217430,1,0,3:0:0:0:
205,61,217668,1,0,0:0:0:0:
380,64,217906,6,0,B|408:140|372:192|372:192,1,105.000004005432,8|0,1:0|0:0,0:0:0:0:
238,243,218383,2,0,B|210:167|246:115|246:115,1,105.000004005432,0|0,3:0|0:0,0:0:0:0:
466,200,218859,2,0,B|494:276|458:328|458:328,1,105.000004005432,8|0,1:0|0:0,0:0:0:0:
286,322,219335,54,0,P|201:304|74:366,1,210.000008010865,0|8,3:0|1:0,0:0:0:0:
156,216,220049,1,2,0:2:0:0:
207,101,220287,2,0,P|157:46|68:33,2,157.500006008148,2|0|2,3:2|0:0|0:2,0:0:0:0:
156,216,221240,6,0,B|92:208|48:224|48:224|30:196|27:139,1,157.500006008148,4|0,1:0|0:0,0:0:0:0:
30,152,221716,2,0,B|66:92|122:85|122:85|152:22,1,157.500006008148,8|0,1:0|0:0,0:0:0:0:
165,46,222192,2,0,P|252:67|352:31,1,157.500006008148,0|0,3:0|0:0,0:0:0:0:
338,67,222668,2,0,P|342:139|383:265,1,157.500006008148,8|0,1:0|0:0,0:0:0:0:
391,244,223144,1,0,3:0:0:0:
284,232,223383,6,0,P|216:224|148:264,2,105.000004005432,0|8|0,0:0|1:0|0:0,0:0:0:0:
460,319,224097,2,0,P|417:289|391:243,1,105.000004005432,0|0,3:0|0:0,0:0:0:0:
363,37,224573,2,0,P|367:88|349:137,1,105.000004005432,8|0,1:0|0:0,0:0:0:0:
222,244,225049,6,0,P|153:263|68:155,1,210.000008010865,0|8,3:0|1:0,0:0:0:0:
120,60,225763,1,0,3:0:0:0:
140,43,225883,1,0,3:0:0:0:
161,27,226002,2,0,P|198:85|200:122,1,105.000004005432,0|0,3:0|0:0,0:0:0:0:
148,335,226478,2,0,P|129:246|156:191,1,105.000004005432,8|0,1:0|0:0,0:0:0:0:
248,283,226954,1,0,0:0:0:0:
54,322,227192,5,2,0:0:0:0:
47,296,227311,1,0,0:0:0:0:
45,269,227430,1,0,1:0:0:0:
78,118,227668,1,0,3:0:0:0:
179,204,227906,2,0,P|205:240|147:346,2,157.500006008148,2|0|2,3:2|0:0|0:0,0:0:0:0:
78,118,228859,54,0,P|35:193|141:267,1,238.00000453949,4|0,1:0|1:0,0:0:0:0:
269,248,229573,1,0,0:0:0:0:
346,145,229811,2,0,L|289:-10,1,119.000002269745,0|2,3:0|0:0,0:0:0:0:
229,136,230287,2,0,L|271:252,1,119.000002269745,2|0,1:2|0:0,0:0:0:0:
341,371,230763,6,0,P|248:303|110:327,1,238.00000453949,0|0,3:0|1:0,0:0:0:0:
81,231,231478,2,0,P|77:147|109:95,2,119.000002269745,0|0|2,0:0|3:0|0:0,0:0:0:0:
225,313,232192,1,2,1:2:0:0:
373,237,232430,2,0,P|411:177|306:80,1,238.00000453949
181,122,233144,2,0,L|125:146,1,59.5000011348725,0|0,1:0|0:0,0:0:0:0:
32,176,233383,2,0,L|40:104,1,59.5000011348725
48,24,233621,5,0,3:0:0:0:
126,144,233859,1,2,0:0:0:0:
80,300,234097,1,2,1:2:0:0:
209,231,234335,1,0,0:0:0:0:
344,284,234573,1,0,3:0:0:0:
464,238,234811,6,0,P|493:288|491:353,2,119.000002269745,2|0|0,0:0|1:0|3:0,0:0:0:0:
378,139,235525,2,0,P|393:47|465:0,2,178.500003404617,2|0|2,3:2|0:0|0:0,0:0:0:0:
334,262,236478,2,0,L|205:286,1,119.000002269745,4|0,1:0|0:0,0:0:0:0:
96,232,236954,2,0,L|219:210,1,119.000002269745,0|0,1:0|0:0,0:0:0:0:
333,262,237430,1,0,3:0:0:0:
272,146,237668,6,0,P|253:71|303:12,1,119.000002269745,2|2,0:0|1:2,0:0:0:0:
355,135,238144,2,0,P|320:213|192:173,1,238.00000453949
164,57,238859,1,0,1:0:0:0:
74,141,239097,2,0,B|65:207|29:243|29:243|20:325|74:357,1,238.00000453949,0|2,0:0|0:0,0:0:0:0:
221,285,239811,2,0,P|235:228|222:168,1,119.000002269745,2|0,1:2|0:0,0:0:0:0:
349,275,240287,54,0,P|401:289|464:225,1,119.000002269745,2|0,3:2|0:0,0:0:0:0:
461,103,240763,1,0,1:0:0:0:
304,58,241002,1,0,0:0:0:0:
268,57,241121,1,0,0:0:0:0:
232,56,241240,2,0,L|107:91,1,119.000002269745,0|2,0:0|0:0,0:0:0:0:
74,249,241716,2,0,P|101:333|136:362,1,119.000002269745,2|0,1:2|0:0,0:0:0:0:
343,256,242192,6,0,P|376:191|362:133,1,119.000002269745,0|0,3:0|0:0,0:0:0:0:
177,133,242668,2,0,P|144:198|158:256,1,119.000002269745,0|0,1:0|0:0,0:0:0:0:
367,135,243144,2,0,P|335:84|281:62,1,119.000002269745,0|2,3:0|0:0,0:0:0:0:
198,321,243621,2,0,P|254:339|310:321,1,119.000002269745,2|4,1:2|0:0,0:0:0:0:
379,81,244097,6,0,P|301:42|215:58,1,178.500003404617,4|0,0:0|0:0,0:0:0:0:
169,114,244573,2,0,L|168:237,1,119.000002269745,12|0,0:0|0:0,0:0:0:0:
271,330,245049,2,0,B|359:330|359:330|423:254,2,178.500003404617,2|2|2,0:2|0:2|0:3,0:0:0:0:
129,309,246002,2,0,L|120:188,1,119.000002269745,4|0,0:0|0:0,0:0:0:0:
392,191,246478,2,0,L|383:322,1,119.000002269745,12|0,0:0|0:0,0:0:0:0:
240,338,246954,5,2,0:2:0:0:
84,206,247430,1,8,0:0:0:0:
206,26,247906,2,0,P|313:42|311:151,1,238.00000453949,0|8,0:0|0:0,0:0:0:0:
218,260,248621,1,0,0:0:0:0:
85,206,248859,2,0,P|64:141|90:97,2,119.000002269745,0|0|8,0:0|0:0|0:0,0:0:0:0:
190,302,249573,2,0,B|318:308|318:308|422:245,1,238.00000453949
417,54,250287,2,0,P|391:110|391:174,1,119.000002269745,8|0,0:0|0:0,0:0:0:0:
475,263,250763,6,0,B|495:160|495:160|412:47,2,238.00000453949,0|8|0,0:0|0:0|0:0,0:0:0:0:
264,316,251954,1,0,0:0:0:0:
264,316,252073,1,0,0:0:0:0:
264,316,252192,1,8,0:0:0:0:
47,251,252430,1,0,0:0:0:0:
47,251,252549,1,0,0:0:0:0:
47,251,252668,2,0,P|91:268|154:238,1,119.000002269745
107,67,253144,2,0,L|96:185,1,119.000002269745,8|0,0:0|0:0,0:0:0:0:
187,279,253621,54,0,B|239:291|239:291|299:267,1,119.000002269745,0|0,0:0|0:0,0:0:0:0:
390,173,254097,2,0,B|366:233|366:233|382:299,1,119.000002269745,8|0,0:0|0:0,0:0:0:0:
458,225,254573,2,0,B|480:168|480:168|486:129|448:62|356:58|320:127,2,238.00000453949,0|8|4,0:0|0:0|0:0,0:0:0:0:
404,344,255763,1,0,0:0:0:0:
273,333,256002,1,8,0:0:0:0:
200,229,256240,1,0,3:0:0:0:
197,93,256478,6,8,B|256:83|256:83|323:100,2,119.000002269745,4|0|8,0:0|0:0|0:0,0:0:0:0:
146,275,257192,2,0,P|208:296|216:154,1,238.00000453949
131,200,257906,2,0,P|71:280|92:331,1,119.000002269745,8|0,0:0|0:0,0:0:0:0:
428,191,258382,5,0,0:0:0:0:
84,192,258859,1,8,0:3:0:0:
257,306,259335,6,0,L|256:116,1,188.999994232178,4|0,0:0|0:0,0:0:0:0:
186,109,259811,2,0,P|120:101|64:132,1,125.999996154785,8|0,0:0|0:0,0:0:0:0:
333,170,260287,2,0,P|399:178|455:147,1,125.999996154785,0|0,0:0|0:0,0:0:0:0:
381,31,260763,5,8,0:0:0:0:
392,304,261002,1,0,0:0:0:0:
127,306,261240,2,0,P|49:256|92:102,1,251.999992309571,4|8,0:0|0:0,0:0:0:0:
195,52,261954,53,0,0:0:0:0:
301,141,262192,2,0,L|427:137,1,125.999996154785,0|0,0:0|0:0,0:0:0:0:
311,344,262668,2,0,L|177:350,1,125.999996154785,8|0,0:0|0:0,0:0:0:0:
70,247,263144,2,0,B|36:139|36:139|56:47|172:93,1,251.999992309571,4|8,0:0|0:0,0:0:0:0:
262,212,263859,2,0,P|325:233|382:192,2,125.999996154785,0|0|0,0:0|0:0|0:0,0:0:0:0:
262,35,264573,2,0,P|325:14|382:55,1,125.999996154785,8|0,0:0|0:0,0:0:0:0:
453,198,265049,6,0,B|476:264|413:326|413:326|358:333|358:333|295:373,1,251.999992309571,0|8,0:0|0:0,0:0:0:0:
137,340,265763,1,0,0:0:0:0:
227,185,266002,1,0,0:0:0:0:
258,301,266240,1,0,0:0:0:0:
112,213,266478,2,0,P|91:124|125:55,1,125.999996154785,8|0,0:0|0:0,0:0:0:0:
209,32,266954,6,0,L|466:71,1,251.999992309571,0|8,0:0|0:0,0:0:0:0:
481,219,267668,1,0,0:3:0:0:
405,331,267906,2,0,P|343:363|263:336,2,125.999996154785,0|0|8,0:0|0:0|0:0,0:0:0:0:
334,211,268621,1,0,0:0:0:0:
226,123,268859,6,0,P|106:119|134:244,1,251.999992309571,4|8,0:0|0:0,0:0:0:0:
216,307,269573,1,0,0:0:0:0:
303,199,269811,2,0,P|329:105|304:57,1,125.999996154785,0|0,0:0|0:0,0:0:0:0:
168,100,270287,2,0,P|142:194|167:242,1,125.999996154785,8|0,0:0|0:0,0:0:0:0:
286,242,270763,6,0,P|354:171|257:86,1,251.999992309571,4|8,0:0|0:0,0:0:0:0:
159,178,271478,2,0,B|140:245|140:245|80:271,2,125.999996154785,0|0|0,0:0|0:0|0:0,0:0:0:0:
110,47,272192,2,0,B|58:69|58:69|39:136,1,125.999996154785,8|0,0:0|0:0,0:0:0:0:
88,266,272668,2,0,B|152:312|172:360|172:360|249:336|325:359,1,251.999992309571,0|8,0:0|0:0,0:0:0:0:
406,269,273382,54,0,P|441:177|424:108,1,125.999996154785,0|0,0:0|0:0,0:0:0:0:
346,48,273859,1,0,0:0:0:0:
206,43,274097,2,0,L|158:186|158:186,1,125.999996154785,8|0,0:0|0:0,0:0:0:0:
204,295,274573,6,0,L|267:110,1,188.999994232178,4|0,0:0|0:0,0:0:0:0:
324,136,275049,2,0,P|427:120|471:72,1,125.999996154785,10|0,0:0|0:0,0:0:0:0:
377,231,275525,2,0,P|339:328|358:390,1,125.999996154785,2|0,0:0|0:0,0:0:0:0:
269,227,276002,2,0,P|203:145|140:131,1,125.999996154785,10|0,0:0|0:0,0:0:0:0:
76,159,276478,2,0,L|98:359,2,188.999994232178,2|2|0,0:3|0:3|0:0,0:0:0:0:
279,185,277430,6,0,P|215:219|158:198,1,125.999996154785,0|0,0:3|0:0,0:0:0:0:
315,85,277906,2,0,P|370:53|439:76,1,125.999996154785,10|0,0:0|0:0,0:0:0:0:
402,321,278382,2,0,B|381:132,2,188.999994232178,2|2|0,0:3|0:3|0:0,0:0:0:0:
263,333,279335,1,0,0:3:0:0:
136,277,279573,1,0,0:0:0:0:
123,139,279811,1,10,0:0:0:0:
244,59,280049,1,0,0:0:0:0:
367,121,280287,6,0,B|408:153|397:216|397:216|450:253|431:334,2,188.999994232178,2|2|0,0:3|0:3|0:0,0:0:0:0:
258,174,281240,2,0,P|289:239|377:235,1,125.999996154785,6|2,0:2|0:3,0:0:0:0:
367,121,281716,2,0,P|298:121|258:178,1,140,10|2,0:0|0:3,0:0:0:0:
445,209,282192,6,0,P|470:119|450:28,1,188.999994232178,4|0,0:0|0:0,0:0:0:0:
362,12,282668,1,10,0:0:0:0:
187,35,282906,1,0,0:0:0:0:
363,30,283144,53,0,0:0:0:0:
365,206,283382,1,0,0:0:0:0:
185,286,283621,2,0,P|136:229|156:141,1,125.999996154785,10|0,0:0|0:0,0:0:0:0:
206,62,284097,6,0,P|266:37|371:107,2,188.999994232178,2|2|0,0:3|0:3|0:0,0:0:0:0:
226,199,285049,2,0,B|280:215|280:215|364:197,1,125.999996154785,0|0,0:0|0:0,0:0:0:0:
266,88,285525,2,0,B|212:72|212:72|128:90,1,125.999996154785,10|0,0:0|0:0,0:0:0:0:
17,175,286002,6,0,P|101:252|169:229,2,188.999994232178,2|2|0,0:3|0:3|0:0,0:0:0:0:
142,115,286954,2,0,L|354:117,2,188.999994232178,2|2|0,0:3|0:3|0:0,0:0:0:0:
449,202,287906,2,0,L|220:204,2,188.999994232178,2|2|0,0:3|0:3|0:0,0:0:0:0:
257,324,288859,5,0,0:3:0:0:
124,193,289097,1,2,0:3:0:0:
255,60,289335,1,8,0:3:0:0:
388,190,289573,1,2,0:3:0:0:
256,192,289811,5,4,0:0:0:0:
256,192,290049,12,0,293621,2:0:0:0:
107,286,297430,54,0,P|98:193|21:119,1,195.999994018555,4|8,3:1|0:0,0:0:0:0:
132,68,298144,1,0,0:0:0:0:
188,171,298382,2,0,L|215:277,1,97.9999970092774,0|0,3:0|0:0,0:0:0:0:
289,145,298859,2,0,L|266:39,1,97.9999970092774,8|0,3:1|0:0,0:0:0:0:
391,128,299335,6,0,B|415:206|415:206|437:256|390:313,1,195.999994018555,0|8,3:0|0:0,0:0:0:0:
280,351,300049,1,0,0:0:0:0:
208,257,300287,2,0,L|117:213|117:213,1,97.9999970092774,0|0,3:0|0:0,0:0:0:0:
14,267,300763,2,0,L|105:311|105:311,1,97.9999970092774,8|0,0:0|0:0,0:0:0:0:
208,257,301240,6,0,B|119:214|119:214|177:144|173:132,1,181.999991668702,0|8,3:0|0:0,0:0:0:0:
236,61,301954,1,0,0:0:0:0:
352,68,302192,2,0,L|380:165,1,90.9999958343508,0|0,3:0|0:0,0:0:0:0:
424,263,302668,1,8,0:0:0:0:
318,333,302906,1,0,0:0:0:0:
214,311,303144,6,0,P|115:319|50:261,1,181.999991668702,0|8,3:0|0:0,0:0:0:0:
35,161,303859,1,0,0:0:0:0:
111,82,304097,2,0,B|158:63|158:63|215:76,1,90.9999958343508,0|0,3:0|0:0,0:0:0:0:
268,155,304573,2,0,B|221:175|221:175|164:164,1,90.9999958343508,8|0,0:0|0:0,3:0:0:0:
279,62,305049,54,0,P|356:40|443:96,1,167.999994873047,0|8,3:0|0:0,0:0:0:0:
465,214,305763,2,0,L|482:301,2,83.9999974365235,0|0|0,0:0|3:0|0:0,0:0:0:0:
342,122,306478,2,0,P|342:196|360:236,1,83.9999974365235,8|0,0:0|0:0,0:0:0:0:
405,321,306954,54,0,P|321:297|236:324,1,167.999994873047,0|8,3:0|0:0,0:0:0:0:
155,341,307668,1,0,0:0:0:0:
110,328,307787,1,0,0:0:0:0:
84,289,307906,1,0,3:0:0:0:
43,206,308144,1,0,0:0:0:0:
61,115,308382,1,8,0:0:0:0:
132,172,308621,1,0,0:0:0:0:
150,81,308859,70,0,B|185:47|185:47|244:75|306:46,1,167.999994873047,0|8,3:0|0:0,0:0:0:0:
383,92,309573,1,0,0:0:0:0:
383,92,309811,2,0,L|348:175,1,83.9999974365235,0|0,3:0|0:0,0:0:0:0:
389,253,310287,2,0,L|429:167,1,83.9999974365235,8|0,2:1|0:0,0:0:0:0:
385,90,310763,2,0,L|314:241,1,167.999994873047,0|8,0:0|0:0,0:0:0:0:
256,320,311478,2,0,P|192:333|149:310,2,83.9999974365235,0|0|0,0:0|3:0|0:0,0:0:0:0:
204,242,312192,2,0,P|146:235|123:249,1,83.9999974365235,2|0,2:0|0:0,0:0:0:0:
43,289,312668,6,0,P|0:230|4:124,1,167.999994873047,0|8,3:0|0:0,0:0:0:0:
51,52,313382,1,0,0:0:0:0:
151,65,313621,2,0,L|267:68,1,83.9999974365235,0|0,3:0|0:0,0:0:0:0:
193,162,314097,2,0,B|299:164,1,83.9999974365235,8|0,0:0|0:0,0:0:0:0:
382,190,314573,5,0,3:0:0:0:
467,242,314811,1,0,0:0:0:0:
467,242,314930,1,0,0:0:0:0:
466,241,315049,2,0,L|461:145,1,83.9999974365235,8|0,0:0|0:0,0:0:0:0:
359,65,315525,2,0,L|366:184|366:184,2,83.9999974365235,0|0|8,0:0|0:0|0:0,0:0:0:0:
376,295,316240,1,0,0:0:0:0:
239,334,316478,6,0,B|192:350|154:333,1,83.9999974365235,0|0,3:0|0:0,0:0:0:0:
90,239,316954,2,0,B|108:134,1,83.9999974365235,8|0,0:0|0:0,0:0:0:0:
158,61,317430,2,0,B|205:45|243:62,1,83.9999974365235,0|0,3:0|0:0,0:0:0:0:
307,142,317906,1,8,0:0:0:0:
291,252,318144,1,0,0:0:0:0:
256,192,318382,12,4,320287,0:0:0:0:
256,192,331716,12,0,335049,3:0:0:0:
124,216,335525,5,8,1:3:0:0:
124,216,336001,6,2,P|96:248|96:296,1,83.9999974365235,2|2,0:0|0:0,0:0:0:0:
181,281,336359,1,2,0:0:0:0:
214,202,336478,2,2,P|226:154|210:110,1,90.9999958343508,8|2,3:0|0:0,0:0:0:0:
205,98,336795,1,2,0:2:0:0:
203,82,336874,1,2,0:0:0:0:
207,67,336954,1,2,0:0:0:0:
379,59,337192,1,2,0:3:0:0:
402,105,337311,1,0,0:0:0:0:
408,159,337430,53,12,0:3:0:0:
337,316,337668,1,2,0:0:0:0:
86,238,337906,54,2,P|82:297|97:331,1,52.5000020027161,8|2,0:3|0:0,0:0:0:0:
152,151,338144,2,0,P|142:95|121:79,1,52.5000020027161,2|2,0:0|0:0,0:0:0:0:
212,281,338382,2,2,P|208:340|225:374,1,59.5000011348725,8|2,0:3|0:0,0:0:0:0:
280,184,338620,2,2,P|283:124|267:86,1,59.5000011348725,2|0,0:2|0:0,0:0:0:0:
312,312,338859,86,2,P|379:324|439:291,1,140,8|2,0:3|0:0,0:0:0:0:
476,228,339216,1,2,0:0:0:0:
430,173,339335,2,2,P|430:109|454:61,1,105.000004005432,12|2,3:0|0:3,0:0:0:0:
307,96,339811,2,0,P|277:110|252:113,1,52.5000020027161
198,192,340049,2,0,P|167:178|149:160,1,52.5000020027161
125,70,340287,6,2,L|125:14,2,52.5000020027161,12|2|2,3:0|3:0|3:0,0:0:0:0:
54,256,340763,2,0,P|84:260|115:257,1,52.5000020027161
182,194,341001,2,0,L|213:165,3,26.2500010013581
183,194,341239,70,2,P|203:258|183:337,1,105.000004005432,12|2,3:0|2:3,0:0:0:0:
140,356,341597,1,12,0:3:0:0:
67,304,341716,2,0,L|64:229,1,52.5000020027161
87,165,341954,1,0,0:0:0:0:
87,165,342192,22,2,L|86:100,2,52.5000020027161
290,278,342668,1,8,0:3:0:0:
344,309,342787,1,0,0:0:0:0:
404,304,342906,2,0,L|425:325,3,26.2500010013581
404,304,343144,6,0,P|440:240|420:164,1,136.499993751526,4|0,3:1|0:0,0:0:0:0:
341,73,343620,2,2,L|345:188,1,90.9999958343508,8|2,3:0|0:0,0:0:0:0:
322,252,343978,1,2,0:0:0:0:
245,301,344097,2,2,P|189:313|136:279,1,90.9999958343508,8|2,3:0|0:0,0:0:0:0:
152,290,344414,1,2,0:2:0:0:
149,278,344493,1,2,0:0:0:0:
150,265,344573,1,2,0:0:0:0:
259,111,344811,1,2,0:3:0:0:
305,146,344930,1,0,0:0:0:0:
307,201,345049,85,12,0:3:0:0:
99,157,345287,1,2,0:0:0:0:
306,205,345525,6,2,L|236:206,1,45.4999979171754,8|2,0:3|0:0,0:0:0:0:
372,97,345763,2,0,L|442:96,1,45.4999979171754,2|2,0:0|0:0,0:0:0:0:
437,213,346001,2,0,L|427:279,1,59.5000011348725,2|2,0:0|0:0,0:0:0:0:
252,95,346240,2,0,L|262:29,1,59.5000011348725,2|2,0:2|0:0,0:0:0:0:
120,37,346478,2,2,L|96:196|96:196,1,140,8|2,0:3|0:0,0:0:0:0:
94,273,346835,1,2,0:0:0:0:
184,309,346954,6,2,P|264:321|312:293,1,140,12|2,3:0|0:3,0:0:0:0:
452,155,347430,2,0,P|460:112|453:82,1,70
362,120,347668,2,0,P|354:163|361:193,1,70
412,284,347906,2,2,L|485:274,2,70,12|2|2,3:0|3:0|3:0,0:0:0:0:
204,254,348382,1,8,0:3:0:0:
304,80,348620,2,0,L|304:28,3,35,2|2|2|2,3:2|3:2|3:2|3:2,0:0:0:0:
304,79,348859,6,2,P|244:83|184:147,1,140,12|2,3:0|0:3,0:0:0:0:
171,289,349335,1,12,0:3:0:0:
188,136,349573,1,4,2:3:0:0:
78,56,349811,2,2,L|9:27,2,70,12|2|2,3:0|3:0|3:0,0:0:0:0:
94,204,350287,5,0,0:0:0:0:
108,235,350406,1,0,0:0:0:0:
109,269,350525,1,4,0:2:0:0:
99,302,350644,1,4,0:2:0:0:
80,327,350763,22,0,B|148:328|176:350|176:350|238:338,1,136.499993751526,4|0,0:0|0:0,0:0:0:0:
249,342,351240,54,0,L|311:341,1,45.4999979171754,2|0,0:0|0:0,0:0:0:0:
335,307,351478,5,2,0:0:0:0:
360,263,351597,1,2,0:0:0:0:
369,213,351716,2,2,L|361:168,1,45.4999979171754,8|2,3:0|0:0,0:0:0:0:
259,52,351954,1,2,0:0:0:0:
232,94,352073,1,2,0:2:0:0:
225,143,352192,2,2,L|231:193,1,45.4999979171754,8|2,0:3|0:0,0:0:0:0:
361,169,352430,2,0,L|419:154,1,45.4999979171754,2|2,0:0|0:3,0:0:0:0:
371,43,352668,2,0,P|326:29|258:53,1,119.000002269745,12|2,0:3|0:0,0:0:0:0:
159,267,353144,6,2,P|205:286|272:254,1,119.000002269745,8|2,0:3|0:0,0:0:0:0:
307,188,353501,1,2,0:0:0:0:
249,127,353620,2,2,P|203:108|136:140,1,119.000002269745,8|2,0:3|0:0,0:0:0:0:
93,201,353978,1,2,0:0:0:0:
37,139,354097,1,2,0:0:0:0:
28,110,354216,1,2,0:0:0:0:
22,80,354335,1,2,0:0:0:0:
22,50,354454,1,2,0:2:0:0:
31,21,354573,5,0,0:0:0:0:
267,46,354811,1,0,0:0:0:0:
440,265,355049,70,2,L|359:275,1,59.5000011348725,8|2,0:3|0:0,0:0:0:0:
272,245,355287,2,0,L|352:236,1,59.5000011348725,2|2,0:0|0:0,0:0:0:0:
459,250,355525,54,2,L|378:260,1,59.5000011348725,8|2,3:0|0:0,0:0:0:0:
250,228,355763,2,0,L|330:219,1,59.5000011348725,2|2,0:0|0:0,0:0:0:0:
476,238,356001,6,2,L|395:248,1,59.5000011348725,8|2,0:3|0:0,0:0:0:0:
230,204,356240,2,0,L|313:195,1,59.5000011348725,2|2,0:0|0:2,0:0:0:0:
392,140,356478,37,2,0:0:0:0:
75,57,356716,1,2,0:0:0:0:
139,285,356954,2,0,P|165:291|211:286,3,59.5000011348725,8|2|2|2,0:3|0:0|0:0|0:0,0:0:0:0:
241,178,357430,2,0,P|266:171|308:171,3,59.5000011348725,2|2|2|2,0:0|0:0|0:0|0:0,0:0:0:0:
408,216,357906,2,0,B|372:264|372:264|375:287|375:287|351:302|351:302|371:309|371:309|339:325|339:325|313:342,1,178.500003404617,6|0,0:2|0:0,0:0:0:0:
298,319,358382,6,0,P|223:305|178:332,1,125.999996154785,4|0,3:1|0:0,0:0:0:0:
138,347,358859,6,2,P|106:285|116:205,1,119.000002269745,0|0,1:0|0:0,0:0:0:0:
297,203,359335,2,2,P|311:271|273:348,1,120.400001837158,0|0,0:0|0:0,0:0:0:0:
77,235,359811,2,10,P|68:165|104:92,1,121.800001022186,0|0,1:0|0:0,0:0:0:0:
276,155,360287,2,10,P|266:224|202:285,1,121.800001022186,0|0,0:0|0:0,0:0:0:0:
132,65,360763,1,0,1:0:0:0:
259,123,361001,5,0,0:0:0:0:
277,154,361120,1,0,0:0:0:0:
401,99,361359,1,0,0:0:0:0:
416,124,361478,1,0,0:0:0:0:
433,148,361597,1,0,0:0:0:0:
451,171,361716,2,0,B|444:297,1,115.50000352478,0|0,1:0|0:0,0:0:0:0:
429,315,362192,5,0,0:0:0:0:
344,135,362668,6,0,P|256:135|236:175,1,119.000002269745,0|0,1:0|0:0,0:0:0:0:
270,304,363144,2,0,P|314:227|289:190,1,119.000002269745,0|0,0:0|0:0,0:0:0:0:
156,165,363620,2,0,P|112:213|152:293,1,119.000002269745,0|0,1:0|0:0,0:0:0:0:
266,325,364097,6,0,L|406:321,1,119.000002269745,0|2,1:0|0:0,0:0:0:0:
210,248,364454,1,0,0:0:0:0:
210,248,364573,6,0,L|330:244,1,119.000002269745,0|0,1:0|0:0,0:0:0:0:
419,239,364930,1,0,0:0:0:0:
269,53,365168,2,0,L|341:53,2,59.5000011348725
368,118,365525,1,4,1:2:0:0:
139,51,365763,1,0,0:0:0:0:
131,288,366001,54,0,B|168:346|239:333|239:333|299:348,1,178.500003404617,4|0,0:0|0:0,0:0:0:0:
372,331,366478,2,0,P|384:253|373:214,1,119.000002269745,0|2,0:0|0:0,0:0:0:0:
368,198,366795,1,2,0:0:0:0:
367,178,366874,1,2,0:0:0:0:
371,158,366954,1,2,0:0:0:0:
178,64,367192,5,2,0:0:0:0:
158,67,367271,1,2,0:2:0:0:
141,65,367351,1,0,0:0:0:0:
126,58,367430,2,0,P|62:56|27:105,1,119.000002269745,2|2,0:0|0:3,0:0:0:0:
130,182,367906,5,12,0:3:0:0:
354,259,368144,1,2,0:0:0:0:
192,298,368382,6,2,L|213:240,1,59.5000011348725,0|2,0:0|0:0,0:0:0:0:
242,332,368620,2,2,L|249:255,1,59.5000011348725,2|0,0:2|0:0,0:0:0:0:
297,352,368859,2,2,L|275:272,1,59.5000011348725,0|2,0:0|0:0,0:0:0:0:
404,125,369097,6,2,L|383:183,1,59.5000011348725,0|2,0:0|0:0,0:0:0:0:
354,91,369335,2,2,L|347:168,1,59.5000011348725,0|0,0:2|0:0,0:0:0:0:
299,71,369574,2,2,L|321:151,1,59.5000011348725,2|2,0:2|0:0,0:0:0:0:
144,144,369811,6,2,P|68:160|16:96,1,119.000002269745,12|2,3:0|0:3,0:0:0:0:
248,152,370287,2,0,P|308:168|332:226,1,119.000002269745,8|0,0:3|0:0,0:0:0:0:
309,313,370644,2,0,B|258:325|258:325|178:306,1,119.000002269745,2|0,0:0|0:0,0:0:0:0:
309,313,371001,2,0,B|360:301|360:301|440:320,1,119.000002269745,0|2,0:0|0:0,0:0:0:0:
483,256,371359,1,0,0:0:0:0:
437,184,371478,2,2,L|399:182,3,29.7500005674362,2|2|2|2,0:3|0:3|0:3|0:0,0:0:0:0:
437,184,371716,6,0,B|450:119|450:119|426:62,1,119.000002269745,0|0,0:0|0:2,0:0:0:0:
204,88,372192,2,0,L|99:99,2,59.5000011348725,0|0|2,0:0|0:0|0:0,0:0:0:0:
266,43,372549,2,0,P|278:112|219:167,1,119.000002269745
203,270,372906,1,2,0:2:0:0:
44,320,373144,1,0,0:0:0:0:
83,158,373382,1,0,0:0:0:0:
203,271,373620,22,0,P|272:300|296:348,1,105,4|0,3:1|0:0,0:0:0:0:
389,337,374097,6,0,P|352:271|367:211,1,97.9999970092774,2|2,0:0|0:0,0:0:0:0:
377,203,374454,1,2,0:0:0:0:
407,158,374573,2,2,P|400:110|370:71,1,97.9999970092774,8|2,3:0|0:0,0:0:0:0:
356,62,374891,1,2,0:2:0:0:
341,55,374969,1,2,0:0:0:0:
324,55,375049,1,2,0:0:0:0:
441,58,375287,1,2,0:3:0:0:
125,82,375525,5,12,0:3:0:0:
224,282,375763,1,2,0:0:0:0:
249,147,376001,2,2,P|253:171|264:192,1,48.9999985046387,8|2,0:3|0:0,0:0:0:0:
396,162,376240,2,0,P|397:136|386:112,1,52.5000020027161,2|2,0:0|0:0,0:0:0:0:
231,169,376478,6,2,P|242:190|270:212,1,59.5000011348725,8|2,0:3|0:0,0:0:0:0:
416,133,376717,2,0,P|408:108|384:87,1,59.5000011348725,2|2,0:0|0:0,0:0:0:0:
226,298,376954,54,2,P|284:335|353:333,1,140,8|2,0:3|0:0,0:0:0:0:
457,329,377311,1,2,0:0:0:0:
480,231,377430,54,2,L|453:112,1,119.000002269745,12|2,3:0|0:3,0:0:0:0:
272,82,377906,2,0,P|262:118|263:161,1,59.5000011348725
167,157,378144,2,0,P|176:193|198:229,1,59.5000011348725
238,292,378382,1,2,3:1:0:0:
266,291,378501,1,2,0:0:0:0:
294,290,378620,1,2,0:0:0:0:
430,129,378859,1,0,0:0:0:0:
410,106,378978,1,0,0:0:0:0:
402,77,379097,2,0,L|419:48,3,29.7500005674362,0|0|0|0,0:0|0:0|0:0|0:0,0:0:0:0:
369,91,379335,54,2,B|330:218,1,119.000002269745,12|2,3:0|0:3,0:0:0:0:
244,330,379811,2,0,P|189:345|139:309,1,119.000002269745,12|4,3:3|2:3,0:0:0:0:
75,171,380287,2,2,P|76:111|82:100,2,59.5000011348725,12|2|2,3:0|3:0|3:0,0:0:0:0:
189,275,380763,1,4,0:2:0:0:
338,236,381001,1,6,3:2:0:0:
387,97,381240,54,0,B|431:81|431:81|451:57|451:57|495:37,1,105.000004005432,4|6,0:0|0:0,0:0:0:0:
432,176,381954,85,2,0:0:0:0:
444,236,382073,1,2,0:0:0:0:
456,296,382192,2,2,L|517:305,1,56,8|0,3:0|0:0,0:0:0:0:
352,284,382430,1,2,0:0:0:0:
292,268,382549,1,2,0:2:0:0:
232,252,382668,2,0,P|160:260|136:292,2,112
43,327,383382,1,0,0:0:0:0:
160,168,383620,6,0,P|140:72|100:56,1,112,2|2,0:0|0:0,0:0:0:0:
83,143,383978,1,2,0:0:0:0:
96,226,384097,2,0,P|147:256|216:230,1,112,2|2,0:0|0:0,0:0:0:0:
251,188,384454,1,2,0:2:0:0:
304,132,384573,2,0,L|296:13,2,112,2|2|12,0:0|0:3|0:3,0:0:0:0:
446,197,385287,1,4,0:0:0:0:
283,264,385525,70,0,B|267:328|267:328|215:324|195:340,1,125.999996154785,2|2,0:0|0:0,0:0:0:0:
198,248,385882,1,2,0:0:0:0:
127,289,386001,2,0,B|93:232|93:232|132:198|135:173,1,125.999996154785,2|6,0:0|0:0,0:0:0:0:
21,63,386478,5,2,0:0:0:0:
232,144,386716,1,6,0:0:0:0:
416,240,386954,2,2,L|478:239,1,62.9999980773926,2|0,0:0|0:0,0:0:0:0:
484,71,387192,2,2,L|421:72,1,62.9999980773926,4|0,0:1|0:0,0:0:0:0:
356,188,387430,37,8,0:3:0:0:
317,245,387549,1,2,0:0:0:0:
266,292,387668,1,2,0:0:0:0:
201,316,387787,1,2,0:0:0:0:
148,361,387906,53,8,0:3:0:0:
133,293,388025,1,2,0:0:0:0:
134,223,388144,1,2,0:0:0:0:
157,157,388263,1,2,0:0:0:0:
189,95,388382,6,0,L|223:74,7,31.4999990386963,6|0|0|0|0|0|0|0,0:2|0:0|0:0|0:0|0:0|0:0|0:0|0:0,0:0:0:0:
249,80,388859,6,0,B|300:119|300:119|305:144|305:144|352:187,1,125.999996154785,4|0,0:0|0:0,0:0:0:0:
397,219,389335,6,0,P|402:295|303:332,1,178.500003404617,0|0,1:0|0:0,0:0:0:0:
341,162,389811,2,0,P|409:144|476:218,1,178.500003404617
325,238,390287,2,0,P|273:198|319:88,1,178.500003404617,0|0,1:0|0:0,0:0:0:0:
437,169,390763,6,0,B|480:316|480:316,1,119.000002269745
318,149,391239,2,0,L|294:33,1,119.000002269745,0|0,1:0|0:0,0:0:0:0:
215,144,391597,2,0,L|197:262,1,119.000002269745
291,296,391954,2,0,L|279:237,1,59.5000011348725
218,361,392192,1,0,1:0:0:0:
219,361,392668,5,0,0:0:0:0:
356,327,392906,1,0,0:0:0:0:
76,320,393144,38,0,P|96:229|77:145,1,158.666669692993,0|0,1:0|0:0,0:0:0:0:
70,79,393620,2,0,P|138:141|221:167,1,158.666669692993,0|0,0:0|0:0,0:0:0:0:
284,187,394097,2,0,P|195:215|131:273,1,158.666669692993,0|0,1:0|0:0,0:0:0:0:
289,323,394573,6,0,L|358:324,1,59.5000011348725,0|0,1:0|0:0,0:0:0:0:
465,346,394811,2,0,L|410:263,1,59.5000011348725,0|0,1:0|0:0,0:0:0:0:
403,180,395049,2,0,L|370:240,1,59.5000011348725,0|0,1:0|0:0,0:0:0:0:
256,238,395287,1,0,1:0:0:0:
256,238,395406,1,0,3:0:0:0:
256,238,395525,2,0,P|121:186|111:71,1,238.00000453949,0|4,1:0|1:2,0:0:0:0:
306,56,396359,5,0,0:0:0:0:
306,56,396478,2,0,B|321:106|321:106|337:128|337:128|352:174,1,105,4|0,0:0|0:0,0:0:0:0:
329,224,396954,6,2,P|329:279|357:322,1,105.000004005432,2|2,0:0|0:0,0:0:0:0:
432,352,397311,1,2,0:0:0:0:
459,272,397430,2,2,P|451:218|412:172,1,105.000004005432,8|2,3:0|0:0,0:0:0:0:
411,164,397748,1,2,0:2:0:0:
403,147,397826,1,2,0:0:0:0:
398,130,397906,1,2,0:0:0:0:
504,28,398144,2,0,P|508:63|500:90,1,52.5000020027161,2|0,0:3|0:0,0:0:0:0:
358,260,398382,5,12,0:3:0:0:
186,116,398620,1,2,0:0:0:0:
186,116,398859,54,2,P|131:109|123:110,1,52.5000020027161,8|2,0:3|0:0,0:0:0:0:
196,319,399097,2,0,P|196:293|202:268,1,52.5000020027161,2|2,0:0|0:0,0:0:0:0:
279,107,399335,6,0,P|283:143|277:178,1,59.5000011348725,2|0,0:0|0:0,0:0:0:0:
213,233,399573,1,0,0:0:0:0:
162,164,399692,1,2,0:0:0:0:
77,169,399811,6,2,B|61:220|57:281|75:323|75:323,1,140,8|2,0:3|0:0,0:0:0:0:
166,341,400168,1,0,0:0:0:0:
263,307,400287,6,2,L|376:343|376:343,1,112,12|2,3:0|0:3,0:0:0:0:
446,230,400763,2,0,L|333:194|333:194,1,112,14|6,3:0|0:3,0:0:0:0:
102,172,401239,2,2,L|41:172,2,56,12|2|2,3:0|3:0|3:0,0:0:0:0:
172,70,401716,1,8,0:3:0:0:
292,44,401954,2,0,L|327:76,3,28,2|2|2|2,3:2|3:2|3:2|3:2,0:0:0:0:
336,82,402192,6,2,P|383:104|444:71,1,112,12|2,3:0|0:3,0:0:0:0:
366,184,402668,1,12,0:3:0:0:
387,305,402906,1,4,2:3:0:0:
272,258,403144,2,2,P|225:236|164:269,1,112,12|2,3:0|0:3,0:0:0:0:
48,304,403620,1,8,0:3:0:0:
24,248,403739,1,0,0:0:0:0:
48,192,403859,2,0,L|68:144,3,28,2|2|2|2,3:2|3:2|3:2|3:2,0:0:0:0:
84,116,404097,54,0,B|124:100|124:100|152:108|152:108|208:92,1,105,4|0,0:0|0:0,0:0:0:0:
252,24,404573,6,0,L|276:128|276:128,1,97.9999970092774,2|2,0:0|0:0,0:0:0:0:
344,154,404930,1,2,0:0:0:0:
423,206,405049,2,2,L|414:337,1,119.000002269745,8|2,3:0|0:0,0:0:0:0:
269,346,405366,1,2,0:0:0:0:
250,340,405446,1,2,0:2:0:0:
234,335,405525,2,2,L|174:339,1,59.5000011348725,8|0,0:3|0:0,0:0:0:0:
64,256,405763,2,0,L|128:264,1,59.5000011348725,2|0,0:3|0:0,0:0:0:0:
188,200,406001,5,12,0:3:0:0:
448,195,406239,1,2,0:0:0:0:
168,184,406478,6,2,L|112:208,1,59.5000011348725,8|2,0:3|0:0,0:0:0:0:
272,192,406716,2,0,L|328:220,1,59.5000011348725,2|2,0:0|0:0,0:0:0:0:
228,96,406954,2,2,L|236:32,1,59.5000011348725,8|2,3:0|0:0,0:0:0:0:
212,272,407192,2,0,L|204:336,1,59.5000011348725,2|2,0:0|0:2,0:0:0:0:
328,108,407430,2,2,L|392:80,1,59.5000011348725,8|0,0:3|0:0,0:0:0:0:
124,92,407668,2,0,L|64:48|64:48,1,59.5000011348725,2|2,0:0|0:0,0:0:0:0:
204,155,407906,6,2,P|226:218|190:315,1,119.000002269745,12|2,3:0|0:3,0:0:0:0:
62,279,408263,2,0,P|38:189|46:154,1,119.000002269745,12|4,0:3|2:3,2:0:0:0:
125,92,408620,1,0,0:0:0:0:
125,92,408859,2,2,L|124:28,2,59.5000011348725,12|2|2,3:0|3:0|3:0,0:0:0:0:
230,202,409335,1,8,0:3:0:0:
293,217,409454,1,0,2:0:0:0:
355,196,409573,2,0,P|384:189|405:196,3,29.7500005674362,2|2|2|2,3:2|3:2|3:2|3:2,0:0:0:0:
355,196,409811,54,2,P|331:126|351:56,1,119.000002269745,12|2,3:0|0:3,0:0:0:0:
425,271,410168,2,0,B|295:299,1,119.000002269745,12|4,0:3|2:3,0:0:0:0:
253,346,410525,1,0,0:0:0:0:
170,132,410763,2,2,P|190:64|221:35,2,59.5000011348725,12|2|2,3:0|3:0|3:0,0:0:0:0:
60,284,411239,2,0,P|57:310|68:344,2,59.5000011348725,0|0|4,0:0|0:0|0:2,0:0:0:0:
43,154,411716,70,0,B|55:124|55:124|37:80|37:80|53:43,1,97.9999970092774,4|4,0:0|0:0,0:0:0:0:
90,47,412311,53,0,0:0:0:0:
146,51,412430,1,2,0:0:0:0:
191,58,412549,1,2,0:0:0:0:
235,70,412668,2,2,L|281:115,1,41.9999987182618,8|2,0:3|0:0,0:0:0:0:
451,180,412906,1,2,0:0:0:0:
410,201,413025,1,2,0:2:0:0:
367,219,413144,2,2,L|334:270,1,41.9999987182618,8|2,3:0|0:0,0:0:0:0:
243,338,413382,2,2,B|279:286|279:286,2,41.9999987182618,2|2|12,0:0|0:3|0:3,0:0:0:0:
390,78,413859,1,2,0:0:0:0:
274,73,414097,22,2,B|208:160,1,105.000004005432,8|2,0:3|0:0,0:0:0:0:
177,222,414454,1,2,0:0:0:0:
113,259,414573,2,2,P|53:272|5:243,1,105.000004005432,8|2,3:0|0:0,0:0:0:0:
112,183,414930,1,2,0:0:0:0:
236,271,415049,2,2,L|283:367,1,105.000004005432,8|2,0:3|0:0,0:0:0:0:
339,359,415406,1,2,0:2:0:0:
387,327,415525,1,0,0:0:0:0:
387,327,415763,1,2,2:2:0:0:
387,327,416001,6,2,L|406:234,1,52.5000020027161,8|2,0:3|0:0,0:0:0:0:
400,83,416239,2,0,L|387:149,1,52.5000020027161,2|2,0:0|0:0,0:0:0:0:
270,204,416478,2,2,P|211:221|151:185,1,105.000004005432,8|2,3:0|0:0,0:0:0:0:
218,107,416835,1,2,0:0:0:0:
331,153,416954,2,2,P|345:232|315:269,1,105.000004005432,8|2,0:3|0:0,0:0:0:0:
262,310,417311,1,2,0:2:0:0:
168,300,417430,1,2,0:0:0:0:
374,263,417668,53,2,0:0:0:0:
90,237,417906,1,2,0:0:0:0:
418,163,418144,1,2,0:0:0:0:
56,143,418382,2,2,P|69:71|84:60,1,52.5000020027161,8|2,0:3|0:0,0:0:0:0:
231,73,418620,2,0,P|218:145|203:156,1,52.5000020027161,2|2,0:0|0:0,0:0:0:0:
185,272,418859,1,4,0:2:0:0:
185,272,419097,2,0,L|150:303,3,26.2500010013581
118,298,419335,6,0,B|61:280|61:280|61:172,1,157.500006008148,4|0,0:0|0:0,0:0:0:0:
108,43,419811,6,0,B|165:61|165:61|165:176,1,168,0|0,1:0|0:0,0:0:0:0:
182,251,420287,2,0,P|251:288|344:236,1,168
334,148,420763,2,0,P|265:111|172:163,1,168,0|0,1:0|0:0,0:0:0:0:
186,142,421239,1,0,0:0:0:0:
260,310,421478,2,0,P|266:261|247:166,2,112,0|0|0,0:0|1:0|0:0,0:0:0:0:
174,346,422073,2,0,L|56:333,1,112
33,251,422430,2,0,P|26:225|28:176,2,56,0|0|0,0:0|0:0|1:0,0:0:0:0:
414,294,423144,6,0,P|437:340|497:351,1,94.499997116089
485,284,423620,6,0,P|447:229|348:259,1,146.999995513916,0|0,1:0|0:0,0:0:0:0:
300,298,424097,2,0,P|226:321|167:262,1,146.999995513916
186,185,424573,2,0,P|260:162|319:221,1,146.999995513916,0|0,1:0|0:0,0:0:0:0:
242,242,425049,53,0,0:0:0:0:
395,189,425287,1,0,3:0:0:0:
243,245,425525,5,0,0:0:0:0:
240,66,425763,1,0,0:0:0:0:
244,249,426001,5,0,0:0:0:0:
79,57,426239,1,0,0:0:0:0:
83,72,426319,1,0,0:0:0:0:
87,87,426398,1,0,0:0:0:0:
91,102,426478,1,4,0:2:0:0:
71,299,426716,1,0,0:0:0:0:
245,252,426954,5,4,0:0:0:0:
305,245,441716,21,0,2:0:0:0:
305,244,442192,2,0,P|257:132|335:94,1,231.000007049561,0|0,2:0|2:0,0:0:0:0:
427,159,444097,2,0,B|470:258|421:315|421:315|352:325,1,231.000007049561,0|0,2:0|2:0,0:0:0:0:
247,341,446001,6,0,B|160:337|113:345|113:345|114:290|88:234,1,231.000007049561,0|0,2:0|2:0,0:0:0:0:
103,142,447906,2,0,P|180:112|237:144,1,154.000004699707,0|0,2:0|2:0,0:0:0:0:
293,236,449335,1,0,2:0:0:0:
391,183,449811,6,0,B|397:123|364:99|364:99|301:119|288:110,1,154.000004699707,0|0,2:0|2:0,0:0:0:0:
178,80,451239,1,0,2:0:0:0:
100,155,451716,2,0,B|99:259|99:259|147:264|147:264|182:295|234:287,1,231.000007049561,0|0,2:0|2:0,0:0:0:0:
284,202,453620,6,0,B|323:190|323:190|392:213|392:213|431:159|431:159|479:136,1,231.000007049561,0|0,3:0|3:0,0:0:0:0:
378,92,455525,2,0,B|339:104|339:104|270:81|270:81|231:135|231:135|183:158,1,231.000007049561,0|0,3:0|3:0,0:0:0:0:
118,324,457430,6,0,B|69:278|95:200|168:196|168:196|221:241|248:230,1,251.999992309571
387,75,459335,54,0,B|436:121|410:199|337:203|337:203|284:158|257:169,1,251.999992309571
134,162,461239,6,0,B|33:188|60:296|99:311|99:311|155:311,1,251.999992309571
310,312,463144,6,0,B|354:317|354:317|396:311|396:311,1,83.9999974365235,0|0,0:0|0:0,0:0:0:0:
477,186,464097,2,0,B|433:181|433:181|391:187|391:187,1,83.9999974365235,0|0,0:0|0:0,0:0:0:0:
256,192,465049,12,0,470525,0:0:0:0:
191,314,470763,6,0,B|228:270|228:270|293:267|293:267|359:219|329:141,1,251.999992309571,0|0,2:0|2:0,0:0:0:0:
261,184,472668,69,4,0:0:0:0:
161,95,473144,102,0,B|126:82|126:82|112:69|112:69|52:48,2,83.9999974365235,2|2|0,0:0|0:0|0:0,0:0:0:0:
367,87,473620,2,0,B|395:63|395:63|414:57|414:57|462:16,2,83.9999974365235,2|2|0,0:0|0:0|0:0,0:0:0:0:
277,286,474097,2,0,B|283:322|283:322|278:341|278:341|290:403,2,83.9999974365235,2|2|0,0:0|0:0|0:0,0:0:0:0:
264,170,474573,1,2,2:0:0:0:
132,233,475049,54,0,L|39:283,2,83.9999974365235,8|2|2,0:3|0:3|0:3,0:0:0:0:
263,95,475525,2,0,L|277:3,2,83.9999974365235,8|2|2,3:0|0:3|0:3,0:0:0:0:
337,260,476001,2,0,L|433:347,2,83.9999974365235,8|2|2,0:3|0:3|0:2,0:0:0:0:
252,176,476478,6,2,P|260:80|320:48,1,119.000002269745,4|2,0:0|0:3,0:0:0:0:
311,242,476954,2,0,P|247:262|179:230,1,119.000002269745,4|4,0:2|0:3,0:0:0:0:
116,89,477430,1,2,3:1:0:0:
116,89,477549,1,2,0:0:0:0:
116,89,477668,1,2,0:0:0:0:
76,268,477906,2,0,P|120:336|192:340,1,119.000002269745,8|2,0:3|0:2,0:0:0:0:
170,336,478224,1,2,0:2:0:0:
186,325,478303,1,2,0:2:0:0:
203,315,478382,6,2,L|327:327,1,119.000002269745,4|2,0:0|0:3,0:0:0:0:
459,233,478858,2,0,L|335:221,1,119.000002269745,12|4,0:3|0:3,0:0:0:0:
196,116,479335,2,2,P|208:58|224:44,2,59.5000011348725,12|2|2,3:0|3:0|3:0,3:0:0:0:
320,244,479811,1,0,0:0:0:0:
375,74,480049,2,0,L|379:27,3,29.7500005674362,2|0|2|0,0:2|0:0|0:2|0:0,0:0:0:0:
362,39,480287,6,0,B|314:2|314:2|250:6|250:6,1,112,4|2,0:0|0:0,0:0:0:0:
191,134,480922,1,2,0:0:0:0:
108,17,481081,1,0,0:0:0:0:
249,33,481239,1,2,0:0:0:0:
185,161,481398,1,2,0:0:0:0:
94,49,481557,1,0,0:0:0:0:
236,56,481716,1,2,0:0:0:0:
183,188,481874,1,2,0:0:0:0:
84,83,482033,1,0,0:0:0:0:
220,126,482192,6,0,B|288:136|320:96|384:128,1,136.499993751526,2|0,2:0|2:0,0:0:0:0:
384,220,482668,1,8,0:3:0:0:
384,220,482787,1,2,0:3:0:0:
384,220,482906,2,0,L|404:284,1,59.5000011348725,2|0,0:3|0:0,0:0:0:0:
276,192,483144,1,8,3:0:0:0:
276,192,483263,1,2,0:3:0:0:
276,192,483382,2,0,L|228:152,1,59.5000011348725,2|0,0:3|0:0,0:0:0:0:
356,105,483620,1,8,0:3:0:0:
356,105,483739,1,0,0:0:0:0:
356,105,483858,2,0,L|410:37,1,59.5000011348725,2|2,0:3|0:2,0:0:0:0:
439,168,484097,54,2,B|451:249|451:249|430:290,1,119.000002269745,4|2,0:0|0:3,0:0:0:0:
234,152,484573,2,0,B|222:71|222:71|243:30,1,119.000002269745,4|2,0:2|0:3,0:0:0:0:
302,267,485049,2,2,L|290:333,2,59.5000011348725,12|2|2,3:0|3:0|3:0,0:0:0:0:
61,129,485525,1,8,0:3:0:0:
39,93,485644,1,0,0:0:0:0:
30,47,485763,2,0,L|1:8,3,29.7500005674362,2|2|2|2,0:2|0:2|0:2|0:2,0:0:0:0:
30,47,486001,6,2,P|104:52|124:128,1,119.000002269745,4|2,0:0|0:3,0:0:0:0:
239,254,486477,2,0,P|174:228|170:149,1,119.000002269745,12|4,0:3|0:3,0:0:0:0:
393,60,486954,2,2,P|418:46|453:42,1,59.5000011348725
301,175,487192,2,0,P|272:192|239:195,1,59.5000011348725,2|0,0:0|0:0,0:0:0:0:
435,127,487430,2,0,P|462:133|491:154,1,59.5000011348725,0|0,0:0|0:0,0:0:0:0:
267,106,487668,2,6,P|234:98|208:78,1,59.5000011348725,6|6,2:0|2:0,2:0:0:0:
344,116,487906,54,0,B|357:163|357:163|379:181|379:181|398:222,1,105.000004005432,4|6,0:0|0:0,0:0:0:0:
301,328,488620,5,2,0:0:0:0:
260,340,488739,1,2,0:0:0:0:
218,331,488858,2,2,P|210:312|209:287,1,41.9999987182618,8|2,3:0|0:0,0:0:0:0:
270,193,489097,2,2,P|278:212|279:245,1,52.5000020027161,2|2,0:0|0:0,0:0:0:0:
124,258,489335,2,2,P|109:227|130:147,1,105.000004005432,8|2,0:3|0:0,0:0:0:0:
221,113,489692,1,2,3:0:0:0:
322,178,489811,5,12,0:3:0:0:
58,99,490049,1,2,0:0:0:0:
280,212,490287,6,2,L|305:267,3,52.5000020027161,8|2|2|2,0:3|0:0|0:0|0:0,0:0:0:0:
440,291,490763,2,2,L|478:355,3,52.5000020027161,8|2|2|2,3:0|0:0|0:0|0:0,0:0:0:0:
478,175,491239,2,0,L|445:121,3,52.5000020027161,2|2|2|2,0:0|0:0|0:2|0:0,0:0:0:0:
405,67,491716,6,0,B|332:44|332:44|256:62|256:62|189:59,1,210
140,115,492192,6,0,P|135:147|141:176,1,59.5000011348725
200,234,492430,2,0,L|270:225,1,59.5000011348725,2|2,0:0|0:0,0:0:0:0:
333,168,492668,2,0,P|331:126|315:91,1,59.5000011348725
344,255,492906,2,0,P|345:296|361:331,1,59.5000011348725,2|2,0:0|0:0,0:0:0:0:
479,275,493144,2,0,L|394:272,1,59.5000011348725
173,252,493382,2,0,L|258:251,1,59.5000011348725,2|2,0:0|0:0,0:0:0:0:
268,138,493620,54,0,P|193:106|128:131,1,119.000002269745,2|2,0:0|0:0,0:0:0:0:
129,242,494097,2,2,L|104:306,1,59.5000011348725,8|2,0:3|0:0,0:0:0:0:
196,278,494335,2,0,L|219:219,1,59.5000011348725,2|2,0:0|0:0,0:0:0:0:
383,242,494573,2,2,L|408:306,1,59.5000011348725,8|2,3:0|0:0,0:0:0:0:
316,278,494811,2,0,L|293:219,1,59.5000011348725,2|2,0:0|0:0,0:0:0:0:
312,84,495049,6,0,B|256:70|256:70|176:88,2,119.000002269745,4|0|4,0:2|0:0|0:0,0:0:0:0:
312,84,496001,6,0,P|327:144|309:199,1,119.000002269745,0|0,1:0|0:0,0:0:0:0:
103,142,496477,2,0,P|159:113|252:142,1,119.000002269745
267,320,496954,2,0,P|205:282|188:222,1,119.000002269745,0|0,1:0|0:0,0:0:0:0:
274,97,497430,6,0,P|346:77|398:110,1,119.000002269745
380,226,497906,2,0,P|312:256|256:213,1,119.000002269745,0|0,1:0|0:0,0:0:0:0:
211,206,498263,2,0,L|199:77,1,119.000002269745
142,44,498620,2,0,P|106:38|68:49,1,59.5000011348725
36,96,498858,1,0,1:0:0:0:
385,329,499335,38,0,L|447:323,1,48.9999985046387
272,348,499811,22,0,P|178:340|102:289,1,168,0|0,1:0|0:0,0:0:0:0:
131,233,500287,2,0,P|58:262|58:343,1,168
116,303,500763,2,0,P|197:257|182:183,1,168,0|0,1:0|0:0,0:0:0:0:
133,137,501239,6,0,P|122:56|137:26,2,112,0|0|0,1:0|0:0|1:0,0:0:0:0:
284,158,501954,1,0,0:0:0:0:
284,158,502073,2,0,L|402:160,1,112
347,239,502430,2,0,L|226:238,1,112,0|4,0:0|1:2,0:0:0:0:
192,144,503144,53,4,0:0:0:0:
192,144,503620,38,0,P|166:184|87:194,1,93.3333333333333,2|2,0:0|0:0,0:0:0:0:
215,46,503938,1,0,0:0:0:0:
372,83,504097,2,0,P|385:168|377:193,1,93.3333333333333,2|2,0:0|0:0,0:0:0:0:
343,297,504414,1,0,0:0:0:0:
192,311,504573,2,0,L|75:313,2,93.3333333333333,2|2|0,0:0|0:0|0:0,0:0:0:0:
343,297,505049,1,2,2:0:0:0:
113,139,505525,6,0,L|12:156,2,93.3333333333333,8|2|2,0:3|0:3|0:3,0:0:0:0:
397,206,506001,2,0,L|498:223,2,93.3333333333333,8|2|2,3:0|0:3|0:3,0:0:0:0:
118,204,506477,2,0,L|12:182,2,93.3333333333333,8|2|2,0:3|0:3|0:2,0:0:0:0:
211,245,506954,6,2,P|226:319|189:372,1,140,4|2,0:0|0:3,0:0:0:0:
308,267,507430,2,0,P|395:231|436:246,1,140,4|4,0:2|0:3,0:0:0:0:
280,166,507906,1,2,3:1:0:0:
280,166,508025,1,2,0:0:0:0:
280,166,508144,2,0,P|222:116|211:54,2,140,2|8|2,0:0|0:3|0:2,0:0:0:0:
433,164,508858,6,2,P|477:99|461:36,1,140,4|2,0:0|0:3,0:0:0:0:
310,109,509335,2,0,P|313:204|372:255,1,140,12|4,0:3|0:3,3:0:0:0:
439,338,509811,1,2,3:1:0:0:
471,349,509930,1,2,0:0:0:0:
505,354,510049,1,2,0:0:0:0:
354,322,510287,1,8,0:3:0:0:
319,319,510406,1,0,0:0:0:0:
279,325,510525,1,2,0:0:0:0:
125,327,510763,6,0,B|112:283|112:283|104:280|104:280|81:215,1,105,4|2,0:0|0:0,0:0:0:0:
80,208,511239,5,0,0:0:0:0:
81,77,511398,2,0,L|178:39,1,74.6666666666667,2|0,0:0|0:0,0:0:0:0:
173,179,511716,1,2,0:0:0:0:
247,272,511874,2,0,L|158:301,1,74.6666666666667,2|0,0:0|0:0,0:0:0:0:
190,172,512192,1,2,0:0:0:0:
163,51,512350,2,0,L|254:14,1,74.6666666666667,2|0,0:0|0:0,0:0:0:0:
338,78,512668,1,2,2:0:0:0:
338,78,513144,6,0,P|360:142|355:191,1,112,8|2,0:3|0:3,0:0:0:0:
209,240,513501,1,2,0:3:0:0:
209,240,513620,2,0,P|231:189|272:151,1,112,8|2,3:0|0:3,0:0:0:0:
400,281,513977,1,2,0:3:0:0:
399,281,514097,2,0,P|332:270|291:242,1,112,8|2,0:3|0:3,2:0:0:0:
289,147,514454,1,2,0:2:0:0:
288,147,514573,54,2,P|214:133|178:170,1,112,4|2,0:0|0:3,0:0:0:0:
52,250,515049,2,2,P|125:263|161:226,1,112,4|2,0:0|0:3,0:0:0:0:
113,80,515525,2,2,L|84:4,2,56,12|2|2,3:0|3:0|3:0,0:0:0:0:
271,136,516001,1,0,0:0:0:0:
333,140,516120,1,0,0:0:0:0:
394,128,516239,2,0,L|435:103,3,28,2|2|2|2,0:2|0:2|0:2|0:2,0:0:0:0:
394,128,516477,6,2,L|427:256,1,112,12|2,3:0|0:3,0:0:0:0:
361,343,516954,2,0,L|328:215,1,112,8|0,0:3|2:0,0:0:0:0:
239,155,517430,1,2,3:1:0:0:
212,153,517549,1,2,2:1:0:0:
185,155,517668,1,2,2:1:0:0:
339,246,517906,1,4,0:2:0:0:
171,251,518144,1,0,0:2:0:0:
265,330,518382,54,0,B|221:325|221:325|189:338|189:338|143:333,1,105.000004005432,4|6,0:0|0:0,0:0:0:0:
85,249,519097,37,2,0:0:0:0:
69,193,519216,1,2,0:0:0:0:
54,136,519335,2,2,L|30:84,1,52.5000020027161,8|0,3:0|0:0,0:0:0:0:
162,120,519573,1,2,0:0:0:0:
211,89,519692,1,2,0:2:0:0:
263,64,519811,2,0,P|304:74|339:123,2,105.000004005432
458,179,520525,1,0,0:0:0:0:
320,252,520763,6,0,P|252:212|248:156,1,119.000002269745,2|2,0:0|0:0,0:0:0:0:
319,158,521120,1,2,0:0:0:0:
376,208,521239,2,0,P|388:276|332:320,1,119.000002269745,2|2,0:0|0:0,0:0:0:0:
295,357,521597,1,2,0:0:0:0:
230,314,521716,2,0,P|166:290|82:326,1,119.000002269745,2|2,0:0|0:3,0:0:0:0:
69,359,522073,1,0,0:0:0:0:
24,297,522192,6,0,P|20:222|33:191,1,97.9999970092774,12|4,3:0|0:0,0:0:0:0:
163,276,522668,6,0,P|176:207|152:132,1,140,2|2,0:0|0:0,0:0:0:0:
85,112,523025,1,2,0:0:0:0:
150,71,523144,2,2,L|228:75,1,70,8|0,3:0|0:0,0:0:0:0:
352,152,523382,2,2,L|266:144,1,70,2|0,0:0|0:0,0:0:0:0:
152,80,523620,2,2,L|230:84,1,70,8|0,0:3|0:0,0:0:0:0:
354,167,523858,2,0,L|268:159,1,70,6|2,0:0|0:0,0:0:0:0:
211,186,524097,6,0,P|204:279|229:340,2,140,0|4|8,0:0|0:0|0:3,0:0:0:0:
248,117,524692,1,2,0:0:0:0:
309,70,524811,1,2,0:0:0:0:
383,51,524930,1,2,0:0:0:0:
458,35,525049,53,8,0:3:0:0:
438,109,525168,1,2,0:0:0:0:
433,185,525287,1,2,0:0:0:0:
456,260,525406,1,2,0:0:0:0:
491,328,525525,6,0,L|512:357,7,35
491,328,526001,6,0,B|433:326|433:326|405:340|405:340|352:336,1,141.750000540733,4|0,0:0|0:0,0:0:0:0:
267,330,526477,6,0,P|210:293|230:187,1,183.750001752377,0|0,1:0|0:0,0:0:0:0:
416,104,526954,2,0,P|423:171|328:222,1,183.750001752377,0|0,0:0|0:0,0:0:0:0:
165,70,527430,2,0,P|225:39|307:109,1,183.750001752377,0|0,1:0|0:0,0:0:0:0:
237,210,527906,6,0,L|101:210,2,122.500001168251,0|0|0,0:0|0:0|1:0,0:0:0:0:
296,241,528501,1,0,0:0:0:0:
358,216,528620,1,0,0:0:0:0:
384,153,528739,2,0,P|379:74|337:30,1,122.500001168251
286,31,529096,2,0,L|221:29,2,61.2500005841255,0|0|0,0:0|0:0|1:0,0:0:0:0:
72,100,529811,54,0,L|92:25,1,52.5000020027161
178,135,530287,6,0,L|210:13,1,105.000004005432,0|0,1:0|0:0,1:0:0:0:
290,173,530763,6,0,L|332:10,1,119.000002269745
400,213,531239,6,0,L|439:65,1,132.999996448517,0|0,1:0|0:0,0:0:0:0:
259,321,531716,6,0,L|182:302,1,70,0|0,0:0|2:0,0:0:0:0:
71,268,531954,2,0,L|158:186,1,70,0|0,3:0|2:0,0:0:0:0:
212,134,532192,2,0,L|237:226,1,70
259,321,532430,2,0,L|182:302,1,70
71,269,532668,1,0,0:0:0:0:
49,195,532787,1,0,0:0:0:0:
63,119,532906,2,0,L|70:68,3,46.6666666666667,0|0|0|4,0:0|0:0|0:0|0:0,0:0:0:0:
402,60,533620,5,4,0:0:0:0:
256,192,533739,12,0,541239,2:0:0:0:
