osu file format v12

[General]
AudioFilename: Pendulum - The Island (MaxNRG drum'n'bass remix).mp3
AudioLeadIn: 0
PreviewTime: 89827
Countdown: 0
SampleSet: None
StackLeniency: 0.7
Mode: 3
LetterboxInBreaks: 0
SpecialStyle: 0
WidescreenStoryboard: 1

[Editor]
Bookmarks: 24827,46896,57931,68965,91034,102155,113103,135172,179310,201724,223448,245517,289655
DistanceSpacing: 1
BeatDivisor: 4
GridSize: 16

[Metadata]
Title:The Island (MaxNRG Remix)
TitleUnicode:The Island (MaxNRG Remix)
Artist:Pendulum
ArtistUnicode:Pendulum
Creator:Skalim
Version:7K The Island - Insane
Source:
Tags:dnb drum´n´bass immersion
BeatmapID:298815
BeatmapSetID:110637

[Difficulty]
HPDrainRate:8
CircleSize:7
OverallDifficulty:8
ApproachRate:5
SliderMultiplier:1.4
SliderTickRate:1

[Events]
//Background and Video events
0,0,"pendulum_by_binobono-d33qk9w.jpg",0,0
//Break Periods
//Storyboard Layer 0 (Background)
//Storyboard Layer 1 (Fail)
//Storyboard Layer 2 (Pass)
//Storyboard Layer 3 (Foreground)
//Storyboard Sound Samples
//Background Colour Transformations
3,100,163,162,255

[TimingPoints]
0,344.827586206897,4,3,1,20,1,0
38620,-100,4,3,1,30,0,0
41551,-100,4,3,1,45,0,0
46896,-100,4,3,1,55,0,1
68965,-100,4,3,1,55,0,0
89741,-100,4,3,1,10,0,0
90000,-100,4,3,1,50,0,0
90258,-100,4,3,1,10,0,0
90517,-100,4,3,1,60,0,0
107586,-100,4,3,1,30,0,0
113103,-100,4,3,1,50,0,1
135172,-100,4,3,1,20,0,0
173793,-100,4,3,1,55,0,0
178620,-100,4,1,1,55,0,0
179224,-100,4,3,1,50,0,0
179310,-100,4,3,1,50,0,1
201724,-100,4,3,1,55,0,0
239913,-100,4,3,1,45,0,0
245517,-100,4,3,1,55,0,1
267586,-100,4,3,1,65,0,0
284137,-100,4,3,1,60,0,0
289568,-100,4,3,1,55,0,0

[HitObjects]
256,192,2758,1,2,0:0:0:0:
36,192,2758,1,2,0:0:0:0:
475,192,2758,1,2,0:0:0:0:
36,192,3103,1,0,0:0:0:0:
256,192,3103,1,0,0:0:0:0:
475,192,3103,1,0,0:0:0:0:
36,192,3448,1,0,0:0:0:0:
256,192,3448,1,0,0:0:0:0:
475,192,3448,1,0,0:0:0:0:
36,192,3620,1,0,0:0:0:0:
475,192,3620,1,0,0:0:0:0:
256,192,3793,1,0,0:0:0:0:
109,192,3965,1,0,0:0:0:0:
329,192,3965,1,0,0:0:0:0:
475,192,3965,1,0,0:0:0:0:
182,192,4137,1,0,0:0:0:0:
182,192,4310,1,0,0:0:0:0:
329,192,4482,1,0,0:0:0:0:
475,192,4482,1,0,0:0:0:0:
109,192,4482,1,0,0:0:0:0:
182,192,4655,1,0,0:0:0:0:
109,192,4827,1,0,0:0:0:0:
329,192,4827,1,0,0:0:0:0:
475,192,4827,1,0,0:0:0:0:
182,192,5000,1,0,0:0:0:0:
256,192,5000,1,0,0:0:0:0:
36,192,5172,1,0,0:0:0:0:
329,192,5172,1,0,0:0:0:0:
402,192,5172,1,0,0:0:0:0:
182,192,5344,1,0,0:0:0:0:
475,192,5344,1,0,0:0:0:0:
109,192,5517,1,0,0:0:0:0:
256,192,5517,1,0,0:0:0:0:
402,192,5517,1,0,0:0:0:0:
109,192,5862,1,0,0:0:0:0:
256,192,5862,1,0,0:0:0:0:
402,192,5862,1,0,0:0:0:0:
329,192,6034,1,0,0:0:0:0:
36,192,6206,1,0,0:0:0:0:
402,192,6206,1,0,0:0:0:0:
256,192,6206,1,0,0:0:0:0:
109,192,6379,1,0,0:0:0:0:
475,192,6379,1,0,0:0:0:0:
329,192,6379,1,0,0:0:0:0:
256,192,6551,1,0,0:0:0:0:
36,192,6724,1,0,0:0:0:0:
475,192,6724,1,0,0:0:0:0:
329,192,6724,1,0,0:0:0:0:
36,192,7068,1,0,0:0:0:0:
329,192,7068,1,0,0:0:0:0:
475,192,7068,1,0,0:0:0:0:
36,192,7241,1,0,0:0:0:0:
329,192,7241,1,0,0:0:0:0:
475,192,7241,1,0,0:0:0:0:
109,192,7413,1,0,0:0:0:0:
256,192,7586,1,0,0:0:0:0:
329,192,7586,1,0,0:0:0:0:
182,192,7758,1,0,0:0:0:0:
109,192,7758,1,0,0:0:0:0:
329,192,7931,1,0,0:0:0:0:
402,192,7931,1,0,0:0:0:0:
109,192,8103,1,0,0:0:0:0:
182,192,8103,1,0,0:0:0:0:
36,192,8275,128,2,9655:0:0:0:0:
475,192,8275,128,2,9655:0:0:0:0:
182,192,8275,1,2,0:0:0:0:
329,192,8275,1,2,0:0:0:0:
109,192,8620,1,0,0:0:0:0:
256,192,8620,1,0,0:0:0:0:
402,192,8620,1,0,0:0:0:0:
109,192,8965,1,0,0:0:0:0:
402,192,8965,1,0,0:0:0:0:
402,192,9137,1,0,0:0:0:0:
256,192,9137,1,0,0:0:0:0:
109,192,9137,1,0,0:0:0:0:
182,192,9310,1,0,0:0:0:0:
256,192,9482,1,0,0:0:0:0:
402,192,9482,1,0,0:0:0:0:
109,192,9655,1,0,0:0:0:0:
182,192,9655,1,0,0:0:0:0:
256,192,9827,1,0,0:0:0:0:
329,192,9827,1,0,0:0:0:0:
109,192,10000,1,0,0:0:0:0:
402,192,10000,1,0,0:0:0:0:
475,192,10000,1,0,0:0:0:0:
256,192,10172,1,0,0:0:0:0:
329,192,10172,1,0,0:0:0:0:
109,192,10344,1,0,0:0:0:0:
36,192,10344,1,0,0:0:0:0:
182,192,10517,1,0,0:0:0:0:
109,192,10517,1,0,0:0:0:0:
475,192,10689,1,0,0:0:0:0:
402,192,10689,1,0,0:0:0:0:
402,192,10862,1,0,0:0:0:0:
329,192,10862,1,0,0:0:0:0:
36,192,11034,1,0,0:0:0:0:
256,192,11034,1,0,0:0:0:0:
475,192,11034,1,0,0:0:0:0:
109,192,11379,1,0,0:0:0:0:
256,192,11379,1,0,0:0:0:0:
402,192,11379,1,0,0:0:0:0:
182,192,11551,1,0,0:0:0:0:
329,192,11551,1,0,0:0:0:0:
256,192,11724,1,0,0:0:0:0:
36,192,11724,1,0,0:0:0:0:
256,192,11896,1,0,0:0:0:0:
475,192,11896,1,0,0:0:0:0:
36,192,12068,1,0,0:0:0:0:
329,192,12068,1,0,0:0:0:0:
256,192,12241,1,0,0:0:0:0:
402,192,12241,1,0,0:0:0:0:
182,192,12413,128,0,12586:0:0:0:0:
329,192,12413,1,0,0:0:0:0:
36,192,12586,128,0,12758:0:0:0:0:
402,192,12586,1,0,0:0:0:0:
182,192,12758,128,0,12931:0:0:0:0:
475,192,12758,1,0,0:0:0:0:
36,192,12931,128,0,13103:0:0:0:0:
402,192,12931,1,0,0:0:0:0:
182,192,13103,128,0,13448:0:0:0:0:
329,192,13103,1,0,0:0:0:0:
402,192,13275,1,0,0:0:0:0:
109,192,13448,128,0,13620:0:0:0:0:
475,192,13448,1,0,0:0:0:0:
402,192,13620,1,0,0:0:0:0:
36,192,13793,1,2,0:0:0:0:
182,192,13793,1,2,0:0:0:0:
475,192,13793,1,2,0:0:0:0:
329,192,13793,1,2,0:0:0:0:
109,192,14137,1,0,0:0:0:0:
256,192,14137,1,0,0:0:0:0:
402,192,14137,1,0,0:0:0:0:
36,192,14482,1,0,0:0:0:0:
329,192,14482,1,0,0:0:0:0:
402,192,14655,1,0,0:0:0:0:
256,192,14655,1,0,0:0:0:0:
475,192,14655,1,0,0:0:0:0:
329,192,14827,1,0,0:0:0:0:
182,192,14827,1,0,0:0:0:0:
36,192,15000,1,0,0:0:0:0:
109,192,15000,1,0,0:0:0:0:
475,192,15000,1,0,0:0:0:0:
329,192,15172,1,0,0:0:0:0:
36,192,15344,1,0,0:0:0:0:
256,192,15344,1,0,0:0:0:0:
109,192,15517,1,0,0:0:0:0:
182,192,15517,1,0,0:0:0:0:
256,192,15689,1,0,0:0:0:0:
109,192,15862,1,0,0:0:0:0:
402,192,15862,1,0,0:0:0:0:
329,192,15862,1,0,0:0:0:0:
182,192,16034,1,0,0:0:0:0:
329,192,16034,1,0,0:0:0:0:
256,192,16206,1,0,0:0:0:0:
475,192,16206,1,0,0:0:0:0:
36,192,16206,1,0,0:0:0:0:
182,192,16379,1,0,0:0:0:0:
329,192,16379,1,0,0:0:0:0:
36,192,16379,1,0,0:0:0:0:
109,192,16551,1,0,0:0:0:0:
256,192,16551,1,0,0:0:0:0:
402,192,16551,1,0,0:0:0:0:
109,192,16896,1,0,0:0:0:0:
256,192,16896,1,0,0:0:0:0:
402,192,16896,1,0,0:0:0:0:
329,192,17068,1,0,0:0:0:0:
109,192,17241,1,0,0:0:0:0:
402,192,17241,1,0,0:0:0:0:
256,192,17413,1,0,0:0:0:0:
475,192,17413,1,0,0:0:0:0:
182,192,17586,1,0,0:0:0:0:
36,192,17758,1,0,0:0:0:0:
256,192,17758,1,0,0:0:0:0:
109,192,17758,1,0,0:0:0:0:
182,192,17931,1,0,0:0:0:0:
256,192,18103,1,0,0:0:0:0:
475,192,18103,1,0,0:0:0:0:
36,192,18275,1,0,0:0:0:0:
109,192,18275,1,0,0:0:0:0:
256,192,18448,1,0,0:0:0:0:
402,192,18620,1,0,0:0:0:0:
475,192,18620,1,0,0:0:0:0:
36,192,18793,1,0,0:0:0:0:
109,192,18793,1,0,0:0:0:0:
182,192,18965,1,0,0:0:0:0:
256,192,18965,1,0,0:0:0:0:
329,192,19137,1,0,0:0:0:0:
402,192,19137,1,0,0:0:0:0:
182,192,19310,128,2,20517:0:0:0:0:
329,192,19310,128,2,20517:0:0:0:0:
36,192,19310,1,2,0:0:0:0:
475,192,19310,1,2,0:0:0:0:
36,192,19655,1,0,0:0:0:0:
475,192,19655,1,0,0:0:0:0:
36,192,20000,1,0,0:0:0:0:
475,192,20000,1,0,0:0:0:0:
36,192,20172,1,0,0:0:0:0:
475,192,20172,1,0,0:0:0:0:
256,192,20344,1,0,0:0:0:0:
36,192,20517,1,0,0:0:0:0:
475,192,20517,1,0,0:0:0:0:
256,192,20689,1,0,0:0:0:0:
109,192,20862,1,0,0:0:0:0:
329,192,20862,1,0,0:0:0:0:
182,192,21034,1,0,0:0:0:0:
402,192,21034,1,0,0:0:0:0:
329,192,21206,1,0,0:0:0:0:
256,192,21379,1,8,0:0:0:0:
36,192,21379,128,8,22758:0:0:0:0:
109,192,21379,1,8,0:0:0:0:
256,192,21551,1,0,0:0:0:0:
475,192,21551,1,0,0:0:0:0:
256,192,21724,1,0,0:0:0:0:
182,192,21724,1,0,0:0:0:0:
256,192,21896,1,0,0:0:0:0:
329,192,21896,1,0,0:0:0:0:
109,192,22068,128,0,22758:0:0:0:0:
182,192,22068,1,2,0:0:0:0:
402,192,22068,1,2,0:0:0:0:
475,192,22068,1,2,0:0:0:0:
182,192,22413,1,0,0:0:0:0:
402,192,22413,1,0,0:0:0:0:
475,192,22413,1,0,0:0:0:0:
329,192,22586,1,0,0:0:0:0:
182,192,22758,1,0,0:0:0:0:
256,192,22758,1,0,0:0:0:0:
329,192,22931,1,0,0:0:0:0:
402,192,23103,1,0,0:0:0:0:
329,192,23275,1,0,0:0:0:0:
475,192,23275,1,0,0:0:0:0:
36,192,23448,1,2,0:0:0:0:
256,192,23448,1,2,0:0:0:0:
475,192,23448,1,2,0:0:0:0:
36,192,23620,128,4,23793:0:0:0:0:
329,192,23620,1,4,0:0:0:0:
475,192,23793,128,4,23965:0:0:0:0:
182,192,23793,1,4,0:0:0:0:
109,192,23965,128,4,24137:0:0:0:0:
329,192,23965,1,4,0:0:0:0:
402,192,24137,128,8,25517:0:0:0:0:
182,192,24137,1,4,0:0:0:0:
109,192,24310,1,4,0:0:0:0:
329,192,24396,128,0,25517:0:0:0:0:
36,192,24482,1,4,0:0:0:0:
475,192,24655,128,0,25517:0:0:0:0:
109,192,24655,1,4,0:0:0:0:
256,192,24827,1,10,0:0:0:0:
36,192,24827,128,10,25517:0:0:0:0:
182,192,25172,1,0,0:0:0:0:
182,192,25517,1,0,0:0:0:0:
109,192,25689,1,0,0:0:0:0:
36,192,25689,1,0,0:0:0:0:
182,192,25862,1,0,0:0:0:0:
256,192,26034,1,0,0:0:0:0:
475,192,26034,1,0,0:0:0:0:
329,192,26206,1,0,0:0:0:0:
36,192,26379,1,0,0:0:0:0:
182,192,26379,1,0,0:0:0:0:
402,192,26379,1,0,0:0:0:0:
109,192,26551,1,0,0:0:0:0:
256,192,26551,1,0,0:0:0:0:
182,192,26724,1,0,0:0:0:0:
475,192,26724,1,0,0:0:0:0:
329,192,26896,1,0,0:0:0:0:
402,192,26896,1,0,0:0:0:0:
109,192,27068,1,0,0:0:0:0:
36,192,27068,1,0,0:0:0:0:
36,192,27241,1,0,0:0:0:0:
182,192,27241,1,0,0:0:0:0:
109,192,27413,1,0,0:0:0:0:
256,192,27413,1,0,0:0:0:0:
182,192,27586,1,0,0:0:0:0:
256,192,27586,1,0,0:0:0:0:
475,192,27586,1,0,0:0:0:0:
402,192,27586,128,0,27758:0:0:0:0:
329,192,27758,128,0,27931:0:0:0:0:
256,192,27931,128,0,28103:0:0:0:0:
36,192,27931,1,0,0:0:0:0:
109,192,27931,1,0,0:0:0:0:
329,192,28103,128,0,28275:0:0:0:0:
182,192,28103,1,0,0:0:0:0:
36,192,28275,1,0,0:0:0:0:
109,192,28275,1,0,0:0:0:0:
402,192,28275,128,0,28965:0:0:0:0:
36,192,28448,1,0,0:0:0:0:
109,192,28448,1,0,0:0:0:0:
182,192,28620,1,0,0:0:0:0:
256,192,28793,1,0,0:0:0:0:
329,192,28793,1,0,0:0:0:0:
109,192,28965,1,0,0:0:0:0:
182,192,29137,1,0,0:0:0:0:
475,192,29137,1,0,0:0:0:0:
329,192,29310,1,0,0:0:0:0:
36,192,29310,1,0,0:0:0:0:
109,192,29482,1,0,0:0:0:0:
256,192,29482,1,0,0:0:0:0:
36,192,29655,1,0,0:0:0:0:
475,192,29655,1,0,0:0:0:0:
256,192,29827,1,0,0:0:0:0:
329,192,29827,1,0,0:0:0:0:
109,192,30000,1,0,0:0:0:0:
182,192,30000,1,0,0:0:0:0:
36,192,30172,1,0,0:0:0:0:
256,192,30172,1,0,0:0:0:0:
329,192,30344,1,0,0:0:0:0:
475,192,30344,1,0,0:0:0:0:
109,192,30344,128,0,31724:0:0:0:0:
329,192,30689,1,0,0:0:0:0:
475,192,30689,1,0,0:0:0:0:
36,192,30689,1,0,0:0:0:0:
36,192,31034,1,0,0:0:0:0:
329,192,31034,1,0,0:0:0:0:
475,192,31034,1,0,0:0:0:0:
475,192,31206,1,0,0:0:0:0:
329,192,31206,1,0,0:0:0:0:
36,192,31206,1,0,0:0:0:0:
402,192,31379,1,0,0:0:0:0:
329,192,31551,1,0,0:0:0:0:
475,192,31551,1,0,0:0:0:0:
256,192,31724,128,0,33103:0:0:0:0:
402,192,31724,1,0,0:0:0:0:
36,192,31896,1,0,0:0:0:0:
182,192,31896,1,0,0:0:0:0:
36,192,32068,1,0,0:0:0:0:
182,192,32068,1,0,0:0:0:0:
109,192,32241,1,0,0:0:0:0:
402,192,32241,1,0,0:0:0:0:
182,192,32413,1,0,0:0:0:0:
329,192,32413,1,0,0:0:0:0:
109,192,32586,1,0,0:0:0:0:
402,192,32586,1,0,0:0:0:0:
36,192,32758,1,0,0:0:0:0:
329,192,32758,1,0,0:0:0:0:
109,192,32931,1,0,0:0:0:0:
402,192,32931,1,0,0:0:0:0:
402,192,33103,128,0,34482:0:0:0:0:
182,192,33103,1,0,0:0:0:0:
475,192,33103,1,0,0:0:0:0:
36,192,33448,1,0,0:0:0:0:
475,192,33448,1,0,0:0:0:0:
256,192,33620,1,0,0:0:0:0:
36,192,33793,1,0,0:0:0:0:
475,192,33793,1,0,0:0:0:0:
36,192,33965,1,0,0:0:0:0:
475,192,33965,1,0,0:0:0:0:
256,192,34137,1,0,0:0:0:0:
36,192,34310,1,0,0:0:0:0:
475,192,34310,1,0,0:0:0:0:
109,192,34482,1,0,0:0:0:0:
329,192,34482,1,0,0:0:0:0:
182,192,34655,1,0,0:0:0:0:
256,192,34655,1,0,0:0:0:0:
36,192,34827,1,0,0:0:0:0:
475,192,34827,1,0,0:0:0:0:
182,192,35000,1,0,0:0:0:0:
475,192,35000,1,0,0:0:0:0:
329,192,35172,128,0,35862:0:0:0:0:
36,192,35172,1,0,0:0:0:0:
109,192,35172,1,0,0:0:0:0:
109,192,35344,1,0,0:0:0:0:
182,192,35517,1,0,0:0:0:0:
256,192,35517,1,0,0:0:0:0:
256,192,35689,1,0,0:0:0:0:
402,192,35862,1,2,0:0:0:0:
475,192,35862,1,2,0:0:0:0:
36,192,35862,1,2,0:0:0:0:
36,192,36206,1,0,0:0:0:0:
256,192,36206,1,0,0:0:0:0:
475,192,36206,1,0,0:0:0:0:
182,192,36379,1,0,0:0:0:0:
256,192,36551,1,0,0:0:0:0:
475,192,36551,1,0,0:0:0:0:
329,192,36724,1,0,0:0:0:0:
475,192,36724,1,0,0:0:0:0:
256,192,36896,1,0,0:0:0:0:
36,192,37068,1,0,0:0:0:0:
329,192,37068,1,0,0:0:0:0:
109,192,37241,1,0,0:0:0:0:
256,192,37241,1,0,0:0:0:0:
36,192,37413,1,0,0:0:0:0:
182,192,37413,1,0,0:0:0:0:
109,192,37586,1,0,0:0:0:0:
256,192,37586,1,0,0:0:0:0:
182,192,37758,1,0,0:0:0:0:
475,192,37758,1,0,0:0:0:0:
36,192,37931,1,0,0:0:0:0:
256,192,37931,1,0,0:0:0:0:
402,192,37931,1,0,0:0:0:0:
109,192,38103,1,0,0:0:0:0:
182,192,38103,1,0,0:0:0:0:
109,192,38275,1,0,0:0:0:0:
182,192,38275,1,0,0:0:0:0:
182,192,38448,1,0,0:0:0:0:
109,192,38448,1,0,0:0:0:0:
36,192,38620,1,0,0:0:0:0:
256,192,38620,1,0,0:0:0:0:
402,192,38620,1,0,0:0:0:0:
182,192,38793,1,0,0:0:0:0:
475,192,38793,1,0,0:0:0:0:
329,192,38965,1,0,0:0:0:0:
36,192,38965,1,0,0:0:0:0:
109,192,38965,1,0,0:0:0:0:
256,192,39137,1,0,0:0:0:0:
475,192,39137,1,0,0:0:0:0:
36,192,39310,1,0,0:0:0:0:
402,192,39310,1,0,0:0:0:0:
329,192,39310,1,0,0:0:0:0:
109,192,39482,1,0,0:0:0:0:
256,192,39482,1,0,0:0:0:0:
182,192,39655,1,0,0:0:0:0:
475,192,39655,1,0,0:0:0:0:
329,192,39655,1,0,0:0:0:0:
109,192,39827,1,0,0:0:0:0:
256,192,39827,1,0,0:0:0:0:
475,192,40000,1,0,0:0:0:0:
402,192,40000,1,0,0:0:0:0:
36,192,40000,1,0,0:0:0:0:
36,192,40172,1,0,0:0:0:0:
329,192,40172,1,0,0:0:0:0:
475,192,40172,1,0,0:0:0:0:
36,192,40344,1,0,0:0:0:0:
256,192,40344,1,0,0:0:0:0:
475,192,40344,1,0,0:0:0:0:
36,192,40517,1,0,0:0:0:0:
182,192,40517,1,0,0:0:0:0:
475,192,40517,1,0,0:0:0:0:
329,192,40689,128,0,41034:0:0:0:0:
109,192,40689,1,0,0:0:0:0:
475,192,40862,1,0,0:0:0:0:
256,192,41034,128,0,41379:0:0:0:0:
36,192,41034,1,0,0:0:0:0:
109,192,41206,1,0,0:0:0:0:
36,192,41379,1,0,0:0:0:0:
182,192,41379,1,0,0:0:0:0:
329,192,41379,1,0,0:0:0:0:
475,192,41379,1,0,0:0:0:0:
402,192,41551,1,0,0:0:0:0:
329,192,41637,1,0,0:0:0:0:
182,192,41724,1,0,0:0:0:0:
36,192,41724,1,0,0:0:0:0:
402,192,41724,1,0,0:0:0:0:
109,192,41896,1,0,0:0:0:0:
182,192,41982,1,0,0:0:0:0:
109,192,42068,1,0,0:0:0:0:
329,192,42068,1,0,0:0:0:0:
475,192,42068,1,0,0:0:0:0:
402,192,42241,1,0,0:0:0:0:
329,192,42327,1,0,0:0:0:0:
36,192,42413,1,0,0:0:0:0:
182,192,42413,1,0,0:0:0:0:
402,192,42413,1,0,0:0:0:0:
256,192,42586,1,0,0:0:0:0:
329,192,42672,1,0,0:0:0:0:
36,192,42758,1,0,0:0:0:0:
182,192,42758,1,0,0:0:0:0:
402,192,42758,1,0,0:0:0:0:
256,192,42931,1,0,0:0:0:0:
182,192,43017,1,0,0:0:0:0:
329,192,43103,1,0,0:0:0:0:
475,192,43103,1,0,0:0:0:0:
109,192,43103,1,0,0:0:0:0:
36,192,43275,1,0,0:0:0:0:
182,192,43362,1,0,0:0:0:0:
329,192,43448,1,0,0:0:0:0:
475,192,43620,1,0,0:0:0:0:
329,192,43706,1,0,0:0:0:0:
182,192,43793,1,0,0:0:0:0:
109,192,43965,1,0,0:0:0:0:
402,192,44051,1,0,0:0:0:0:
36,192,44137,1,0,0:0:0:0:
256,192,44137,1,0,0:0:0:0:
475,192,44137,1,0,0:0:0:0:
36,192,44310,1,0,0:0:0:0:
256,192,44310,1,0,0:0:0:0:
475,192,44310,1,0,0:0:0:0:
475,192,44482,1,0,0:0:0:0:
256,192,44482,1,0,0:0:0:0:
36,192,44482,1,0,0:0:0:0:
36,192,44655,1,0,0:0:0:0:
256,192,44655,1,0,0:0:0:0:
475,192,44655,1,0,0:0:0:0:
36,192,44827,1,0,0:0:0:0:
256,192,44827,1,0,0:0:0:0:
475,192,44827,1,0,0:0:0:0:
36,192,45000,1,0,0:0:0:0:
256,192,45000,1,0,0:0:0:0:
475,192,45000,1,0,0:0:0:0:
475,192,45172,1,0,0:0:0:0:
256,192,45172,1,0,0:0:0:0:
36,192,45172,1,0,0:0:0:0:
36,192,45344,1,0,0:0:0:0:
256,192,45344,1,0,0:0:0:0:
475,192,45344,1,0,0:0:0:0:
109,192,45517,1,4,0:0:0:0:
402,192,45517,1,0,0:0:0:0:
329,192,45603,1,4,0:0:0:0:
36,192,45689,1,4,0:0:0:0:
256,192,45689,1,0,0:0:0:0:
109,192,45775,1,4,0:0:0:0:
329,192,45862,1,10,0:0:0:0:
182,192,45862,1,10,0:0:0:0:
475,192,45948,1,4,0:0:0:0:
182,192,46034,1,0,0:0:0:0:
402,192,46034,1,4,0:0:0:0:
256,192,46120,1,4,0:0:0:0:
109,192,46206,1,4,0:0:0:0:
329,192,46206,1,0,0:0:0:0:
182,192,46293,1,4,0:0:0:0:
36,192,46379,1,0,0:0:0:0:
475,192,46379,1,4,0:0:0:0:
182,192,46465,1,4,0:0:0:0:
109,192,46551,1,10,0:0:0:0:
329,192,46551,1,10,0:0:0:0:
402,192,46551,1,10,0:0:0:0:
36,192,46896,1,0,0:0:0:0:
182,192,46896,1,0,0:0:0:0:
329,192,46896,1,0,0:0:0:0:
475,192,46896,1,0,0:0:0:0:
182,192,47241,1,8,0:0:0:0:
256,192,47241,1,8,0:0:0:0:
402,192,47241,1,8,0:0:0:0:
36,192,47413,128,0,47586:0:0:0:0:
329,192,47413,1,0,0:0:0:0:
475,192,47413,1,0,0:0:0:0:
109,192,47586,128,0,47758:0:0:0:0:
182,192,47586,1,0,0:0:0:0:
475,192,47586,1,0,0:0:0:0:
256,192,47758,1,8,0:0:0:0:
329,192,47758,1,8,0:0:0:0:
36,192,47758,1,0,0:0:0:0:
402,192,47931,1,2,0:0:0:0:
475,192,47931,1,2,0:0:0:0:
182,192,47931,1,0,0:0:0:0:
182,192,48103,128,0,48275:0:0:0:0:
256,192,48275,128,0,48448:0:0:0:0:
36,192,48275,1,0,0:0:0:0:
109,192,48275,1,0,0:0:0:0:
475,192,48275,1,0,0:0:0:0:
329,192,48448,1,0,0:0:0:0:
109,192,48620,1,8,0:0:0:0:
182,192,48620,1,8,0:0:0:0:
36,192,48620,1,8,0:0:0:0:
329,192,48793,128,0,48965:0:0:0:0:
256,192,48793,1,0,0:0:0:0:
475,192,48793,1,0,0:0:0:0:
402,192,48965,128,0,49137:0:0:0:0:
109,192,48965,1,0,0:0:0:0:
182,192,48965,1,0,0:0:0:0:
36,192,49137,1,0,0:0:0:0:
256,192,49137,1,8,0:0:0:0:
329,192,49137,1,8,0:0:0:0:
182,192,49310,1,2,0:0:0:0:
475,192,49310,1,2,0:0:0:0:
109,192,49310,128,2,49655:0:0:0:0:
475,192,49482,128,0,49655:0:0:0:0:
402,192,49655,128,0,49827:0:0:0:0:
36,192,49655,1,0,0:0:0:0:
182,192,49655,1,0,0:0:0:0:
256,192,49827,1,0,0:0:0:0:
36,192,50000,1,8,0:0:0:0:
182,192,50000,1,8,0:0:0:0:
475,192,50000,1,8,0:0:0:0:
182,192,50172,128,0,50344:0:0:0:0:
329,192,50172,1,0,0:0:0:0:
36,192,50344,128,0,50517:0:0:0:0:
402,192,50344,1,0,0:0:0:0:
329,192,50517,1,8,0:0:0:0:
109,192,50517,128,8,50689:0:0:0:0:
475,192,50689,1,2,0:0:0:0:
402,192,50689,1,2,0:0:0:0:
182,192,50689,128,2,50862:0:0:0:0:
256,192,50862,128,0,51379:0:0:0:0:
36,192,51034,1,0,0:0:0:0:
109,192,51034,1,0,0:0:0:0:
329,192,51206,1,0,0:0:0:0:
182,192,51379,1,8,0:0:0:0:
402,192,51379,1,8,0:0:0:0:
475,192,51379,1,8,0:0:0:0:
109,192,51551,128,0,51724:0:0:0:0:
36,192,51551,1,0,0:0:0:0:
402,192,51724,128,0,51896:0:0:0:0:
182,192,51724,1,0,0:0:0:0:
329,192,51896,1,8,0:0:0:0:
256,192,51896,1,8,0:0:0:0:
182,192,52068,1,2,0:0:0:0:
475,192,52068,1,2,0:0:0:0:
109,192,52068,1,2,0:0:0:0:
36,192,52241,128,0,52586:0:0:0:0:
475,192,52241,128,0,52586:0:0:0:0:
109,192,52413,128,0,52586:0:0:0:0:
402,192,52413,128,0,52586:0:0:0:0:
256,192,52413,128,0,52758:0:0:0:0:
109,192,52758,1,8,0:0:0:0:
402,192,52758,1,8,0:0:0:0:
36,192,52931,128,0,53103:0:0:0:0:
109,192,53103,128,0,53448:0:0:0:0:
256,192,53103,1,0,0:0:0:0:
475,192,53103,1,0,0:0:0:0:
329,192,53275,1,8,0:0:0:0:
182,192,53275,1,0,0:0:0:0:
402,192,53275,1,8,0:0:0:0:
182,192,53448,128,0,53793:0:0:0:0:
256,192,53448,1,2,0:0:0:0:
475,192,53448,1,2,0:0:0:0:
36,192,53448,1,2,0:0:0:0:
109,192,53793,1,0,0:0:0:0:
402,192,53793,1,0,0:0:0:0:
256,192,53793,1,0,0:0:0:0:
329,192,53965,1,0,0:0:0:0:
182,192,53965,1,0,0:0:0:0:
109,192,54137,1,8,0:0:0:0:
256,192,54137,1,8,0:0:0:0:
402,192,54137,1,8,0:0:0:0:
36,192,54310,128,0,54482:0:0:0:0:
109,192,54310,1,0,0:0:0:0:
256,192,54482,128,0,54827:0:0:0:0:
182,192,54482,1,0,0:0:0:0:
329,192,54655,1,8,0:0:0:0:
36,192,54655,1,8,0:0:0:0:
475,192,54827,128,0,55172:0:0:0:0:
182,192,54827,1,2,0:0:0:0:
402,192,54827,1,2,0:0:0:0:
109,192,54827,128,2,55172:0:0:0:0:
402,192,55172,128,0,55517:0:0:0:0:
36,192,55172,128,0,55517:0:0:0:0:
182,192,55172,1,0,0:0:0:0:
256,192,55172,1,0,0:0:0:0:
329,192,55344,1,0,0:0:0:0:
109,192,55517,1,8,0:0:0:0:
256,192,55517,1,8,0:0:0:0:
475,192,55517,1,8,0:0:0:0:
475,192,55689,128,0,55862:0:0:0:0:
329,192,55689,1,0,0:0:0:0:
36,192,55862,128,0,56034:0:0:0:0:
256,192,55862,1,0,0:0:0:0:
182,192,56034,128,0,56206:0:0:0:0:
329,192,56034,1,12,0:0:0:0:
402,192,56034,1,8,0:0:0:0:
109,192,56034,1,0,0:0:0:0:
329,192,56206,128,2,56379:0:0:0:0:
36,192,56206,1,2,0:0:0:0:
256,192,56206,1,2,0:0:0:0:
475,192,56379,128,0,56896:0:0:0:0:
182,192,56551,1,0,0:0:0:0:
36,192,56551,1,0,0:0:0:0:
256,192,56551,1,0,0:0:0:0:
109,192,56724,1,0,0:0:0:0:
36,192,56896,1,8,0:0:0:0:
182,192,56896,1,8,0:0:0:0:
256,192,56896,1,8,0:0:0:0:
36,192,57068,128,4,57931:0:0:0:0:
475,192,57068,128,0,57931:0:0:0:0:
109,192,57068,1,4,0:0:0:0:
256,192,57241,128,0,57931:0:0:0:0:
402,192,57241,1,0,0:0:0:0:
182,192,57413,128,4,57931:0:0:0:0:
402,192,57413,1,4,0:0:0:0:
329,192,57586,128,8,57931:0:0:0:0:
109,192,57586,1,8,0:0:0:0:
109,192,57758,1,0,0:0:0:0:
402,192,57931,1,2,0:0:0:0:
109,192,58103,1,0,0:0:0:0:
475,192,58275,128,0,58448:0:0:0:0:
402,192,58275,1,8,0:0:0:0:
36,192,58275,1,8,0:0:0:0:
182,192,58275,1,8,0:0:0:0:
256,192,58448,128,0,58620:0:0:0:0:
109,192,58448,1,0,0:0:0:0:
475,192,58620,128,0,58793:0:0:0:0:
402,192,58620,1,0,0:0:0:0:
182,192,58793,128,0,58965:0:0:0:0:
256,192,58793,1,8,0:0:0:0:
329,192,58793,1,8,0:0:0:0:
109,192,58965,128,0,59655:0:0:0:0:
36,192,58965,1,2,0:0:0:0:
402,192,58965,1,2,0:0:0:0:
475,192,58965,1,2,0:0:0:0:
36,192,59310,1,0,0:0:0:0:
256,192,59310,1,0,0:0:0:0:
475,192,59310,1,0,0:0:0:0:
329,192,59482,1,0,0:0:0:0:
182,192,59655,1,8,0:0:0:0:
402,192,59655,1,8,0:0:0:0:
475,192,59655,1,8,0:0:0:0:
256,192,59827,1,0,0:0:0:0:
36,192,60000,128,0,60172:0:0:0:0:
402,192,60000,1,0,0:0:0:0:
109,192,60172,128,8,60344:0:0:0:0:
329,192,60172,1,8,0:0:0:0:
402,192,60344,1,2,0:0:0:0:
475,192,60344,1,2,0:0:0:0:
182,192,60344,128,0,60517:0:0:0:0:
256,192,60344,1,2,0:0:0:0:
329,192,60689,1,0,0:0:0:0:
402,192,60689,1,0,0:0:0:0:
256,192,60862,1,0,0:0:0:0:
36,192,61034,1,8,0:0:0:0:
109,192,61034,1,8,0:0:0:0:
182,192,61034,1,8,0:0:0:0:
256,192,61206,1,0,0:0:0:0:
402,192,61379,1,0,0:0:0:0:
182,192,61379,1,0,0:0:0:0:
329,192,61551,1,8,0:0:0:0:
256,192,61551,1,8,0:0:0:0:
475,192,61551,128,0,61724:0:0:0:0:
182,192,61724,1,2,0:0:0:0:
109,192,61724,1,2,0:0:0:0:
36,192,61724,1,2,0:0:0:0:
402,192,61724,128,0,61896:0:0:0:0:
329,192,61896,128,0,62068:0:0:0:0:
182,192,62068,1,0,0:0:0:0:
109,192,62068,1,0,0:0:0:0:
36,192,62241,1,0,0:0:0:0:
109,192,62413,1,8,0:0:0:0:
402,192,62413,1,8,0:0:0:0:
256,192,62413,1,8,0:0:0:0:
475,192,62586,1,0,0:0:0:0:
329,192,62758,1,0,0:0:0:0:
36,192,62758,1,0,0:0:0:0:
256,192,62931,1,8,0:0:0:0:
182,192,62931,1,8,0:0:0:0:
109,192,63103,1,2,0:0:0:0:
329,192,63103,1,2,0:0:0:0:
36,192,63103,128,0,63448:0:0:0:0:
402,192,63103,1,2,0:0:0:0:
182,192,63448,1,0,0:0:0:0:
256,192,63448,1,0,0:0:0:0:
475,192,63448,1,0,0:0:0:0:
36,192,63793,128,0,63965:0:0:0:0:
109,192,63793,1,8,0:0:0:0:
402,192,63793,1,8,0:0:0:0:
475,192,63793,1,8,0:0:0:0:
256,192,63965,128,0,64137:0:0:0:0:
329,192,63965,1,0,0:0:0:0:
36,192,64137,128,0,64310:0:0:0:0:
109,192,64137,1,0,0:0:0:0:
329,192,64310,128,0,64482:0:0:0:0:
182,192,64310,1,8,0:0:0:0:
256,192,64310,1,8,0:0:0:0:
36,192,64482,1,2,0:0:0:0:
109,192,64482,1,2,0:0:0:0:
475,192,64482,1,2,0:0:0:0:
402,192,64482,128,0,65172:0:0:0:0:
256,192,64655,1,0,0:0:0:0:
36,192,64827,1,0,0:0:0:0:
475,192,64827,1,0,0:0:0:0:
256,192,65000,1,0,0:0:0:0:
36,192,65172,1,8,0:0:0:0:
109,192,65172,1,8,0:0:0:0:
475,192,65172,1,8,0:0:0:0:
182,192,65344,1,0,0:0:0:0:
36,192,65517,128,0,66034:0:0:0:0:
256,192,65517,1,0,0:0:0:0:
475,192,65517,1,0,0:0:0:0:
109,192,65689,128,0,66034:0:0:0:0:
329,192,65689,1,8,0:0:0:0:
475,192,65689,1,8,0:0:0:0:
182,192,65862,128,0,66034:0:0:0:0:
402,192,65862,1,2,0:0:0:0:
475,192,65862,1,2,0:0:0:0:
256,192,65862,1,2,0:0:0:0:
475,192,66034,1,0,0:0:0:0:
256,192,66206,1,0,0:0:0:0:
329,192,66206,1,0,0:0:0:0:
402,192,66293,1,0,0:0:0:0:
109,192,66379,1,0,0:0:0:0:
256,192,66465,1,0,0:0:0:0:
36,192,66551,1,8,0:0:0:0:
329,192,66551,1,8,0:0:0:0:
402,192,66637,1,0,0:0:0:0:
182,192,66724,1,0,0:0:0:0:
109,192,66810,1,0,0:0:0:0:
329,192,66896,1,0,0:0:0:0:
402,192,66896,1,0,0:0:0:0:
256,192,66982,1,0,0:0:0:0:
36,192,67068,1,8,0:0:0:0:
109,192,67068,1,8,0:0:0:0:
256,192,67155,1,0,0:0:0:0:
329,192,67241,1,2,0:0:0:0:
36,192,67241,1,2,0:0:0:0:
109,192,67327,1,0,0:0:0:0:
256,192,67413,1,0,0:0:0:0:
329,192,67500,1,0,0:0:0:0:
182,192,67586,1,0,0:0:0:0:
256,192,67586,1,0,0:0:0:0:
475,192,67672,1,0,0:0:0:0:
329,192,67758,1,0,0:0:0:0:
109,192,67758,1,0,0:0:0:0:
36,192,67931,1,8,0:0:0:0:
182,192,67931,1,8,0:0:0:0:
329,192,67931,1,8,0:0:0:0:
475,192,67931,1,8,0:0:0:0:
36,192,68103,1,0,0:0:0:0:
182,192,68103,1,0,0:0:0:0:
329,192,68103,1,0,0:0:0:0:
475,192,68103,1,0,0:0:0:0:
36,192,68448,1,0,0:0:0:0:
182,192,68448,1,0,0:0:0:0:
329,192,68448,1,0,0:0:0:0:
475,192,68448,1,0,0:0:0:0:
475,192,68620,1,2,0:0:0:0:
329,192,68620,1,2,0:0:0:0:
182,192,68620,1,2,0:0:0:0:
36,192,68620,1,2,0:0:0:0:
36,192,68965,1,0,0:0:0:0:
402,192,68965,1,0,0:0:0:0:
329,192,68965,1,0,0:0:0:0:
182,192,69137,1,0,0:0:0:0:
256,192,69137,1,0,0:0:0:0:
36,192,69310,1,8,0:0:0:0:
329,192,69310,1,8,0:0:0:0:
402,192,69310,1,0,0:0:0:0:
256,192,69482,1,0,0:0:0:0:
475,192,69482,1,0,0:0:0:0:
182,192,69655,1,0,0:0:0:0:
329,192,69655,1,0,0:0:0:0:
109,192,69827,1,0,0:0:0:0:
256,192,69827,1,0,0:0:0:0:
402,192,69827,1,0,0:0:0:0:
36,192,70000,1,8,0:0:0:0:
182,192,70000,1,8,0:0:0:0:
329,192,70000,1,8,0:0:0:0:
402,192,70172,1,0,0:0:0:0:
475,192,70172,1,0,0:0:0:0:
36,192,70344,1,0,0:0:0:0:
256,192,70344,1,0,0:0:0:0:
329,192,70344,1,0,0:0:0:0:
109,192,70517,1,0,0:0:0:0:
182,192,70517,1,0,0:0:0:0:
36,192,70689,1,8,0:0:0:0:
329,192,70689,1,0,0:0:0:0:
402,192,70689,1,0,0:0:0:0:
256,192,70862,1,0,0:0:0:0:
475,192,70862,1,0,0:0:0:0:
182,192,71034,1,0,0:0:0:0:
329,192,71034,1,0,0:0:0:0:
109,192,71206,1,0,0:0:0:0:
256,192,71206,1,0,0:0:0:0:
402,192,71206,1,0,0:0:0:0:
36,192,71379,1,10,0:0:0:0:
182,192,71379,1,10,0:0:0:0:
329,192,71379,1,2,0:0:0:0:
109,192,71724,1,0,0:0:0:0:
182,192,71724,1,0,0:0:0:0:
475,192,71724,1,0,0:0:0:0:
256,192,71896,1,0,0:0:0:0:
329,192,71896,1,0,0:0:0:0:
109,192,72068,1,0,0:0:0:0:
182,192,72068,1,0,0:0:0:0:
475,192,72068,1,8,0:0:0:0:
36,192,72241,1,0,0:0:0:0:
256,192,72241,1,0,0:0:0:0:
182,192,72413,1,0,0:0:0:0:
329,192,72413,1,0,0:0:0:0:
109,192,72586,1,0,0:0:0:0:
256,192,72586,1,0,0:0:0:0:
402,192,72586,1,0,0:0:0:0:
182,192,72758,1,8,0:0:0:0:
329,192,72758,1,8,0:0:0:0:
475,192,72758,1,8,0:0:0:0:
36,192,72931,1,0,0:0:0:0:
109,192,72931,1,0,0:0:0:0:
182,192,73103,1,0,0:0:0:0:
256,192,73103,1,0,0:0:0:0:
475,192,73103,1,0,0:0:0:0:
329,192,73275,1,0,0:0:0:0:
402,192,73275,1,0,0:0:0:0:
475,192,73448,1,8,0:0:0:0:
109,192,73448,1,0,0:0:0:0:
182,192,73448,1,0,0:0:0:0:
36,192,73620,1,0,0:0:0:0:
256,192,73620,1,0,0:0:0:0:
182,192,73793,1,0,0:0:0:0:
329,192,73793,1,0,0:0:0:0:
109,192,73965,1,0,0:0:0:0:
256,192,73965,1,0,0:0:0:0:
402,192,73965,1,0,0:0:0:0:
182,192,74137,1,10,0:0:0:0:
329,192,74137,1,10,0:0:0:0:
475,192,74137,1,10,0:0:0:0:
182,192,74482,1,0,0:0:0:0:
329,192,74482,1,0,0:0:0:0:
256,192,74482,1,0,0:0:0:0:
109,192,74655,1,0,0:0:0:0:
402,192,74655,1,0,0:0:0:0:
182,192,74827,1,0,0:0:0:0:
329,192,74827,1,0,0:0:0:0:
256,192,74827,1,8,0:0:0:0:
109,192,75000,1,0,0:0:0:0:
402,192,75000,1,0,0:0:0:0:
182,192,75172,1,0,0:0:0:0:
329,192,75172,1,0,0:0:0:0:
109,192,75344,1,0,0:0:0:0:
402,192,75344,1,0,0:0:0:0:
256,192,75344,1,0,0:0:0:0:
182,192,75517,1,8,0:0:0:0:
329,192,75517,1,8,0:0:0:0:
256,192,75517,1,8,0:0:0:0:
109,192,75689,1,0,0:0:0:0:
402,192,75689,1,0,0:0:0:0:
36,192,75862,1,0,0:0:0:0:
475,192,75862,1,0,0:0:0:0:
256,192,75862,1,0,0:0:0:0:
109,192,76034,1,0,0:0:0:0:
402,192,76034,1,0,0:0:0:0:
36,192,76206,1,0,0:0:0:0:
475,192,76206,1,0,0:0:0:0:
256,192,76206,1,8,0:0:0:0:
109,192,76379,1,0,0:0:0:0:
402,192,76379,1,0,0:0:0:0:
36,192,76551,1,0,0:0:0:0:
475,192,76551,1,0,0:0:0:0:
109,192,76724,1,0,0:0:0:0:
402,192,76724,1,0,0:0:0:0:
256,192,76724,1,0,0:0:0:0:
36,192,76896,1,10,0:0:0:0:
182,192,76896,1,10,0:0:0:0:
329,192,76896,1,10,0:0:0:0:
402,192,77068,1,0,0:0:0:0:
36,192,77241,1,0,0:0:0:0:
256,192,77241,1,0,0:0:0:0:
475,192,77241,1,0,0:0:0:0:
182,192,77413,1,0,0:0:0:0:
109,192,77413,1,0,0:0:0:0:
36,192,77586,1,0,0:0:0:0:
329,192,77586,1,8,0:0:0:0:
402,192,77586,1,0,0:0:0:0:
256,192,77758,1,0,0:0:0:0:
109,192,77931,1,0,0:0:0:0:
182,192,77931,1,0,0:0:0:0:
256,192,78103,1,0,0:0:0:0:
329,192,78103,1,0,0:0:0:0:
402,192,78103,1,0,0:0:0:0:
182,192,78275,1,8,0:0:0:0:
109,192,78275,1,8,0:0:0:0:
475,192,78275,1,8,0:0:0:0:
36,192,78620,1,4,0:0:0:0:
182,192,78620,1,0,0:0:0:0:
329,192,78620,1,0,0:0:0:0:
475,192,78620,1,4,0:0:0:0:
109,192,78793,1,0,0:0:0:0:
402,192,78793,1,0,0:0:0:0:
36,192,78965,1,4,0:0:0:0:
182,192,78965,1,0,0:0:0:0:
329,192,78965,1,0,0:0:0:0:
475,192,78965,1,4,0:0:0:0:
36,192,79137,1,4,0:0:0:0:
182,192,79137,1,0,0:0:0:0:
329,192,79137,1,0,0:0:0:0:
475,192,79137,1,4,0:0:0:0:
109,192,79310,1,0,0:0:0:0:
402,192,79310,1,0,0:0:0:0:
36,192,79482,1,4,0:0:0:0:
182,192,79482,1,0,0:0:0:0:
329,192,79482,1,0,0:0:0:0:
475,192,79482,1,4,0:0:0:0:
36,192,79655,1,4,0:0:0:0:
182,192,79655,1,2,0:0:0:0:
329,192,79655,1,2,0:0:0:0:
475,192,79655,1,4,0:0:0:0:
36,192,80000,1,0,0:0:0:0:
475,192,80000,1,0,0:0:0:0:
182,192,80000,1,0,0:0:0:0:
109,192,80172,1,0,0:0:0:0:
402,192,80172,1,0,0:0:0:0:
36,192,80344,1,0,0:0:0:0:
182,192,80344,1,8,0:0:0:0:
475,192,80344,1,0,0:0:0:0:
256,192,80517,1,0,0:0:0:0:
402,192,80517,1,0,0:0:0:0:
182,192,80689,1,0,0:0:0:0:
329,192,80689,1,0,0:0:0:0:
36,192,80862,1,0,0:0:0:0:
109,192,80862,1,0,0:0:0:0:
475,192,80862,1,0,0:0:0:0:
182,192,81034,1,8,0:0:0:0:
329,192,81034,1,8,0:0:0:0:
402,192,81034,1,8,0:0:0:0:
256,192,81206,1,0,0:0:0:0:
36,192,81379,1,0,0:0:0:0:
182,192,81379,1,0,0:0:0:0:
475,192,81379,1,0,0:0:0:0:
402,192,81551,1,0,0:0:0:0:
109,192,81551,1,0,0:0:0:0:
36,192,81724,1,0,0:0:0:0:
182,192,81724,1,8,0:0:0:0:
475,192,81724,1,0,0:0:0:0:
256,192,81896,1,0,0:0:0:0:
402,192,81896,1,0,0:0:0:0:
182,192,82068,1,0,0:0:0:0:
329,192,82068,1,0,0:0:0:0:
36,192,82241,1,0,0:0:0:0:
109,192,82241,1,0,0:0:0:0:
475,192,82241,1,0,0:0:0:0:
182,192,82413,1,10,0:0:0:0:
402,192,82413,1,10,0:0:0:0:
329,192,82413,1,10,0:0:0:0:
36,192,82758,1,0,0:0:0:0:
256,192,82758,1,0,0:0:0:0:
475,192,82758,1,0,0:0:0:0:
329,192,82931,1,0,0:0:0:0:
402,192,82931,1,0,0:0:0:0:
36,192,83103,1,0,0:0:0:0:
256,192,83103,1,8,0:0:0:0:
475,192,83103,1,0,0:0:0:0:
109,192,83275,1,0,0:0:0:0:
182,192,83275,1,0,0:0:0:0:
256,192,83448,1,0,0:0:0:0:
475,192,83448,1,0,0:0:0:0:
36,192,83620,1,0,0:0:0:0:
329,192,83620,1,0,0:0:0:0:
402,192,83620,1,0,0:0:0:0:
109,192,83793,1,8,0:0:0:0:
182,192,83793,1,8,0:0:0:0:
475,192,83793,1,8,0:0:0:0:
256,192,83965,1,0,0:0:0:0:
36,192,84137,1,0,0:0:0:0:
256,192,84137,1,0,0:0:0:0:
475,192,84137,1,0,0:0:0:0:
109,192,84310,1,0,0:0:0:0:
182,192,84310,1,0,0:0:0:0:
256,192,84482,1,8,0:0:0:0:
36,192,84482,1,8,0:0:0:0:
475,192,84482,1,8,0:0:0:0:
329,192,84655,1,0,0:0:0:0:
402,192,84655,1,0,0:0:0:0:
36,192,84827,1,0,0:0:0:0:
256,192,84827,1,0,0:0:0:0:
109,192,85000,1,0,0:0:0:0:
182,192,85000,1,0,0:0:0:0:
475,192,85000,1,0,0:0:0:0:
36,192,85172,1,10,0:0:0:0:
329,192,85172,1,10,0:0:0:0:
402,192,85172,1,10,0:0:0:0:
109,192,85517,1,0,0:0:0:0:
36,192,85517,1,0,0:0:0:0:
475,192,85517,1,0,0:0:0:0:
109,192,85689,1,0,0:0:0:0:
182,192,85689,1,0,0:0:0:0:
182,192,85862,1,0,0:0:0:0:
256,192,85862,1,8,0:0:0:0:
475,192,85862,1,0,0:0:0:0:
109,192,86034,1,0,0:0:0:0:
36,192,86034,1,0,0:0:0:0:
109,192,86206,1,0,0:0:0:0:
182,192,86206,1,0,0:0:0:0:
256,192,86379,1,0,0:0:0:0:
475,192,86379,1,0,0:0:0:0:
182,192,86379,1,0,0:0:0:0:
475,192,86551,1,8,0:0:0:0:
402,192,86551,1,8,0:0:0:0:
36,192,86724,128,0,89482:0:0:0:0:
256,192,86724,1,0,0:0:0:0:
182,192,86896,1,0,0:0:0:0:
402,192,86896,1,0,0:0:0:0:
475,192,86896,1,0,0:0:0:0:
109,192,87068,128,0,89482:0:0:0:0:
329,192,87068,1,0,0:0:0:0:
182,192,87241,1,0,0:0:0:0:
402,192,87241,1,8,0:0:0:0:
475,192,87241,1,0,0:0:0:0:
256,192,87413,1,0,0:0:0:0:
329,192,87586,1,0,0:0:0:0:
256,192,87758,1,0,0:0:0:0:
402,192,87758,1,0,0:0:0:0:
329,192,87931,1,8,0:0:0:0:
182,192,87931,1,8,0:0:0:0:
475,192,87931,1,8,0:0:0:0:
182,192,88275,1,0,0:0:0:0:
329,192,88275,1,0,0:0:0:0:
475,192,88275,1,0,0:0:0:0:
256,192,88448,1,0,0:0:0:0:
182,192,88620,1,8,0:0:0:0:
329,192,88620,1,8,0:0:0:0:
475,192,88620,1,8,0:0:0:0:
402,192,88793,1,0,0:0:0:0:
256,192,88793,1,4,0:0:0:0:
256,192,89137,1,0,0:0:0:0:
402,192,89137,1,4,0:0:0:0:
182,192,89310,1,8,0:0:0:0:
329,192,89310,1,8,0:0:0:0:
475,192,89310,1,8,0:0:0:0:
402,192,89482,1,0,0:0:0:0:
36,192,89655,1,8,0:0:0:0:
256,192,89655,1,8,0:0:0:0:
475,192,89655,1,0,0:0:0:0:
182,192,89827,1,0,0:0:0:0:
402,192,89827,1,0,0:0:0:0:
36,192,89827,1,0,0:0:0:0:
36,192,90000,1,6,0:0:0:0:
109,192,90000,1,6,0:0:0:0:
329,192,90000,1,2,0:0:0:0:
36,192,90172,1,8,0:0:0:0:
256,192,90172,1,8,0:0:0:0:
475,192,90172,1,0,0:0:0:0:
329,192,90344,1,0,0:0:0:0:
475,192,90344,1,0,0:0:0:0:
109,192,90344,1,0,0:0:0:0:
329,192,90517,1,8,0:0:0:0:
475,192,90517,1,8,0:0:0:0:
182,192,90517,1,0,0:0:0:0:
256,192,90689,1,2,0:0:0:0:
402,192,90689,1,6,0:0:0:0:
475,192,90689,1,6,0:0:0:0:
329,192,90862,1,0,0:0:0:0:
36,192,90862,1,0,0:0:0:0:
109,192,90948,1,0,0:0:0:0:
256,192,90948,1,0,0:0:0:0:
402,192,91034,128,0,92413:0:0:0:0:
182,192,91034,1,0,0:0:0:0:
256,192,91206,1,0,0:0:0:0:
36,192,91379,1,0,0:0:0:0:
182,192,91379,1,0,0:0:0:0:
475,192,91379,1,8,0:0:0:0:
182,192,91724,1,0,0:0:0:0:
329,192,91724,1,0,0:0:0:0:
256,192,91896,1,0,0:0:0:0:
36,192,92068,1,8,0:0:0:0:
182,192,92068,1,8,0:0:0:0:
475,192,92068,1,8,0:0:0:0:
256,192,92241,1,0,0:0:0:0:
182,192,92413,1,0,0:0:0:0:
329,192,92413,1,0,0:0:0:0:
256,192,92586,1,0,0:0:0:0:
36,192,92758,1,8,0:0:0:0:
329,192,92758,1,0,0:0:0:0:
475,192,92758,1,0,0:0:0:0:
182,192,93103,1,0,0:0:0:0:
329,192,93103,1,0,0:0:0:0:
256,192,93275,1,0,0:0:0:0:
36,192,93448,1,8,0:0:0:0:
329,192,93448,1,8,0:0:0:0:
475,192,93448,1,8,0:0:0:0:
256,192,93620,1,0,0:0:0:0:
36,192,93793,128,0,93965:0:0:0:0:
109,192,93793,1,0,0:0:0:0:
475,192,93793,1,0,0:0:0:0:
402,192,93793,1,0,0:0:0:0:
256,192,93965,128,0,94137:0:0:0:0:
182,192,93965,1,0,0:0:0:0:
329,192,93965,1,0,0:0:0:0:
475,192,94137,128,0,94310:0:0:0:0:
36,192,94137,1,0,0:0:0:0:
109,192,94137,1,8,0:0:0:0:
402,192,94137,1,0,0:0:0:0:
329,192,94310,128,0,94482:0:0:0:0:
256,192,94310,1,0,0:0:0:0:
182,192,94482,128,0,95172:0:0:0:0:
109,192,94482,1,0,0:0:0:0:
475,192,94482,1,0,0:0:0:0:
402,192,94655,1,0,0:0:0:0:
36,192,94827,1,8,0:0:0:0:
475,192,94827,1,8,0:0:0:0:
329,192,94827,1,8,0:0:0:0:
329,192,95172,1,0,0:0:0:0:
402,192,95172,1,0,0:0:0:0:
256,192,95344,1,0,0:0:0:0:
36,192,95517,1,8,0:0:0:0:
182,192,95517,1,0,0:0:0:0:
475,192,95517,1,0,0:0:0:0:
329,192,95689,1,0,0:0:0:0:
402,192,95862,1,0,0:0:0:0:
109,192,95862,1,0,0:0:0:0:
182,192,96034,1,0,0:0:0:0:
36,192,96206,1,8,0:0:0:0:
329,192,96206,1,8,0:0:0:0:
475,192,96206,1,8,0:0:0:0:
475,192,96551,128,0,97931:0:0:0:0:
36,192,96551,1,0,0:0:0:0:
182,192,96551,1,0,0:0:0:0:
256,192,96724,1,0,0:0:0:0:
36,192,96896,1,0,0:0:0:0:
402,192,96896,1,0,0:0:0:0:
109,192,96896,1,8,0:0:0:0:
329,192,97068,1,0,0:0:0:0:
256,192,97241,1,0,0:0:0:0:
109,192,97241,1,0,0:0:0:0:
329,192,97413,1,0,0:0:0:0:
36,192,97586,1,8,0:0:0:0:
109,192,97586,1,8,0:0:0:0:
402,192,97586,1,8,0:0:0:0:
402,192,97931,128,0,99310:0:0:0:0:
36,192,97931,1,0,0:0:0:0:
182,192,97931,1,0,0:0:0:0:
256,192,98103,1,0,0:0:0:0:
36,192,98275,1,0,0:0:0:0:
109,192,98275,1,8,0:0:0:0:
475,192,98275,1,0,0:0:0:0:
182,192,98448,1,0,0:0:0:0:
109,192,98620,1,0,0:0:0:0:
329,192,98620,1,0,0:0:0:0:
182,192,98793,1,0,0:0:0:0:
36,192,98965,1,8,0:0:0:0:
329,192,98965,1,8,0:0:0:0:
475,192,98965,1,8,0:0:0:0:
329,192,99310,128,0,101379:0:0:0:0:
36,192,99310,1,0,0:0:0:0:
109,192,99310,1,0,0:0:0:0:
182,192,99482,1,0,0:0:0:0:
256,192,99655,1,0,0:0:0:0:
36,192,99655,1,8,0:0:0:0:
475,192,99655,1,0,0:0:0:0:
402,192,99827,1,0,0:0:0:0:
256,192,100000,1,0,0:0:0:0:
109,192,100000,1,0,0:0:0:0:
182,192,100172,1,0,0:0:0:0:
36,192,100344,1,8,0:0:0:0:
109,192,100344,1,8,0:0:0:0:
475,192,100344,1,8,0:0:0:0:
36,192,100689,1,4,0:0:0:0:
475,192,100689,1,0,0:0:0:0:
109,192,100862,1,4,0:0:0:0:
402,192,100862,1,0,0:0:0:0:
36,192,101034,1,2,0:0:0:0:
475,192,101034,1,2,0:0:0:0:
256,192,101034,1,0,0:0:0:0:
109,192,101206,1,4,0:0:0:0:
402,192,101206,1,0,0:0:0:0:
182,192,101379,1,4,0:0:0:0:
475,192,101379,1,0,0:0:0:0:
109,192,101465,1,4,0:0:0:0:
182,192,101551,1,4,0:0:0:0:
475,192,101551,1,0,0:0:0:0:
109,192,101637,1,4,0:0:0:0:
402,192,101724,1,4,0:0:0:0:
36,192,101724,1,4,0:0:0:0:
475,192,101810,1,4,0:0:0:0:
402,192,101896,1,4,0:0:0:0:
36,192,101896,1,0,0:0:0:0:
475,192,101982,1,4,0:0:0:0:
109,192,102068,1,2,0:0:0:0:
182,192,102068,1,2,0:0:0:0:
256,192,102068,1,2,0:0:0:0:
36,192,102241,1,0,0:0:0:0:
109,192,102413,1,0,0:0:0:0:
182,192,102413,1,8,0:0:0:0:
256,192,102413,1,0,0:0:0:0:
475,192,102586,128,0,102758:0:0:0:0:
329,192,102586,1,0,0:0:0:0:
109,192,102758,128,0,102931:0:0:0:0:
36,192,102758,1,0,0:0:0:0:
402,192,102758,1,0,0:0:0:0:
329,192,102931,1,0,0:0:0:0:
182,192,103103,128,0,103275:0:0:0:0:
402,192,103103,1,8,0:0:0:0:
475,192,103103,1,8,0:0:0:0:
36,192,103103,1,8,0:0:0:0:
256,192,103275,128,0,103793:0:0:0:0:
109,192,103448,1,0,0:0:0:0:
402,192,103448,1,0,0:0:0:0:
182,192,103620,1,0,0:0:0:0:
36,192,103793,1,8,0:0:0:0:
329,192,103793,1,0,0:0:0:0:
475,192,103793,1,0,0:0:0:0:
182,192,103965,1,0,0:0:0:0:
36,192,104137,128,0,104310:0:0:0:0:
475,192,104137,1,0,0:0:0:0:
256,192,104137,1,0,0:0:0:0:
329,192,104310,1,0,0:0:0:0:
402,192,104310,1,0,0:0:0:0:
109,192,104482,128,0,104655:0:0:0:0:
256,192,104482,1,8,0:0:0:0:
475,192,104482,1,8,0:0:0:0:
182,192,104482,1,8,0:0:0:0:
182,192,104827,128,0,105000:0:0:0:0:
36,192,104827,1,0,0:0:0:0:
402,192,104827,1,0,0:0:0:0:
256,192,105000,1,0,0:0:0:0:
36,192,105172,1,0,0:0:0:0:
329,192,105172,1,8,0:0:0:0:
475,192,105172,1,0,0:0:0:0:
109,192,105344,128,0,105517:0:0:0:0:
182,192,105344,1,0,0:0:0:0:
402,192,105517,128,0,105689:0:0:0:0:
36,192,105517,1,0,0:0:0:0:
329,192,105517,1,0,0:0:0:0:
256,192,105689,128,0,105862:0:0:0:0:
475,192,105689,1,0,0:0:0:0:
36,192,105862,1,8,0:0:0:0:
182,192,105862,1,8,0:0:0:0:
329,192,105862,1,8,0:0:0:0:
109,192,105862,128,0,106034:0:0:0:0:
329,192,106034,128,0,106206:0:0:0:0:
256,192,106206,1,0,0:0:0:0:
475,192,106206,1,0,0:0:0:0:
329,192,106379,1,0,0:0:0:0:
402,192,106379,128,0,106551:0:0:0:0:
36,192,106551,1,0,0:0:0:0:
256,192,106551,1,8,0:0:0:0:
475,192,106551,1,0,0:0:0:0:
182,192,106724,1,0,0:0:0:0:
109,192,106896,1,0,0:0:0:0:
256,192,106896,1,0,0:0:0:0:
402,192,106896,128,0,107241:0:0:0:0:
182,192,107068,1,0,0:0:0:0:
36,192,107241,1,8,0:0:0:0:
256,192,107241,1,8,0:0:0:0:
475,192,107241,1,8,0:0:0:0:
182,192,107586,128,4,107931:0:0:0:0:
109,192,107586,1,4,0:0:0:0:
402,192,107586,1,4,0:0:0:0:
329,192,107758,1,0,0:0:0:0:
256,192,107931,1,8,0:0:0:0:
36,192,107931,1,8,0:0:0:0:
475,192,107931,1,8,0:0:0:0:
109,192,108103,1,4,0:0:0:0:
256,192,108103,1,4,0:0:0:0:
402,192,108103,1,4,0:0:0:0:
109,192,108448,1,4,0:0:0:0:
256,192,108448,1,4,0:0:0:0:
402,192,108448,1,4,0:0:0:0:
36,192,108620,1,8,0:0:0:0:
256,192,108620,1,8,0:0:0:0:
475,192,108620,1,8,0:0:0:0:
109,192,108793,1,4,0:0:0:0:
256,192,108793,1,4,0:0:0:0:
402,192,108793,1,4,0:0:0:0:
329,192,108965,1,4,0:0:0:0:
182,192,108965,128,4,109310:0:0:0:0:
36,192,109310,1,8,0:0:0:0:
256,192,109310,1,8,0:0:0:0:
475,192,109310,1,8,0:0:0:0:
109,192,109482,1,4,0:0:0:0:
256,192,109482,1,4,0:0:0:0:
402,192,109482,1,4,0:0:0:0:
109,192,109827,1,4,0:0:0:0:
256,192,109827,1,4,0:0:0:0:
402,192,109827,1,4,0:0:0:0:
36,192,110000,1,8,0:0:0:0:
256,192,110000,1,8,0:0:0:0:
475,192,110000,1,8,0:0:0:0:
109,192,110172,1,4,0:0:0:0:
256,192,110172,1,4,0:0:0:0:
402,192,110172,1,4,0:0:0:0:
182,192,110344,1,4,0:0:0:0:
329,192,110344,1,4,0:0:0:0:
36,192,110517,1,0,0:0:0:0:
182,192,110689,1,8,0:0:0:0:
475,192,110689,1,8,0:0:0:0:
402,192,110689,1,8,0:0:0:0:
329,192,110862,1,4,0:0:0:0:
109,192,110862,1,4,0:0:0:0:
182,192,111034,1,0,0:0:0:0:
402,192,111120,1,0,0:0:0:0:
109,192,111206,1,4,0:0:0:0:
36,192,111206,1,4,0:0:0:0:
256,192,111293,1,0,0:0:0:0:
329,192,111379,1,8,0:0:0:0:
402,192,111379,1,8,0:0:0:0:
475,192,111465,1,0,0:0:0:0:
109,192,111551,1,4,0:0:0:0:
182,192,111551,1,4,0:0:0:0:
36,192,111637,1,0,0:0:0:0:
402,192,111724,1,4,0:0:0:0:
475,192,111724,1,4,0:0:0:0:
256,192,111810,1,0,0:0:0:0:
109,192,111896,1,0,0:0:0:0:
256,192,111982,1,0,0:0:0:0:
36,192,112068,1,8,0:0:0:0:
475,192,112068,1,8,0:0:0:0:
36,192,112241,1,4,0:0:0:0:
475,192,112241,1,4,0:0:0:0:
109,192,112327,1,4,0:0:0:0:
402,192,112327,1,4,0:0:0:0:
182,192,112413,1,4,0:0:0:0:
329,192,112413,1,4,0:0:0:0:
109,192,112586,1,4,0:0:0:0:
402,192,112586,1,4,0:0:0:0:
109,192,112758,1,4,0:0:0:0:
256,192,112758,1,0,0:0:0:0:
402,192,112758,1,4,0:0:0:0:
36,192,113103,128,2,113275:0:0:0:0:
182,192,113103,1,2,0:0:0:0:
475,192,113103,1,2,0:0:0:0:
109,192,113448,1,8,0:0:0:0:
475,192,113448,1,8,0:0:0:0:
402,192,113448,1,8,0:0:0:0:
36,192,113620,128,0,113793:0:0:0:0:
182,192,113620,1,0,0:0:0:0:
329,192,113620,1,0,0:0:0:0:
109,192,113793,128,0,113965:0:0:0:0:
402,192,113793,1,0,0:0:0:0:
256,192,113965,1,8,0:0:0:0:
475,192,113965,1,8,0:0:0:0:
36,192,114137,1,2,0:0:0:0:
329,192,114137,1,2,0:0:0:0:
402,192,114137,1,2,0:0:0:0:
182,192,114310,128,0,114482:0:0:0:0:
256,192,114482,128,0,114655:0:0:0:0:
36,192,114482,1,0,0:0:0:0:
329,192,114482,1,0,0:0:0:0:
109,192,114655,1,0,0:0:0:0:
36,192,114827,1,8,0:0:0:0:
182,192,114827,1,8,0:0:0:0:
475,192,114827,1,8,0:0:0:0:
329,192,115000,128,0,115172:0:0:0:0:
256,192,115000,1,0,0:0:0:0:
402,192,115172,128,0,115344:0:0:0:0:
36,192,115172,1,0,0:0:0:0:
182,192,115172,1,0,0:0:0:0:
256,192,115344,1,8,0:0:0:0:
36,192,115517,1,2,0:0:0:0:
182,192,115517,1,2,0:0:0:0:
109,192,115517,1,2,0:0:0:0:
475,192,115689,128,0,115862:0:0:0:0:
402,192,115862,128,0,116034:0:0:0:0:
36,192,115862,1,0,0:0:0:0:
256,192,115862,1,0,0:0:0:0:
182,192,116034,1,0,0:0:0:0:
36,192,116206,1,8,0:0:0:0:
256,192,116206,1,8,0:0:0:0:
475,192,116206,1,8,0:0:0:0:
329,192,116379,128,0,116551:0:0:0:0:
109,192,116379,1,0,0:0:0:0:
256,192,116551,128,0,116724:0:0:0:0:
402,192,116551,1,0,0:0:0:0:
475,192,116551,1,0,0:0:0:0:
109,192,116724,1,8,0:0:0:0:
36,192,116896,1,2,0:0:0:0:
402,192,116896,1,2,0:0:0:0:
475,192,116896,1,2,0:0:0:0:
182,192,117068,128,0,117241:0:0:0:0:
109,192,117241,128,0,117413:0:0:0:0:
329,192,117241,1,0,0:0:0:0:
402,192,117241,1,0,0:0:0:0:
475,192,117413,1,0,0:0:0:0:
329,192,117586,1,8,0:0:0:0:
402,192,117586,1,8,0:0:0:0:
182,192,117586,1,8,0:0:0:0:
36,192,117758,128,0,117931:0:0:0:0:
256,192,117758,1,0,0:0:0:0:
109,192,117931,128,0,118103:0:0:0:0:
182,192,117931,1,0,0:0:0:0:
329,192,117931,1,0,0:0:0:0:
256,192,118103,1,8,0:0:0:0:
182,192,118275,1,2,0:0:0:0:
329,192,118275,1,2,0:0:0:0:
402,192,118275,1,2,0:0:0:0:
36,192,118448,128,0,118620:0:0:0:0:
475,192,118448,128,0,118620:0:0:0:0:
109,192,118620,1,0,0:0:0:0:
402,192,118620,1,0,0:0:0:0:
36,192,118965,1,8,0:0:0:0:
182,192,118965,1,8,0:0:0:0:
256,192,118965,1,8,0:0:0:0:
109,192,119137,128,0,119310:0:0:0:0:
402,192,119137,1,0,0:0:0:0:
256,192,119310,128,0,119655:0:0:0:0:
329,192,119310,1,0,0:0:0:0:
475,192,119310,1,0,0:0:0:0:
402,192,119482,1,4,0:0:0:0:
329,192,119655,128,0,120000:0:0:0:0:
36,192,119655,1,2,0:0:0:0:
475,192,119655,1,2,0:0:0:0:
109,192,119655,1,2,0:0:0:0:
182,192,120000,1,0,0:0:0:0:
256,192,120000,1,0,0:0:0:0:
402,192,120172,1,0,0:0:0:0:
36,192,120344,1,0,0:0:0:0:
182,192,120344,1,0,0:0:0:0:
475,192,120344,1,0,0:0:0:0:
475,192,120517,128,0,120689:0:0:0:0:
109,192,120517,1,0,0:0:0:0:
256,192,120689,128,0,121034:0:0:0:0:
36,192,120689,1,0,0:0:0:0:
329,192,120689,1,0,0:0:0:0:
109,192,120862,1,8,0:0:0:0:
402,192,120862,1,8,0:0:0:0:
182,192,121034,128,0,121379:0:0:0:0:
329,192,121034,1,2,0:0:0:0:
475,192,121034,1,2,0:0:0:0:
36,192,121034,1,2,0:0:0:0:
329,192,121379,128,0,121551:0:0:0:0:
36,192,121379,1,0,0:0:0:0:
109,192,121379,1,0,0:0:0:0:
256,192,121551,1,0,0:0:0:0:
109,192,121724,1,8,0:0:0:0:
36,192,121724,1,8,0:0:0:0:
475,192,121896,128,0,122068:0:0:0:0:
182,192,121896,1,0,0:0:0:0:
402,192,122068,128,0,122241:0:0:0:0:
109,192,122068,1,0,0:0:0:0:
256,192,122068,1,0,0:0:0:0:
329,192,122241,128,8,122413:0:0:0:0:
182,192,122241,1,8,0:0:0:0:
402,192,122413,128,2,122586:0:0:0:0:
36,192,122413,1,2,0:0:0:0:
256,192,122413,1,2,0:0:0:0:
475,192,122586,128,0,123103:0:0:0:0:
36,192,122586,1,4,0:0:0:0:
256,192,122586,1,4,0:0:0:0:
109,192,122672,1,4,0:0:0:0:
329,192,122672,1,4,0:0:0:0:
182,192,122758,1,4,0:0:0:0:
256,192,122758,1,4,0:0:0:0:
182,192,122931,1,4,0:0:0:0:
256,192,122931,1,4,0:0:0:0:
109,192,123103,1,2,0:0:0:0:
329,192,123103,1,2,0:0:0:0:
36,192,123275,128,0,123448:0:0:0:0:
182,192,123275,1,4,0:0:0:0:
256,192,123275,1,4,0:0:0:0:
109,192,123448,128,0,123620:0:0:0:0:
182,192,123620,128,4,123793:0:0:0:0:
329,192,123620,1,4,0:0:0:0:
402,192,123620,1,4,0:0:0:0:
109,192,123793,128,2,124137:0:0:0:0:
256,192,123793,1,2,0:0:0:0:
475,192,123793,1,2,0:0:0:0:
36,192,124137,1,6,0:0:0:0:
256,192,124137,1,6,0:0:0:0:
475,192,124137,1,6,0:0:0:0:
256,192,124482,128,8,125862:0:0:0:0:
36,192,124482,128,8,124655:0:0:0:0:
475,192,124482,128,8,124655:0:0:0:0:
109,192,124655,1,0,0:0:0:0:
402,192,124655,1,0,0:0:0:0:
36,192,124827,128,0,125000:0:0:0:0:
475,192,124827,128,0,125000:0:0:0:0:
109,192,125000,1,8,0:0:0:0:
402,192,125000,1,8,0:0:0:0:
182,192,125172,128,2,125862:0:0:0:0:
329,192,125172,128,2,125862:0:0:0:0:
109,192,125517,1,0,0:0:0:0:
402,192,125517,1,0,0:0:0:0:
36,192,125862,1,8,0:0:0:0:
475,192,125862,1,8,0:0:0:0:
36,192,126206,128,0,126724:0:0:0:0:
256,192,126206,1,0,0:0:0:0:
109,192,126379,128,0,126724:0:0:0:0:
329,192,126379,1,8,0:0:0:0:
402,192,126379,1,8,0:0:0:0:
182,192,126551,128,0,126724:0:0:0:0:
256,192,126551,1,2,0:0:0:0:
475,192,126551,1,2,0:0:0:0:
402,192,126896,128,0,127586:0:0:0:0:
109,192,126896,1,0,0:0:0:0:
36,192,127241,1,8,0:0:0:0:
256,192,127241,1,8,0:0:0:0:
475,192,127241,1,8,0:0:0:0:
182,192,127413,1,0,0:0:0:0:
109,192,127586,1,0,0:0:0:0:
256,192,127586,1,0,0:0:0:0:
329,192,127758,1,8,0:0:0:0:
256,192,127931,1,2,0:0:0:0:
402,192,127931,1,2,0:0:0:0:
475,192,127931,1,2,0:0:0:0:
109,192,128275,128,0,128965:0:0:0:0:
402,192,128275,1,0,0:0:0:0:
329,192,128275,1,0,0:0:0:0:
36,192,128620,1,8,0:0:0:0:
256,192,128620,1,8,0:0:0:0:
475,192,128620,1,8,0:0:0:0:
329,192,128793,1,0,0:0:0:0:
256,192,128965,1,0,0:0:0:0:
402,192,128965,1,0,0:0:0:0:
182,192,129137,1,8,0:0:0:0:
36,192,129310,1,2,0:0:0:0:
109,192,129310,1,2,0:0:0:0:
256,192,129310,1,2,0:0:0:0:
36,192,129655,1,0,0:0:0:0:
182,192,129655,1,0,0:0:0:0:
329,192,129655,1,0,0:0:0:0:
475,192,129655,1,0,0:0:0:0:
256,192,130000,128,8,131379:0:0:0:0:
36,192,130000,128,8,130172:0:0:0:0:
475,192,130000,128,8,130172:0:0:0:0:
109,192,130172,128,0,130344:0:0:0:0:
402,192,130172,128,0,130344:0:0:0:0:
36,192,130344,128,0,130517:0:0:0:0:
475,192,130344,128,0,130517:0:0:0:0:
109,192,130517,128,8,130689:0:0:0:0:
402,192,130517,128,8,130689:0:0:0:0:
182,192,130689,128,2,131379:0:0:0:0:
329,192,130689,128,2,131379:0:0:0:0:
109,192,131034,1,0,0:0:0:0:
402,192,131034,1,0,0:0:0:0:
36,192,131379,1,8,0:0:0:0:
475,192,131379,1,8,0:0:0:0:
475,192,131724,128,0,132241:0:0:0:0:
256,192,131724,1,0,0:0:0:0:
402,192,131896,128,0,132241:0:0:0:0:
109,192,131896,1,8,0:0:0:0:
182,192,131896,1,8,0:0:0:0:
329,192,132068,128,2,132241:0:0:0:0:
36,192,132068,1,2,0:0:0:0:
256,192,132068,1,2,0:0:0:0:
182,192,132413,1,4,0:0:0:0:
256,192,132413,1,4,0:0:0:0:
475,192,132413,1,4,0:0:0:0:
329,192,132500,1,4,0:0:0:0:
36,192,132586,1,0,0:0:0:0:
109,192,132586,1,4,0:0:0:0:
182,192,132672,1,4,0:0:0:0:
256,192,132758,1,8,0:0:0:0:
329,192,132758,1,8,0:0:0:0:
475,192,132758,1,8,0:0:0:0:
402,192,132844,1,4,0:0:0:0:
109,192,132931,1,4,0:0:0:0:
36,192,132931,1,0,0:0:0:0:
182,192,133017,1,4,0:0:0:0:
329,192,133103,1,4,0:0:0:0:
475,192,133103,1,0,0:0:0:0:
402,192,133189,1,4,0:0:0:0:
109,192,133275,1,4,0:0:0:0:
256,192,133275,1,4,0:0:0:0:
36,192,133275,1,4,0:0:0:0:
182,192,133362,1,4,0:0:0:0:
329,192,133448,1,8,0:0:0:0:
475,192,133448,1,8,0:0:0:0:
402,192,133448,1,8,0:0:0:0:
256,192,133534,1,4,0:0:0:0:
402,192,133620,1,4,0:0:0:0:
109,192,133620,1,0,0:0:0:0:
36,192,133706,1,0,0:0:0:0:
329,192,133706,1,4,0:0:0:0:
109,192,133793,1,0,0:0:0:0:
256,192,133793,1,4,0:0:0:0:
36,192,133879,1,0,0:0:0:0:
329,192,133879,1,4,0:0:0:0:
109,192,133965,1,0,0:0:0:0:
402,192,133965,1,4,0:0:0:0:
109,192,134137,128,4,134310:0:0:0:0:
182,192,134137,1,4,0:0:0:0:
402,192,134310,128,4,134482:0:0:0:0:
329,192,134310,1,4,0:0:0:0:
109,192,134482,128,4,134655:0:0:0:0:
36,192,134482,1,4,0:0:0:0:
402,192,134655,128,4,134827:0:0:0:0:
475,192,134655,1,4,0:0:0:0:
109,192,134827,1,2,0:0:0:0:
36,192,135172,128,0,137931:0:0:0:0:
182,192,135172,128,0,137931:0:0:0:0:
329,192,135172,1,0,0:0:0:0:
329,192,135517,1,0,0:0:0:0:
329,192,135862,1,0,0:0:0:0:
329,192,136034,1,0,0:0:0:0:
329,192,136379,1,0,0:0:0:0:
329,192,136724,1,0,0:0:0:0:
256,192,136896,1,0,0:0:0:0:
475,192,136896,1,0,0:0:0:0:
329,192,137068,1,0,0:0:0:0:
475,192,137241,1,0,0:0:0:0:
109,192,137241,1,0,0:0:0:0:
256,192,137413,1,0,0:0:0:0:
475,192,137413,1,0,0:0:0:0:
329,192,137586,1,0,0:0:0:0:
475,192,137586,1,0,0:0:0:0:
475,192,137758,1,0,0:0:0:0:
256,192,137758,1,0,0:0:0:0:
109,192,137931,1,0,0:0:0:0:
475,192,137931,1,0,0:0:0:0:
36,192,138275,1,0,0:0:0:0:
256,192,138275,1,0,0:0:0:0:
182,192,138448,1,0,0:0:0:0:
36,192,138620,1,0,0:0:0:0:
256,192,138620,1,0,0:0:0:0:
36,192,138793,1,0,0:0:0:0:
256,192,138793,1,0,0:0:0:0:
182,192,138965,1,0,0:0:0:0:
36,192,139137,1,0,0:0:0:0:
256,192,139137,1,0,0:0:0:0:
256,192,139482,1,0,0:0:0:0:
475,192,139482,1,0,0:0:0:0:
475,192,139655,1,0,0:0:0:0:
256,192,139655,1,0,0:0:0:0:
402,192,139827,1,0,0:0:0:0:
109,192,140000,1,0,0:0:0:0:
475,192,140000,1,0,0:0:0:0:
182,192,140172,1,0,0:0:0:0:
256,192,140344,1,0,0:0:0:0:
36,192,140344,1,0,0:0:0:0:
329,192,140517,1,0,0:0:0:0:
36,192,140689,1,0,0:0:0:0:
475,192,140689,1,0,0:0:0:0:
182,192,141034,1,0,0:0:0:0:
182,192,141379,1,0,0:0:0:0:
182,192,141551,1,0,0:0:0:0:
182,192,141896,1,0,0:0:0:0:
36,192,142241,1,0,0:0:0:0:
329,192,142241,1,0,0:0:0:0:
182,192,142413,1,0,0:0:0:0:
329,192,142586,1,0,0:0:0:0:
182,192,142758,1,0,0:0:0:0:
475,192,142758,1,0,0:0:0:0:
109,192,142931,1,0,0:0:0:0:
402,192,142931,1,0,0:0:0:0:
36,192,143103,1,0,0:0:0:0:
329,192,143103,1,0,0:0:0:0:
36,192,143275,1,0,0:0:0:0:
256,192,143275,1,0,0:0:0:0:
36,192,143448,1,0,0:0:0:0:
182,192,143448,1,0,0:0:0:0:
36,192,143793,1,0,0:0:0:0:
182,192,143793,1,0,0:0:0:0:
109,192,143965,1,0,0:0:0:0:
36,192,144137,1,0,0:0:0:0:
182,192,144137,1,0,0:0:0:0:
36,192,144310,1,0,0:0:0:0:
182,192,144310,1,0,0:0:0:0:
109,192,144482,1,0,0:0:0:0:
182,192,144655,1,0,0:0:0:0:
402,192,144655,1,0,0:0:0:0:
475,192,144655,1,0,0:0:0:0:
36,192,145000,1,0,0:0:0:0:
329,192,145000,1,0,0:0:0:0:
475,192,145000,1,0,0:0:0:0:
256,192,145172,1,0,0:0:0:0:
402,192,145172,1,0,0:0:0:0:
182,192,145344,1,0,0:0:0:0:
109,192,145517,1,0,0:0:0:0:
256,192,145517,1,0,0:0:0:0:
256,192,145689,1,0,0:0:0:0:
402,192,145689,1,0,0:0:0:0:
109,192,145862,1,0,0:0:0:0:
256,192,145862,1,0,0:0:0:0:
256,192,146034,1,0,0:0:0:0:
402,192,146034,1,0,0:0:0:0:
182,192,146206,1,0,0:0:0:0:
329,192,146206,1,0,0:0:0:0:
475,192,146206,1,0,0:0:0:0:
36,192,146206,128,0,146896:0:0:0:0:
256,192,146379,1,0,0:0:0:0:
329,192,146551,1,0,0:0:0:0:
475,192,146551,1,0,0:0:0:0:
402,192,146724,1,0,0:0:0:0:
329,192,146896,1,0,0:0:0:0:
475,192,146896,1,0,0:0:0:0:
329,192,147068,1,0,0:0:0:0:
475,192,147068,1,0,0:0:0:0:
402,192,147241,1,0,0:0:0:0:
256,192,147413,1,0,0:0:0:0:
475,192,147413,1,0,0:0:0:0:
329,192,147586,1,0,0:0:0:0:
256,192,147758,1,0,0:0:0:0:
475,192,147758,1,0,0:0:0:0:
256,192,147931,1,0,0:0:0:0:
475,192,147931,1,0,0:0:0:0:
182,192,148103,1,0,0:0:0:0:
109,192,148275,1,0,0:0:0:0:
329,192,148275,1,0,0:0:0:0:
36,192,148448,1,0,0:0:0:0:
256,192,148448,1,0,0:0:0:0:
109,192,148620,1,0,0:0:0:0:
402,192,148620,1,0,0:0:0:0:
182,192,148793,1,0,0:0:0:0:
329,192,148793,1,0,0:0:0:0:
109,192,148965,1,0,0:0:0:0:
256,192,148965,1,0,0:0:0:0:
402,192,148965,1,0,0:0:0:0:
109,192,149310,1,0,0:0:0:0:
402,192,149310,1,0,0:0:0:0:
256,192,149482,1,0,0:0:0:0:
475,192,149482,1,0,0:0:0:0:
182,192,149655,1,0,0:0:0:0:
329,192,149655,1,0,0:0:0:0:
109,192,149827,1,0,0:0:0:0:
402,192,149827,1,0,0:0:0:0:
256,192,150000,1,0,0:0:0:0:
109,192,150172,1,0,0:0:0:0:
402,192,150172,1,0,0:0:0:0:
182,192,150344,1,0,0:0:0:0:
329,192,150517,1,0,0:0:0:0:
475,192,150517,1,0,0:0:0:0:
36,192,150689,1,0,0:0:0:0:
182,192,150689,1,0,0:0:0:0:
256,192,150862,1,0,0:0:0:0:
402,192,151034,1,0,0:0:0:0:
475,192,151034,1,0,0:0:0:0:
256,192,151206,1,0,0:0:0:0:
329,192,151206,1,0,0:0:0:0:
36,192,151379,1,0,0:0:0:0:
109,192,151379,1,0,0:0:0:0:
182,192,151551,1,0,0:0:0:0:
256,192,151551,1,0,0:0:0:0:
109,192,151724,1,0,0:0:0:0:
402,192,151724,1,0,0:0:0:0:
329,192,151724,128,0,152413:0:0:0:0:
182,192,152068,1,0,0:0:0:0:
475,192,152068,1,0,0:0:0:0:
182,192,152413,1,0,0:0:0:0:
475,192,152413,1,0,0:0:0:0:
182,192,152586,1,0,0:0:0:0:
475,192,152586,1,0,0:0:0:0:
329,192,152758,1,0,0:0:0:0:
182,192,152931,1,0,0:0:0:0:
475,192,152931,1,0,0:0:0:0:
329,192,153103,1,0,0:0:0:0:
182,192,153275,1,0,0:0:0:0:
475,192,153275,1,0,0:0:0:0:
475,192,153448,1,0,0:0:0:0:
182,192,153448,1,0,0:0:0:0:
256,192,153620,1,0,0:0:0:0:
182,192,153793,1,0,0:0:0:0:
109,192,153793,1,0,0:0:0:0:
109,192,153965,1,0,0:0:0:0:
182,192,153965,1,0,0:0:0:0:
182,192,154137,1,0,0:0:0:0:
109,192,154137,1,0,0:0:0:0:
109,192,154310,1,0,0:0:0:0:
182,192,154310,1,0,0:0:0:0:
36,192,154482,1,0,0:0:0:0:
256,192,154482,1,0,0:0:0:0:
475,192,154482,1,0,0:0:0:0:
182,192,154827,1,0,0:0:0:0:
402,192,154827,1,0,0:0:0:0:
256,192,155000,1,0,0:0:0:0:
329,192,155000,1,0,0:0:0:0:
182,192,155172,1,0,0:0:0:0:
402,192,155172,1,0,0:0:0:0:
182,192,155344,1,0,0:0:0:0:
402,192,155344,1,0,0:0:0:0:
329,192,155517,1,0,0:0:0:0:
256,192,155689,1,0,0:0:0:0:
109,192,155862,1,0,0:0:0:0:
182,192,155862,1,0,0:0:0:0:
256,192,156034,1,0,0:0:0:0:
475,192,156034,1,0,0:0:0:0:
36,192,156034,128,0,156379:0:0:0:0:
329,192,156206,1,0,0:0:0:0:
475,192,156206,1,0,0:0:0:0:
182,192,156379,1,0,0:0:0:0:
475,192,156379,1,0,0:0:0:0:
402,192,156551,128,0,156810:0:0:0:0:
329,192,156810,128,0,157068:0:0:0:0:
109,192,157068,128,0,157931:0:0:0:0:
256,192,157241,1,2,0:0:0:0:
475,192,157241,1,2,0:0:0:0:
256,192,157586,1,0,0:0:0:0:
475,192,157586,1,0,0:0:0:0:
256,192,157931,1,0,0:0:0:0:
475,192,157931,1,0,0:0:0:0:
256,192,158103,1,0,0:0:0:0:
36,192,158103,1,0,0:0:0:0:
182,192,158275,1,0,0:0:0:0:
36,192,158448,1,0,0:0:0:0:
256,192,158448,1,0,0:0:0:0:
402,192,158620,1,0,0:0:0:0:
256,192,158793,1,0,0:0:0:0:
475,192,158793,1,0,0:0:0:0:
256,192,158965,1,0,0:0:0:0:
475,192,158965,1,0,0:0:0:0:
109,192,159137,1,0,0:0:0:0:
36,192,159310,1,0,0:0:0:0:
182,192,159310,1,0,0:0:0:0:
109,192,159482,1,0,0:0:0:0:
256,192,159482,1,0,0:0:0:0:
182,192,159655,1,0,0:0:0:0:
475,192,159655,1,0,0:0:0:0:
256,192,159827,1,0,0:0:0:0:
402,192,159827,1,0,0:0:0:0:
475,192,160000,128,0,160172:0:0:0:0:
109,192,160000,1,0,0:0:0:0:
36,192,160000,1,0,0:0:0:0:
402,192,160172,128,0,160344:0:0:0:0:
329,192,160344,128,0,160517:0:0:0:0:
109,192,160344,1,0,0:0:0:0:
402,192,160517,128,0,160689:0:0:0:0:
182,192,160517,1,0,0:0:0:0:
475,192,160689,128,0,162068:0:0:0:0:
109,192,160689,1,0,0:0:0:0:
36,192,160689,1,0,0:0:0:0:
109,192,160862,1,0,0:0:0:0:
36,192,160862,1,0,0:0:0:0:
182,192,161034,1,0,0:0:0:0:
36,192,161206,1,0,0:0:0:0:
109,192,161206,1,0,0:0:0:0:
256,192,161379,1,0,0:0:0:0:
329,192,161551,1,0,0:0:0:0:
402,192,161551,1,0,0:0:0:0:
329,192,161724,1,0,0:0:0:0:
402,192,161724,1,0,0:0:0:0:
182,192,161896,1,0,0:0:0:0:
109,192,162068,1,0,0:0:0:0:
256,192,162068,1,0,0:0:0:0:
182,192,162241,1,0,0:0:0:0:
36,192,162413,1,0,0:0:0:0:
329,192,162413,1,0,0:0:0:0:
182,192,162586,1,0,0:0:0:0:
475,192,162758,128,0,164137:0:0:0:0:
109,192,162758,1,0,0:0:0:0:
402,192,162758,1,0,0:0:0:0:
109,192,163103,1,0,0:0:0:0:
329,192,163103,1,0,0:0:0:0:
109,192,163448,1,0,0:0:0:0:
329,192,163448,1,0,0:0:0:0:
109,192,163620,1,0,0:0:0:0:
329,192,163620,1,0,0:0:0:0:
182,192,163793,1,0,0:0:0:0:
109,192,163965,1,0,0:0:0:0:
329,192,163965,1,0,0:0:0:0:
402,192,164137,128,0,165172:0:0:0:0:
109,192,164310,1,0,0:0:0:0:
256,192,164310,1,0,0:0:0:0:
109,192,164482,1,0,0:0:0:0:
256,192,164482,1,0,0:0:0:0:
182,192,164655,1,0,0:0:0:0:
36,192,164827,1,0,0:0:0:0:
475,192,164827,1,0,0:0:0:0:
109,192,165000,1,0,0:0:0:0:
182,192,165000,1,0,0:0:0:0:
256,192,165172,128,0,165344:0:0:0:0:
36,192,165172,1,0,0:0:0:0:
109,192,165344,128,0,166896:0:0:0:0:
36,192,165517,1,0,0:0:0:0:
256,192,165517,1,0,0:0:0:0:
475,192,165517,1,0,0:0:0:0:
36,192,165862,1,0,0:0:0:0:
475,192,165862,1,0,0:0:0:0:
329,192,166034,1,0,0:0:0:0:
256,192,166034,1,0,0:0:0:0:
182,192,166206,1,0,0:0:0:0:
402,192,166206,1,0,0:0:0:0:
36,192,166379,1,0,0:0:0:0:
475,192,166379,1,0,0:0:0:0:
256,192,166551,1,0,0:0:0:0:
36,192,166724,1,0,0:0:0:0:
475,192,166724,1,0,0:0:0:0:
256,192,166896,1,0,0:0:0:0:
182,192,167068,1,0,0:0:0:0:
402,192,167068,1,0,0:0:0:0:
475,192,167241,1,0,0:0:0:0:
256,192,167241,1,0,0:0:0:0:
329,192,167413,1,0,0:0:0:0:
36,192,167586,128,0,168275:0:0:0:0:
182,192,167586,1,0,0:0:0:0:
402,192,167586,1,0,0:0:0:0:
329,192,167758,1,0,0:0:0:0:
256,192,167931,1,0,0:0:0:0:
475,192,167931,1,0,0:0:0:0:
402,192,168103,1,0,0:0:0:0:
256,192,168275,128,0,170689:0:0:0:0:
329,192,168275,1,0,0:0:0:0:
475,192,168275,1,0,0:0:0:0:
36,192,168620,1,0,0:0:0:0:
182,192,168620,1,0,0:0:0:0:
402,192,168793,1,0,0:0:0:0:
36,192,168965,1,0,0:0:0:0:
182,192,168965,1,0,0:0:0:0:
36,192,169137,1,0,0:0:0:0:
182,192,169137,1,0,0:0:0:0:
402,192,169310,1,0,0:0:0:0:
36,192,169482,1,0,0:0:0:0:
182,192,169482,1,0,0:0:0:0:
329,192,169655,128,0,170689:0:0:0:0:
402,192,169827,1,0,0:0:0:0:
475,192,169827,1,0,0:0:0:0:
402,192,170000,1,0,0:0:0:0:
475,192,170000,1,0,0:0:0:0:
109,192,170172,1,0,0:0:0:0:
36,192,170344,1,0,0:0:0:0:
182,192,170344,1,0,0:0:0:0:
475,192,170517,1,0,0:0:0:0:
109,192,170689,1,0,0:0:0:0:
475,192,170689,1,0,0:0:0:0:
109,192,171034,128,0,171724:0:0:0:0:
402,192,171034,128,0,171724:0:0:0:0:
36,192,171034,1,0,0:0:0:0:
475,192,171034,1,0,0:0:0:0:
36,192,171379,1,0,0:0:0:0:
475,192,171379,1,0,0:0:0:0:
256,192,171551,1,0,0:0:0:0:
36,192,171724,1,0,0:0:0:0:
329,192,171724,1,0,0:0:0:0:
256,192,171896,1,0,0:0:0:0:
182,192,172068,1,0,0:0:0:0:
475,192,172068,1,0,0:0:0:0:
256,192,172241,1,0,0:0:0:0:
36,192,172413,1,0,0:0:0:0:
329,192,172413,1,0,0:0:0:0:
256,192,172586,1,0,0:0:0:0:
182,192,172758,1,0,0:0:0:0:
475,192,172758,1,0,0:0:0:0:
256,192,172931,1,0,0:0:0:0:
109,192,173103,128,0,173448:0:0:0:0:
182,192,173448,128,0,173793:0:0:0:0:
256,192,173793,1,0,0:0:0:0:
182,192,173965,1,0,0:0:0:0:
329,192,173965,1,0,0:0:0:0:
109,192,174051,1,0,0:0:0:0:
475,192,174137,1,0,0:0:0:0:
182,192,174137,1,0,0:0:0:0:
329,192,174310,1,0,0:0:0:0:
182,192,174310,1,0,0:0:0:0:
402,192,174396,1,0,0:0:0:0:
36,192,174482,1,0,0:0:0:0:
329,192,174482,1,0,0:0:0:0:
182,192,174655,1,0,0:0:0:0:
329,192,174655,1,0,0:0:0:0:
109,192,174741,1,0,0:0:0:0:
182,192,174827,1,0,0:0:0:0:
475,192,174827,1,0,0:0:0:0:
256,192,175000,1,0,0:0:0:0:
36,192,175000,1,0,0:0:0:0:
182,192,175086,1,0,0:0:0:0:
109,192,175172,1,0,0:0:0:0:
402,192,175172,1,0,0:0:0:0:
256,192,175344,1,0,0:0:0:0:
475,192,175344,1,0,0:0:0:0:
329,192,175431,1,0,0:0:0:0:
402,192,175517,1,0,0:0:0:0:
109,192,175517,1,0,0:0:0:0:
475,192,175689,1,0,0:0:0:0:
36,192,175689,1,0,0:0:0:0:
402,192,175775,1,0,0:0:0:0:
329,192,175862,1,0,0:0:0:0:
182,192,175862,1,0,0:0:0:0:
256,192,175862,128,0,176206:0:0:0:0:
36,192,176034,1,0,0:0:0:0:
475,192,176034,1,0,0:0:0:0:
109,192,176120,1,0,0:0:0:0:
182,192,176206,1,0,0:0:0:0:
329,192,176206,1,0,0:0:0:0:
36,192,176551,1,0,0:0:0:0:
256,192,176551,1,0,0:0:0:0:
475,192,176551,1,0,0:0:0:0:
475,192,176724,1,0,0:0:0:0:
256,192,176724,1,0,0:0:0:0:
36,192,176724,1,0,0:0:0:0:
36,192,176896,1,0,0:0:0:0:
256,192,176896,1,0,0:0:0:0:
475,192,176896,1,0,0:0:0:0:
475,192,177068,1,0,0:0:0:0:
256,192,177068,1,0,0:0:0:0:
36,192,177068,1,0,0:0:0:0:
109,192,177241,1,0,0:0:0:0:
256,192,177241,1,0,0:0:0:0:
402,192,177241,1,0,0:0:0:0:
402,192,177413,1,0,0:0:0:0:
182,192,177413,1,0,0:0:0:0:
109,192,177413,1,0,0:0:0:0:
109,192,177586,1,0,0:0:0:0:
329,192,177586,1,0,0:0:0:0:
402,192,177586,1,0,0:0:0:0:
475,192,177758,1,0,0:0:0:0:
256,192,177758,1,0,0:0:0:0:
36,192,177758,1,0,0:0:0:0:
109,192,177931,1,4,0:0:0:0:
329,192,177931,1,0,0:0:0:0:
182,192,178017,1,4,0:0:0:0:
329,192,178103,1,4,0:0:0:0:
475,192,178103,1,0,0:0:0:0:
36,192,178189,1,4,0:0:0:0:
402,192,178275,1,8,0:0:0:0:
109,192,178275,1,8,0:0:0:0:
329,192,178362,1,4,0:0:0:0:
475,192,178448,1,0,0:0:0:0:
182,192,178448,1,4,0:0:0:0:
256,192,178534,1,4,0:0:0:0:
36,192,178620,1,8,0:0:0:0:
109,192,178620,1,8,0:0:0:0:
256,192,178706,1,8,0:0:0:0:
109,192,178793,1,8,0:0:0:0:
36,192,178793,1,8,0:0:0:0:
256,192,178879,1,8,0:0:0:0:
402,192,178965,1,2,0:0:0:0:
475,192,178965,1,2,0:0:0:0:
256,192,179051,1,2,0:0:0:0:
402,192,179137,1,2,0:0:0:0:
475,192,179137,1,2,0:0:0:0:
36,192,179310,1,2,0:0:0:0:
182,192,179310,1,2,0:0:0:0:
329,192,179310,1,2,0:0:0:0:
475,192,179310,1,2,0:0:0:0:
256,192,179655,1,8,0:0:0:0:
475,192,179655,1,0,0:0:0:0:
36,192,179827,128,0,180000:0:0:0:0:
182,192,179827,128,0,180000:0:0:0:0:
402,192,179827,1,0,0:0:0:0:
329,192,179827,1,0,0:0:0:0:
109,192,180000,128,0,180172:0:0:0:0:
475,192,180000,1,0,0:0:0:0:
329,192,180172,1,8,0:0:0:0:
402,192,180172,1,8,0:0:0:0:
36,192,180344,1,2,0:0:0:0:
475,192,180344,1,2,0:0:0:0:
182,192,180344,1,2,0:0:0:0:
109,192,180517,128,0,180689:0:0:0:0:
256,192,180517,128,0,180689:0:0:0:0:
182,192,180689,128,0,180862:0:0:0:0:
402,192,180689,1,0,0:0:0:0:
36,192,181034,1,8,0:0:0:0:
402,192,181034,1,8,0:0:0:0:
475,192,181034,1,8,0:0:0:0:
182,192,181206,128,0,181379:0:0:0:0:
329,192,181206,128,0,181379:0:0:0:0:
36,192,181206,1,0,0:0:0:0:
475,192,181206,1,0,0:0:0:0:
256,192,181379,128,0,181551:0:0:0:0:
109,192,181379,1,0,0:0:0:0:
36,192,181551,1,8,0:0:0:0:
475,192,181551,1,8,0:0:0:0:
109,192,181724,1,2,0:0:0:0:
329,192,181724,1,2,0:0:0:0:
182,192,181724,1,2,0:0:0:0:
256,192,181896,128,0,182068:0:0:0:0:
402,192,181896,128,0,182068:0:0:0:0:
329,192,182068,128,0,182241:0:0:0:0:
109,192,182068,1,0,0:0:0:0:
36,192,182413,1,8,0:0:0:0:
182,192,182413,1,8,0:0:0:0:
402,192,182413,1,8,0:0:0:0:
329,192,182586,128,0,182758:0:0:0:0:
475,192,182586,128,0,182758:0:0:0:0:
109,192,182586,1,0,0:0:0:0:
256,192,182586,1,0,0:0:0:0:
402,192,182758,128,0,182931:0:0:0:0:
182,192,182758,1,0,0:0:0:0:
256,192,182931,1,8,0:0:0:0:
475,192,182931,1,8,0:0:0:0:
36,192,183103,1,2,0:0:0:0:
109,192,183103,1,2,0:0:0:0:
182,192,183103,1,2,0:0:0:0:
256,192,183275,128,0,183448:0:0:0:0:
402,192,183275,128,0,183448:0:0:0:0:
329,192,183448,128,0,183620:0:0:0:0:
109,192,183448,1,0,0:0:0:0:
36,192,183793,1,8,0:0:0:0:
182,192,183793,1,8,0:0:0:0:
475,192,183793,1,8,0:0:0:0:
36,192,183965,128,0,184137:0:0:0:0:
329,192,183965,1,0,0:0:0:0:
109,192,184137,128,0,184310:0:0:0:0:
402,192,184137,1,0,0:0:0:0:
475,192,184137,1,0,0:0:0:0:
182,192,184310,128,8,184482:0:0:0:0:
329,192,184310,1,8,0:0:0:0:
109,192,184482,128,0,184827:0:0:0:0:
256,192,184482,1,2,0:0:0:0:
402,192,184482,1,2,0:0:0:0:
475,192,184482,1,2,0:0:0:0:
36,192,184827,1,0,0:0:0:0:
256,192,184827,1,0,0:0:0:0:
109,192,185172,1,8,0:0:0:0:
256,192,185172,1,8,0:0:0:0:
329,192,185172,1,8,0:0:0:0:
475,192,185344,128,0,185517:0:0:0:0:
402,192,185517,128,0,185862:0:0:0:0:
36,192,185517,128,0,185862:0:0:0:0:
182,192,185517,1,0,0:0:0:0:
256,192,185689,1,8,0:0:0:0:
475,192,185689,1,8,0:0:0:0:
329,192,185862,128,0,186206:0:0:0:0:
182,192,185862,1,2,0:0:0:0:
475,192,185862,1,2,0:0:0:0:
109,192,185862,1,2,0:0:0:0:
109,192,186206,1,0,0:0:0:0:
402,192,186206,1,0,0:0:0:0:
36,192,186551,1,8,0:0:0:0:
329,192,186551,1,8,0:0:0:0:
402,192,186551,1,8,0:0:0:0:
475,192,186724,128,0,186896:0:0:0:0:
402,192,186896,128,0,187241:0:0:0:0:
182,192,186896,1,0,0:0:0:0:
36,192,187068,1,8,0:0:0:0:
256,192,187068,1,8,0:0:0:0:
109,192,187241,128,0,187586:0:0:0:0:
475,192,187241,128,0,187586:0:0:0:0:
182,192,187241,1,2,0:0:0:0:
329,192,187241,1,2,0:0:0:0:
36,192,187241,1,2,0:0:0:0:
182,192,187586,128,0,187931:0:0:0:0:
256,192,187586,1,0,0:0:0:0:
329,192,187586,1,0,0:0:0:0:
36,192,187931,1,8,0:0:0:0:
256,192,187931,1,8,0:0:0:0:
329,192,187931,1,8,0:0:0:0:
475,192,188103,128,0,188275:0:0:0:0:
256,192,188275,128,0,188448:0:0:0:0:
36,192,188275,1,0,0:0:0:0:
329,192,188448,128,0,188620:0:0:0:0:
109,192,188448,1,8,0:0:0:0:
475,192,188448,1,8,0:0:0:0:
402,192,188620,128,0,188793:0:0:0:0:
36,192,188620,128,2,188793:0:0:0:0:
182,192,188620,1,2,0:0:0:0:
256,192,188620,1,2,0:0:0:0:
329,192,188793,128,0,189310:0:0:0:0:
109,192,188793,128,0,189310:0:0:0:0:
256,192,188965,1,0,0:0:0:0:
475,192,188965,1,0,0:0:0:0:
475,192,189310,1,8,0:0:0:0:
36,192,189310,1,8,0:0:0:0:
256,192,189310,1,8,0:0:0:0:
182,192,189482,1,4,0:0:0:0:
329,192,189482,1,4,0:0:0:0:
182,192,189827,1,4,0:0:0:0:
329,192,189827,1,4,0:0:0:0:
36,192,190000,1,8,0:0:0:0:
256,192,190000,1,8,0:0:0:0:
475,192,190000,1,8,0:0:0:0:
109,192,190172,1,0,0:0:0:0:
402,192,190172,1,0,0:0:0:0:
36,192,190344,1,4,0:0:0:0:
182,192,190344,1,4,0:0:0:0:
329,192,190344,1,4,0:0:0:0:
475,192,190344,1,4,0:0:0:0:
256,192,190517,1,0,0:0:0:0:
182,192,190689,128,8,190862:0:0:0:0:
329,192,190689,128,8,190862:0:0:0:0:
36,192,190689,1,8,0:0:0:0:
256,192,190862,128,0,191034:0:0:0:0:
182,192,191034,128,0,191206:0:0:0:0:
329,192,191034,128,0,191206:0:0:0:0:
256,192,191206,128,8,191379:0:0:0:0:
402,192,191206,128,0,191379:0:0:0:0:
36,192,191206,1,8,0:0:0:0:
329,192,191379,128,2,192068:0:0:0:0:
475,192,191379,128,2,192068:0:0:0:0:
36,192,191379,1,2,0:0:0:0:
109,192,191724,1,0,0:0:0:0:
402,192,191724,1,0,0:0:0:0:
36,192,192068,1,8,0:0:0:0:
256,192,192068,1,8,0:0:0:0:
402,192,192413,128,0,192758:0:0:0:0:
182,192,192413,1,0,0:0:0:0:
36,192,192586,1,8,0:0:0:0:
329,192,192586,128,0,192758:0:0:0:0:
109,192,192586,1,8,0:0:0:0:
182,192,192758,1,2,0:0:0:0:
256,192,192758,1,2,0:0:0:0:
475,192,192758,1,2,0:0:0:0:
329,192,193103,128,0,193965:0:0:0:0:
36,192,193103,1,0,0:0:0:0:
256,192,193103,1,0,0:0:0:0:
109,192,193448,1,8,0:0:0:0:
402,192,193448,1,8,0:0:0:0:
475,192,193448,1,8,0:0:0:0:
256,192,193620,1,0,0:0:0:0:
182,192,193793,1,0,0:0:0:0:
402,192,193793,1,0,0:0:0:0:
36,192,193965,128,8,194137:0:0:0:0:
256,192,193965,1,8,0:0:0:0:
109,192,194137,128,0,194310:0:0:0:0:
182,192,194137,1,2,0:0:0:0:
402,192,194137,1,2,0:0:0:0:
475,192,194137,1,2,0:0:0:0:
182,192,194310,128,0,195172:0:0:0:0:
36,192,194482,1,0,0:0:0:0:
256,192,194482,1,0,0:0:0:0:
36,192,194827,1,8,0:0:0:0:
109,192,194827,1,8,0:0:0:0:
402,192,194827,1,8,0:0:0:0:
329,192,195000,1,0,0:0:0:0:
256,192,195172,1,0,0:0:0:0:
402,192,195172,1,0,0:0:0:0:
329,192,195344,1,8,0:0:0:0:
109,192,195517,1,2,0:0:0:0:
36,192,195517,1,2,0:0:0:0:
402,192,195517,128,2,195862:0:0:0:0:
329,192,195862,1,0,0:0:0:0:
109,192,196034,1,0,0:0:0:0:
36,192,196206,128,0,196379:0:0:0:0:
182,192,196206,128,8,196379:0:0:0:0:
256,192,196206,1,8,0:0:0:0:
475,192,196206,1,8,0:0:0:0:
109,192,196379,128,0,196551:0:0:0:0:
329,192,196551,128,0,196724:0:0:0:0:
475,192,196551,128,0,196724:0:0:0:0:
182,192,196551,1,0,0:0:0:0:
402,192,196724,128,8,196896:0:0:0:0:
109,192,196724,1,8,0:0:0:0:
256,192,196896,128,2,197586:0:0:0:0:
36,192,196896,1,2,0:0:0:0:
182,192,196896,1,2,0:0:0:0:
109,192,197241,1,0,0:0:0:0:
182,192,197241,1,0,0:0:0:0:
329,192,197586,1,8,0:0:0:0:
475,192,197586,1,8,0:0:0:0:
182,192,197586,1,8,0:0:0:0:
36,192,197931,128,0,198103:0:0:0:0:
256,192,197931,1,0,0:0:0:0:
109,192,198103,128,0,198275:0:0:0:0:
329,192,198103,1,8,0:0:0:0:
402,192,198103,1,8,0:0:0:0:
182,192,198275,128,0,198448:0:0:0:0:
402,192,198275,1,2,0:0:0:0:
475,192,198275,1,2,0:0:0:0:
256,192,198275,1,2,0:0:0:0:
256,192,198620,1,4,0:0:0:0:
475,192,198620,1,4,0:0:0:0:
402,192,198620,1,4,0:0:0:0:
182,192,198620,1,0,0:0:0:0:
109,192,198706,1,4,0:0:0:0:
182,192,198793,1,4,0:0:0:0:
109,192,198879,1,4,0:0:0:0:
256,192,198965,1,8,0:0:0:0:
402,192,198965,1,8,0:0:0:0:
475,192,198965,1,8,0:0:0:0:
36,192,198965,1,4,0:0:0:0:
109,192,199051,1,4,0:0:0:0:
256,192,199137,1,4,0:0:0:0:
402,192,199137,1,4,0:0:0:0:
475,192,199137,1,4,0:0:0:0:
36,192,199137,1,4,0:0:0:0:
109,192,199224,1,4,0:0:0:0:
182,192,199310,1,4,0:0:0:0:
109,192,199396,1,4,0:0:0:0:
256,192,199482,1,8,0:0:0:0:
402,192,199482,1,8,0:0:0:0:
475,192,199482,1,8,0:0:0:0:
182,192,199482,1,4,0:0:0:0:
109,192,199568,1,4,0:0:0:0:
256,192,199655,1,8,0:0:0:0:
402,192,199655,1,8,0:0:0:0:
475,192,199655,1,8,0:0:0:0:
36,192,199655,1,4,0:0:0:0:
109,192,199741,1,4,0:0:0:0:
182,192,199827,1,4,0:0:0:0:
109,192,199913,1,4,0:0:0:0:
256,192,200000,1,2,0:0:0:0:
402,192,200000,1,2,0:0:0:0:
475,192,200000,1,2,0:0:0:0:
36,192,200000,1,2,0:0:0:0:
256,192,201379,1,0,0:0:0:0:
36,192,201724,1,2,0:0:0:0:
329,192,201724,1,2,0:0:0:0:
475,192,201724,1,2,0:0:0:0:
182,192,201724,1,2,0:0:0:0:
109,192,202068,1,0,0:0:0:0:
256,192,202068,1,0,0:0:0:0:
182,192,202241,1,0,0:0:0:0:
36,192,202241,1,0,0:0:0:0:
329,192,202241,1,0,0:0:0:0:
109,192,202413,1,8,0:0:0:0:
256,192,202413,1,8,0:0:0:0:
402,192,202413,1,8,0:0:0:0:
329,192,202586,1,0,0:0:0:0:
36,192,202758,1,0,0:0:0:0:
109,192,202758,1,0,0:0:0:0:
256,192,202758,1,0,0:0:0:0:
182,192,202931,1,0,0:0:0:0:
36,192,203103,1,0,0:0:0:0:
109,192,203103,1,8,0:0:0:0:
256,192,203103,1,0,0:0:0:0:
182,192,203275,1,0,0:0:0:0:
109,192,203448,1,0,0:0:0:0:
256,192,203448,1,0,0:0:0:0:
36,192,203620,1,0,0:0:0:0:
182,192,203620,1,0,0:0:0:0:
329,192,203620,1,0,0:0:0:0:
109,192,203793,1,2,0:0:0:0:
256,192,203793,1,2,0:0:0:0:
402,192,203793,1,2,0:0:0:0:
182,192,204137,1,0,0:0:0:0:
402,192,204137,1,0,0:0:0:0:
475,192,204137,1,0,0:0:0:0:
329,192,204310,1,0,0:0:0:0:
182,192,204482,1,0,0:0:0:0:
402,192,204482,1,8,0:0:0:0:
475,192,204482,1,0,0:0:0:0:
109,192,204655,1,0,0:0:0:0:
182,192,204827,1,0,0:0:0:0:
329,192,204827,1,0,0:0:0:0:
109,192,205000,1,0,0:0:0:0:
36,192,205000,1,0,0:0:0:0:
256,192,205000,1,0,0:0:0:0:
182,192,205172,1,8,0:0:0:0:
329,192,205172,1,8,0:0:0:0:
402,192,205172,1,8,0:0:0:0:
109,192,205344,1,0,0:0:0:0:
256,192,205344,1,0,0:0:0:0:
402,192,205517,1,0,0:0:0:0:
475,192,205517,1,0,0:0:0:0:
182,192,205517,1,0,0:0:0:0:
329,192,205689,1,0,0:0:0:0:
182,192,205862,1,8,0:0:0:0:
402,192,205862,1,0,0:0:0:0:
475,192,205862,1,0,0:0:0:0:
109,192,206034,1,0,0:0:0:0:
256,192,206034,1,0,0:0:0:0:
182,192,206206,1,0,0:0:0:0:
329,192,206206,1,0,0:0:0:0:
36,192,206379,1,0,0:0:0:0:
109,192,206379,1,0,0:0:0:0:
256,192,206379,1,0,0:0:0:0:
182,192,206551,1,2,0:0:0:0:
329,192,206551,1,2,0:0:0:0:
402,192,206551,1,2,0:0:0:0:
329,192,206896,1,0,0:0:0:0:
475,192,206896,1,0,0:0:0:0:
36,192,206896,1,0,0:0:0:0:
256,192,207068,1,0,0:0:0:0:
402,192,207068,1,0,0:0:0:0:
182,192,207241,1,8,0:0:0:0:
329,192,207241,1,0,0:0:0:0:
36,192,207241,1,0,0:0:0:0:
256,192,207413,1,0,0:0:0:0:
402,192,207413,1,0,0:0:0:0:
182,192,207586,1,0,0:0:0:0:
329,192,207586,1,0,0:0:0:0:
109,192,207758,1,0,0:0:0:0:
256,192,207758,1,0,0:0:0:0:
475,192,207758,1,0,0:0:0:0:
182,192,207931,1,8,0:0:0:0:
329,192,207931,1,8,0:0:0:0:
475,192,207931,1,8,0:0:0:0:
109,192,208103,1,0,0:0:0:0:
256,192,208103,1,0,0:0:0:0:
36,192,208275,1,0,0:0:0:0:
182,192,208275,1,0,0:0:0:0:
475,192,208275,1,0,0:0:0:0:
109,192,208448,1,0,0:0:0:0:
256,192,208448,1,0,0:0:0:0:
329,192,208620,1,8,0:0:0:0:
36,192,208620,1,0,0:0:0:0:
475,192,208620,1,0,0:0:0:0:
109,192,208793,1,0,0:0:0:0:
256,192,208793,1,0,0:0:0:0:
182,192,208965,1,0,0:0:0:0:
329,192,208965,1,0,0:0:0:0:
256,192,209137,1,0,0:0:0:0:
402,192,209137,1,0,0:0:0:0:
36,192,209137,1,0,0:0:0:0:
109,192,209310,1,2,0:0:0:0:
329,192,209310,1,2,0:0:0:0:
36,192,209310,1,2,0:0:0:0:
36,192,209482,1,0,0:0:0:0:
256,192,209482,1,0,0:0:0:0:
109,192,209655,1,0,0:0:0:0:
329,192,209655,1,0,0:0:0:0:
402,192,209655,1,0,0:0:0:0:
182,192,209827,1,0,0:0:0:0:
109,192,210000,1,0,0:0:0:0:
329,192,210000,1,8,0:0:0:0:
402,192,210000,1,0,0:0:0:0:
182,192,210172,1,0,0:0:0:0:
329,192,210344,1,0,0:0:0:0:
402,192,210344,1,0,0:0:0:0:
36,192,210517,1,0,0:0:0:0:
182,192,210517,1,0,0:0:0:0:
256,192,210517,1,0,0:0:0:0:
329,192,210689,1,8,0:0:0:0:
402,192,210689,1,8,0:0:0:0:
475,192,210689,1,8,0:0:0:0:
36,192,211034,1,4,0:0:0:0:
182,192,211034,1,0,0:0:0:0:
329,192,211034,1,0,0:0:0:0:
475,192,211034,1,4,0:0:0:0:
109,192,211206,1,0,0:0:0:0:
402,192,211206,1,0,0:0:0:0:
36,192,211379,1,4,0:0:0:0:
182,192,211379,1,0,0:0:0:0:
329,192,211379,1,0,0:0:0:0:
475,192,211379,1,4,0:0:0:0:
36,192,211551,1,4,0:0:0:0:
182,192,211551,1,0,0:0:0:0:
329,192,211551,1,0,0:0:0:0:
475,192,211551,1,4,0:0:0:0:
109,192,211724,1,0,0:0:0:0:
402,192,211724,1,0,0:0:0:0:
36,192,211896,1,4,0:0:0:0:
182,192,211896,1,0,0:0:0:0:
329,192,211896,1,0,0:0:0:0:
475,192,211896,1,4,0:0:0:0:
36,192,212068,1,4,0:0:0:0:
182,192,212068,1,0,0:0:0:0:
329,192,212068,1,0,0:0:0:0:
475,192,212068,1,4,0:0:0:0:
109,192,212413,1,0,0:0:0:0:
256,192,212413,1,0,0:0:0:0:
402,192,212413,1,0,0:0:0:0:
329,192,212586,1,0,0:0:0:0:
109,192,212758,1,0,0:0:0:0:
256,192,212758,1,8,0:0:0:0:
402,192,212758,1,0,0:0:0:0:
182,192,212931,1,0,0:0:0:0:
36,192,212931,1,0,0:0:0:0:
256,192,213103,1,0,0:0:0:0:
329,192,213103,1,0,0:0:0:0:
182,192,213275,1,0,0:0:0:0:
402,192,213275,1,0,0:0:0:0:
475,192,213275,1,0,0:0:0:0:
36,192,213448,1,8,0:0:0:0:
109,192,213448,1,8,0:0:0:0:
329,192,213448,1,8,0:0:0:0:
182,192,213620,1,0,0:0:0:0:
109,192,213793,1,0,0:0:0:0:
256,192,213793,1,0,0:0:0:0:
402,192,213793,1,0,0:0:0:0:
329,192,213965,1,0,0:0:0:0:
109,192,214137,1,0,0:0:0:0:
256,192,214137,1,8,0:0:0:0:
402,192,214137,1,0,0:0:0:0:
36,192,214310,1,0,0:0:0:0:
182,192,214310,1,0,0:0:0:0:
256,192,214482,1,0,0:0:0:0:
329,192,214482,1,0,0:0:0:0:
182,192,214655,1,0,0:0:0:0:
402,192,214655,1,0,0:0:0:0:
475,192,214655,1,0,0:0:0:0:
36,192,214827,1,2,0:0:0:0:
109,192,214827,1,2,0:0:0:0:
256,192,214827,1,2,0:0:0:0:
36,192,215172,1,0,0:0:0:0:
109,192,215172,1,0,0:0:0:0:
182,192,215172,1,0,0:0:0:0:
256,192,215344,1,0,0:0:0:0:
329,192,215517,1,0,0:0:0:0:
402,192,215517,1,8,0:0:0:0:
475,192,215517,1,0,0:0:0:0:
109,192,215689,1,0,0:0:0:0:
36,192,215689,1,0,0:0:0:0:
182,192,215862,1,0,0:0:0:0:
256,192,215862,1,0,0:0:0:0:
329,192,216034,1,0,0:0:0:0:
402,192,216034,1,0,0:0:0:0:
475,192,216034,1,0,0:0:0:0:
36,192,216206,1,8,0:0:0:0:
109,192,216206,1,8,0:0:0:0:
182,192,216206,1,8,0:0:0:0:
256,192,216379,1,0,0:0:0:0:
329,192,216551,1,0,0:0:0:0:
402,192,216551,1,0,0:0:0:0:
475,192,216551,1,0,0:0:0:0:
256,192,216724,1,0,0:0:0:0:
36,192,216896,1,0,0:0:0:0:
109,192,216896,1,8,0:0:0:0:
182,192,216896,1,0,0:0:0:0:
402,192,217068,1,0,0:0:0:0:
475,192,217068,1,0,0:0:0:0:
256,192,217241,1,0,0:0:0:0:
329,192,217241,1,0,0:0:0:0:
182,192,217413,1,0,0:0:0:0:
109,192,217413,1,0,0:0:0:0:
36,192,217413,1,0,0:0:0:0:
329,192,217586,1,2,0:0:0:0:
402,192,217586,1,2,0:0:0:0:
475,192,217586,1,2,0:0:0:0:
36,192,217931,1,0,0:0:0:0:
256,192,217931,1,0,0:0:0:0:
475,192,217931,1,0,0:0:0:0:
36,192,218103,1,0,0:0:0:0:
256,192,218103,1,0,0:0:0:0:
182,192,218275,1,8,0:0:0:0:
402,192,218275,1,0,0:0:0:0:
475,192,218275,1,0,0:0:0:0:
36,192,218448,1,0,0:0:0:0:
256,192,218448,1,0,0:0:0:0:
36,192,218620,1,0,0:0:0:0:
256,192,218620,1,0,0:0:0:0:
182,192,218793,1,0,0:0:0:0:
402,192,218793,1,0,0:0:0:0:
475,192,218793,1,0,0:0:0:0:
475,192,218965,1,8,0:0:0:0:
182,192,218965,1,8,0:0:0:0:
402,192,218965,1,8,0:0:0:0:
182,192,219310,1,0,0:0:0:0:
475,192,219310,1,0,0:0:0:0:
36,192,219310,1,0,0:0:0:0:
329,192,219482,1,0,0:0:0:0:
36,192,219655,1,0,0:0:0:0:
182,192,219655,1,8,0:0:0:0:
475,192,219655,1,0,0:0:0:0:
256,192,219827,1,0,0:0:0:0:
402,192,219827,1,0,0:0:0:0:
329,192,220000,1,0,0:0:0:0:
256,192,220172,1,0,0:0:0:0:
402,192,220172,1,0,0:0:0:0:
182,192,220344,1,2,0:0:0:0:
475,192,220344,1,2,0:0:0:0:
36,192,220344,1,2,0:0:0:0:
36,192,220689,1,4,0:0:0:0:
182,192,220689,1,4,0:0:0:0:
475,192,220689,1,0,0:0:0:0:
329,192,220689,1,0,0:0:0:0:
109,192,220862,1,0,0:0:0:0:
36,192,221034,1,0,0:0:0:0:
182,192,221034,1,0,0:0:0:0:
329,192,221034,1,8,0:0:0:0:
475,192,221034,1,8,0:0:0:0:
402,192,221206,1,4,0:0:0:0:
109,192,221551,1,4,0:0:0:0:
402,192,221551,1,4,0:0:0:0:
36,192,221724,1,0,0:0:0:0:
182,192,221724,1,0,0:0:0:0:
329,192,221724,1,8,0:0:0:0:
475,192,221724,1,8,0:0:0:0:
109,192,221896,1,4,0:0:0:0:
402,192,221896,1,4,0:0:0:0:
36,192,222068,1,0,0:0:0:0:
256,192,222068,1,0,0:0:0:0:
329,192,222068,1,0,0:0:0:0:
36,192,222241,1,0,0:0:0:0:
182,192,222241,1,0,0:0:0:0:
256,192,222241,1,0,0:0:0:0:
36,192,222413,1,8,0:0:0:0:
109,192,222413,1,8,0:0:0:0:
182,192,222413,1,8,0:0:0:0:
182,192,222586,1,0,0:0:0:0:
256,192,222586,1,0,0:0:0:0:
475,192,222586,1,0,0:0:0:0:
256,192,222758,1,0,0:0:0:0:
329,192,222758,1,0,0:0:0:0:
475,192,222758,1,0,0:0:0:0:
329,192,222931,1,0,0:0:0:0:
402,192,222931,1,0,0:0:0:0:
475,192,222931,1,0,0:0:0:0:
475,192,223103,1,8,0:0:0:0:
36,192,223103,1,8,0:0:0:0:
256,192,223275,1,0,0:0:0:0:
402,192,223275,1,4,0:0:0:0:
329,192,223362,1,4,0:0:0:0:
182,192,223448,1,0,0:0:0:0:
109,192,223448,128,0,224482:0:0:0:0:
402,192,223448,1,4,0:0:0:0:
36,192,223793,1,0,0:0:0:0:
182,192,223793,1,8,0:0:0:0:
256,192,223793,1,0,0:0:0:0:
329,192,223965,1,0,0:0:0:0:
402,192,224137,1,0,0:0:0:0:
475,192,224137,1,0,0:0:0:0:
329,192,224310,1,0,0:0:0:0:
256,192,224310,1,0,0:0:0:0:
36,192,224482,1,8,0:0:0:0:
182,192,224482,1,8,0:0:0:0:
256,192,224482,1,8,0:0:0:0:
182,192,224827,1,0,0:0:0:0:
109,192,224827,1,0,0:0:0:0:
402,192,224827,1,0,0:0:0:0:
329,192,225000,1,0,0:0:0:0:
36,192,225172,1,0,0:0:0:0:
182,192,225172,1,8,0:0:0:0:
256,192,225172,1,0,0:0:0:0:
329,192,225344,1,0,0:0:0:0:
402,192,225517,1,0,0:0:0:0:
475,192,225517,1,0,0:0:0:0:
329,192,225689,1,0,0:0:0:0:
109,192,225689,1,0,0:0:0:0:
36,192,225862,1,8,0:0:0:0:
182,192,225862,1,8,0:0:0:0:
256,192,225862,1,8,0:0:0:0:
475,192,226206,128,0,226551:0:0:0:0:
36,192,226206,1,0,0:0:0:0:
182,192,226206,1,0,0:0:0:0:
402,192,226379,128,0,226551:0:0:0:0:
256,192,226551,128,0,226896:0:0:0:0:
36,192,226551,1,8,0:0:0:0:
182,192,226551,1,0,0:0:0:0:
329,192,226724,128,0,226896:0:0:0:0:
109,192,226724,1,0,0:0:0:0:
402,192,226896,128,0,227586:0:0:0:0:
182,192,226896,1,0,0:0:0:0:
36,192,227068,1,0,0:0:0:0:
475,192,227068,1,0,0:0:0:0:
109,192,227241,1,8,0:0:0:0:
256,192,227241,1,8,0:0:0:0:
329,192,227241,1,8,0:0:0:0:
36,192,227586,1,0,0:0:0:0:
182,192,227586,1,0,0:0:0:0:
256,192,227586,1,0,0:0:0:0:
329,192,227758,1,0,0:0:0:0:
256,192,227931,1,8,0:0:0:0:
402,192,227931,1,0,0:0:0:0:
475,192,227931,1,0,0:0:0:0:
109,192,228103,1,0,0:0:0:0:
182,192,228103,1,0,0:0:0:0:
256,192,228275,1,0,0:0:0:0:
329,192,228448,1,0,0:0:0:0:
402,192,228448,1,0,0:0:0:0:
109,192,228620,1,8,0:0:0:0:
256,192,228620,1,8,0:0:0:0:
475,192,228620,1,8,0:0:0:0:
36,192,228965,128,0,230344:0:0:0:0:
109,192,228965,1,0,0:0:0:0:
402,192,228965,1,0,0:0:0:0:
329,192,228965,1,0,0:0:0:0:
182,192,229137,1,0,0:0:0:0:
256,192,229310,1,8,0:0:0:0:
402,192,229310,1,0,0:0:0:0:
475,192,229310,1,0,0:0:0:0:
109,192,229482,1,0,0:0:0:0:
329,192,229482,1,0,0:0:0:0:
256,192,229655,1,0,0:0:0:0:
182,192,229827,1,0,0:0:0:0:
329,192,229827,1,0,0:0:0:0:
256,192,230000,1,8,0:0:0:0:
109,192,230000,1,8,0:0:0:0:
402,192,230000,1,8,0:0:0:0:
109,192,230344,128,0,231724:0:0:0:0:
182,192,230344,1,0,0:0:0:0:
402,192,230344,1,0,0:0:0:0:
475,192,230344,1,0,0:0:0:0:
256,192,230517,1,0,0:0:0:0:
402,192,230689,1,8,0:0:0:0:
475,192,230689,1,0,0:0:0:0:
36,192,230689,1,0,0:0:0:0:
182,192,230862,1,0,0:0:0:0:
329,192,230862,1,0,0:0:0:0:
256,192,231034,1,0,0:0:0:0:
329,192,231206,1,0,0:0:0:0:
475,192,231206,1,0,0:0:0:0:
182,192,231379,1,8,0:0:0:0:
256,192,231379,1,8,0:0:0:0:
402,192,231379,1,8,0:0:0:0:
182,192,231724,128,0,233103:0:0:0:0:
256,192,231724,1,0,0:0:0:0:
329,192,231724,1,0,0:0:0:0:
475,192,231724,1,0,0:0:0:0:
402,192,231896,1,0,0:0:0:0:
109,192,232068,1,0,0:0:0:0:
256,192,232068,1,8,0:0:0:0:
329,192,232068,1,0,0:0:0:0:
402,192,232241,1,0,0:0:0:0:
475,192,232241,1,0,0:0:0:0:
329,192,232413,1,0,0:0:0:0:
109,192,232586,1,0,0:0:0:0:
256,192,232586,1,0,0:0:0:0:
36,192,232758,1,8,0:0:0:0:
402,192,232758,1,8,0:0:0:0:
475,192,232758,1,8,0:0:0:0:
109,192,233103,1,4,0:0:0:0:
402,192,233103,1,4,0:0:0:0:
109,192,233275,1,4,0:0:0:0:
402,192,233275,1,4,0:0:0:0:
36,192,233448,1,8,0:0:0:0:
475,192,233448,1,8,0:0:0:0:
109,192,233620,1,4,0:0:0:0:
402,192,233620,1,4,0:0:0:0:
109,192,233793,1,4,0:0:0:0:
402,192,233793,1,4,0:0:0:0:
182,192,233879,1,4,0:0:0:0:
109,192,233965,1,4,0:0:0:0:
402,192,233965,1,4,0:0:0:0:
329,192,234051,1,4,0:0:0:0:
36,192,234137,1,8,0:0:0:0:
475,192,234137,1,8,0:0:0:0:
182,192,234224,1,4,0:0:0:0:
109,192,234310,1,4,0:0:0:0:
402,192,234310,1,4,0:0:0:0:
256,192,234396,1,4,0:0:0:0:
109,192,234482,1,4,0:0:0:0:
402,192,234482,1,4,0:0:0:0:
109,192,234827,1,0,0:0:0:0:
256,192,234827,1,8,0:0:0:0:
329,192,234827,1,0,0:0:0:0:
36,192,235000,128,0,235172:0:0:0:0:
182,192,235000,1,0,0:0:0:0:
475,192,235172,128,0,235344:0:0:0:0:
256,192,235172,1,0,0:0:0:0:
402,192,235344,128,0,235517:0:0:0:0:
182,192,235344,1,0,0:0:0:0:
329,192,235344,1,0,0:0:0:0:
36,192,235517,1,8,0:0:0:0:
109,192,235517,1,8,0:0:0:0:
256,192,235517,1,8,0:0:0:0:
402,192,235689,128,0,236206:0:0:0:0:
36,192,235862,1,0,0:0:0:0:
182,192,235862,1,0,0:0:0:0:
36,192,236206,1,0,0:0:0:0:
109,192,236206,1,8,0:0:0:0:
182,192,236206,1,0,0:0:0:0:
256,192,236379,1,0,0:0:0:0:
329,192,236551,1,0,0:0:0:0:
475,192,236551,128,0,236896:0:0:0:0:
256,192,236724,1,0,0:0:0:0:
402,192,236724,1,0,0:0:0:0:
36,192,236896,1,8,0:0:0:0:
109,192,236896,1,8,0:0:0:0:
182,192,236896,1,8,0:0:0:0:
256,192,237068,1,0,0:0:0:0:
329,192,237241,1,0,0:0:0:0:
475,192,237241,1,0,0:0:0:0:
36,192,237586,1,0,0:0:0:0:
475,192,237586,1,0,0:0:0:0:
182,192,237586,1,8,0:0:0:0:
256,192,237758,1,0,0:0:0:0:
329,192,237931,1,0,0:0:0:0:
109,192,238103,1,0,0:0:0:0:
402,192,238103,1,0,0:0:0:0:
36,192,238275,1,8,0:0:0:0:
329,192,238275,1,8,0:0:0:0:
475,192,238275,1,8,0:0:0:0:
256,192,238448,1,0,0:0:0:0:
36,192,238620,1,0,0:0:0:0:
475,192,238620,1,0,0:0:0:0:
475,192,238965,1,0,0:0:0:0:
402,192,238965,1,8,0:0:0:0:
329,192,238965,1,0,0:0:0:0:
256,192,239137,1,0,0:0:0:0:
36,192,239310,128,0,239655:0:0:0:0:
182,192,239310,1,0,0:0:0:0:
256,192,239482,1,0,0:0:0:0:
109,192,239482,1,0,0:0:0:0:
402,192,239655,1,8,0:0:0:0:
475,192,239655,1,8,0:0:0:0:
329,192,239655,1,8,0:0:0:0:
256,192,239827,1,0,0:0:0:0:
36,192,240000,128,4,240172:0:0:0:0:
475,192,240000,128,4,240172:0:0:0:0:
256,192,240000,1,4,0:0:0:0:
109,192,240172,128,0,240344:0:0:0:0:
402,192,240172,128,0,240344:0:0:0:0:
182,192,240344,1,8,0:0:0:0:
329,192,240344,1,8,0:0:0:0:
256,192,240517,1,4,0:0:0:0:
36,192,240517,1,4,0:0:0:0:
475,192,240517,1,4,0:0:0:0:
109,192,240862,1,4,0:0:0:0:
256,192,240862,1,4,0:0:0:0:
402,192,240862,1,4,0:0:0:0:
36,192,241034,1,8,0:0:0:0:
256,192,241034,1,8,0:0:0:0:
475,192,241034,1,8,0:0:0:0:
109,192,241206,1,4,0:0:0:0:
256,192,241206,1,4,0:0:0:0:
402,192,241206,1,4,0:0:0:0:
109,192,241379,1,4,0:0:0:0:
256,192,241379,1,4,0:0:0:0:
402,192,241379,1,4,0:0:0:0:
36,192,241724,1,8,0:0:0:0:
256,192,241724,1,8,0:0:0:0:
475,192,241724,1,8,0:0:0:0:
109,192,241896,1,4,0:0:0:0:
256,192,241896,1,4,0:0:0:0:
402,192,241896,1,4,0:0:0:0:
109,192,242241,1,4,0:0:0:0:
402,192,242241,1,4,0:0:0:0:
36,192,242413,1,8,0:0:0:0:
256,192,242413,1,8,0:0:0:0:
475,192,242413,1,8,0:0:0:0:
109,192,242586,1,4,0:0:0:0:
402,192,242586,1,4,0:0:0:0:
182,192,242758,1,4,0:0:0:0:
475,192,242758,1,4,0:0:0:0:
329,192,242931,1,4,0:0:0:0:
109,192,243017,1,4,0:0:0:0:
402,192,243103,1,8,0:0:0:0:
256,192,243103,1,8,0:0:0:0:
36,192,243189,1,4,0:0:0:0:
475,192,243275,1,4,0:0:0:0:
256,192,243275,1,4,0:0:0:0:
109,192,243362,1,4,0:0:0:0:
402,192,243448,1,4,0:0:0:0:
182,192,243534,1,4,0:0:0:0:
256,192,243620,1,4,0:0:0:0:
36,192,243620,1,4,0:0:0:0:
329,192,243706,1,4,0:0:0:0:
182,192,243793,1,8,0:0:0:0:
256,192,243793,1,8,0:0:0:0:
402,192,243879,1,4,0:0:0:0:
109,192,243965,1,4,0:0:0:0:
36,192,243965,1,4,0:0:0:0:
475,192,244051,1,4,0:0:0:0:
36,192,244137,1,4,0:0:0:0:
402,192,244137,1,4,0:0:0:0:
109,192,244224,1,4,0:0:0:0:
256,192,244310,1,4,0:0:0:0:
329,192,244396,1,4,0:0:0:0:
36,192,244482,1,8,0:0:0:0:
402,192,244482,1,12,0:0:0:0:
36,192,244655,1,4,0:0:0:0:
256,192,244655,1,4,0:0:0:0:
475,192,244655,1,4,0:0:0:0:
36,192,244827,1,4,0:0:0:0:
256,192,244827,1,4,0:0:0:0:
475,192,244827,1,4,0:0:0:0:
36,192,245172,1,4,0:0:0:0:
256,192,245172,1,4,0:0:0:0:
475,192,245172,1,4,0:0:0:0:
36,192,245517,1,2,0:0:0:0:
256,192,245517,1,2,0:0:0:0:
475,192,245517,1,2,0:0:0:0:
109,192,245862,1,8,0:0:0:0:
402,192,245862,1,8,0:0:0:0:
475,192,245862,1,8,0:0:0:0:
36,192,246034,128,0,246551:0:0:0:0:
256,192,246034,128,0,246206:0:0:0:0:
329,192,246206,128,0,246379:0:0:0:0:
109,192,246206,1,0,0:0:0:0:
182,192,246379,1,8,0:0:0:0:
109,192,246551,128,2,246896:0:0:0:0:
256,192,246551,1,2,0:0:0:0:
402,192,246551,1,2,0:0:0:0:
329,192,246724,128,0,246896:0:0:0:0:
402,192,246896,128,0,247068:0:0:0:0:
182,192,246896,1,0,0:0:0:0:
256,192,246896,1,0,0:0:0:0:
109,192,247241,1,8,0:0:0:0:
329,192,247241,1,8,0:0:0:0:
402,192,247241,1,8,0:0:0:0:
475,192,247413,128,0,247931:0:0:0:0:
256,192,247413,128,0,247586:0:0:0:0:
182,192,247586,128,0,247758:0:0:0:0:
36,192,247586,1,0,0:0:0:0:
109,192,247758,1,8,0:0:0:0:
402,192,247931,128,2,248620:0:0:0:0:
36,192,247931,1,2,0:0:0:0:
256,192,247931,1,2,0:0:0:0:
182,192,248103,128,0,248275:0:0:0:0:
109,192,248275,128,0,248448:0:0:0:0:
329,192,248275,1,0,0:0:0:0:
475,192,248275,1,0,0:0:0:0:
182,192,248620,1,8,0:0:0:0:
475,192,248620,1,8,0:0:0:0:
36,192,248793,128,0,248965:0:0:0:0:
182,192,248793,128,0,248965:0:0:0:0:
256,192,248965,128,0,249137:0:0:0:0:
109,192,248965,128,0,249137:0:0:0:0:
329,192,248965,1,0,0:0:0:0:
475,192,249137,128,8,249310:0:0:0:0:
182,192,249137,1,8,0:0:0:0:
402,192,249310,128,2,249482:0:0:0:0:
36,192,249310,1,2,0:0:0:0:
256,192,249310,1,2,0:0:0:0:
329,192,249482,128,0,250000:0:0:0:0:
109,192,249482,128,0,249655:0:0:0:0:
36,192,249655,128,0,249827:0:0:0:0:
182,192,249655,1,0,0:0:0:0:
182,192,250000,1,8,0:0:0:0:
256,192,250000,1,8,0:0:0:0:
475,192,250172,128,0,250344:0:0:0:0:
329,192,250172,128,0,250344:0:0:0:0:
256,192,250344,128,0,250517:0:0:0:0:
402,192,250344,128,0,250517:0:0:0:0:
182,192,250344,1,0,0:0:0:0:
36,192,250517,128,8,250689:0:0:0:0:
329,192,250517,1,8,0:0:0:0:
109,192,250689,128,2,251034:0:0:0:0:
475,192,250689,1,2,0:0:0:0:
256,192,250689,1,2,0:0:0:0:
329,192,250862,128,0,251034:0:0:0:0:
475,192,250862,128,0,251034:0:0:0:0:
402,192,251034,128,0,251206:0:0:0:0:
256,192,251034,1,0,0:0:0:0:
182,192,251379,1,8,0:0:0:0:
402,192,251379,1,8,0:0:0:0:
475,192,251379,1,8,0:0:0:0:
36,192,251551,128,0,251724:0:0:0:0:
109,192,251724,128,0,252068:0:0:0:0:
256,192,251724,128,0,252068:0:0:0:0:
402,192,251724,1,0,0:0:0:0:
329,192,251896,1,8,0:0:0:0:
475,192,251896,1,8,0:0:0:0:
182,192,252068,128,0,252413:0:0:0:0:
329,192,252068,1,2,0:0:0:0:
402,192,252068,1,2,0:0:0:0:
475,192,252068,1,2,0:0:0:0:
109,192,252413,1,0,0:0:0:0:
329,192,252413,1,0,0:0:0:0:
36,192,252758,1,8,0:0:0:0:
109,192,252758,1,8,0:0:0:0:
329,192,252758,1,8,0:0:0:0:
475,192,252931,128,0,253103:0:0:0:0:
402,192,253103,128,0,253448:0:0:0:0:
256,192,253103,128,0,253448:0:0:0:0:
109,192,253103,1,0,0:0:0:0:
36,192,253275,1,8,0:0:0:0:
182,192,253275,1,8,0:0:0:0:
329,192,253448,128,0,253793:0:0:0:0:
36,192,253448,1,2,0:0:0:0:
109,192,253448,1,2,0:0:0:0:
182,192,253448,1,2,0:0:0:0:
109,192,253793,1,0,0:0:0:0:
256,192,253793,1,0,0:0:0:0:
182,192,254137,1,8,0:0:0:0:
329,192,254137,1,8,0:0:0:0:
402,192,254137,1,8,0:0:0:0:
256,192,254310,128,0,254482:0:0:0:0:
36,192,254482,128,0,254827:0:0:0:0:
475,192,254482,128,0,254827:0:0:0:0:
109,192,254655,128,0,254827:0:0:0:0:
402,192,254655,128,0,254827:0:0:0:0:
329,192,254655,1,8,0:0:0:0:
256,192,254827,1,2,0:0:0:0:
329,192,255000,1,4,0:0:0:0:
36,192,255000,1,4,0:0:0:0:
256,192,255086,1,4,0:0:0:0:
182,192,255086,1,4,0:0:0:0:
329,192,255172,1,4,0:0:0:0:
109,192,255172,1,4,0:0:0:0:
329,192,255344,1,4,0:0:0:0:
109,192,255344,1,4,0:0:0:0:
36,192,255517,1,8,0:0:0:0:
182,192,255517,1,8,0:0:0:0:
256,192,255517,1,8,0:0:0:0:
109,192,255689,1,4,0:0:0:0:
329,192,255689,1,4,0:0:0:0:
109,192,256034,1,4,0:0:0:0:
329,192,256034,1,4,0:0:0:0:
36,192,256206,1,2,0:0:0:0:
182,192,256206,1,2,0:0:0:0:
256,192,256206,128,0,256551:0:0:0:0:
329,192,256551,1,4,0:0:0:0:
182,192,256551,1,4,0:0:0:0:
36,192,256896,128,0,257068:0:0:0:0:
182,192,256896,128,8,257068:0:0:0:0:
402,192,256896,1,8,0:0:0:0:
475,192,256896,1,8,0:0:0:0:
109,192,257068,128,0,257241:0:0:0:0:
36,192,257241,128,0,257413:0:0:0:0:
182,192,257241,128,0,257413:0:0:0:0:
256,192,257241,1,0,0:0:0:0:
109,192,257413,128,0,257586:0:0:0:0:
475,192,257413,128,8,257586:0:0:0:0:
329,192,257413,1,8,0:0:0:0:
402,192,257586,128,2,258275:0:0:0:0:
256,192,257586,1,2,0:0:0:0:
36,192,257586,1,2,0:0:0:0:
256,192,257931,1,0,0:0:0:0:
182,192,257931,1,0,0:0:0:0:
36,192,258275,1,8,0:0:0:0:
329,192,258275,1,8,0:0:0:0:
109,192,258275,1,8,0:0:0:0:
109,192,258620,128,0,258965:0:0:0:0:
36,192,258620,1,0,0:0:0:0:
329,192,258793,1,8,0:0:0:0:
256,192,258793,1,8,0:0:0:0:
182,192,258965,1,2,0:0:0:0:
402,192,258965,1,2,0:0:0:0:
475,192,258965,1,2,0:0:0:0:
109,192,259310,128,0,260172:0:0:0:0:
256,192,259310,1,0,0:0:0:0:
475,192,259310,1,0,0:0:0:0:
329,192,259655,1,8,0:0:0:0:
402,192,259655,1,8,0:0:0:0:
36,192,259655,1,8,0:0:0:0:
256,192,260000,1,0,0:0:0:0:
36,192,260172,128,0,260344:0:0:0:0:
475,192,260172,128,8,260344:0:0:0:0:
182,192,260172,1,8,0:0:0:0:
402,192,260344,128,2,260517:0:0:0:0:
256,192,260344,1,2,0:0:0:0:
329,192,260517,128,0,261379:0:0:0:0:
475,192,260517,128,0,261379:0:0:0:0:
36,192,260689,1,0,0:0:0:0:
402,192,260689,1,0,0:0:0:0:
109,192,261034,1,8,0:0:0:0:
182,192,261034,1,8,0:0:0:0:
256,192,261034,1,8,0:0:0:0:
109,192,261379,1,0,0:0:0:0:
256,192,261379,1,0,0:0:0:0:
182,192,261551,1,8,0:0:0:0:
329,192,261551,1,8,0:0:0:0:
256,192,261724,1,2,0:0:0:0:
402,192,261724,1,2,0:0:0:0:
475,192,261724,1,2,0:0:0:0:
182,192,262068,1,4,0:0:0:0:
256,192,262068,1,4,0:0:0:0:
329,192,262068,1,4,0:0:0:0:
109,192,262413,128,8,263793:0:0:0:0:
402,192,262413,128,0,263793:0:0:0:0:
36,192,262413,128,8,262586:0:0:0:0:
475,192,262413,128,8,262586:0:0:0:0:
182,192,262586,128,0,262758:0:0:0:0:
329,192,262586,128,0,262758:0:0:0:0:
36,192,262758,128,0,262931:0:0:0:0:
475,192,262758,128,0,262931:0:0:0:0:
182,192,262931,128,8,263103:0:0:0:0:
329,192,262931,128,8,263103:0:0:0:0:
256,192,263103,128,2,263793:0:0:0:0:
182,192,263448,1,0,0:0:0:0:
329,192,263448,1,0,0:0:0:0:
36,192,263793,1,8,0:0:0:0:
475,192,263793,1,8,0:0:0:0:
36,192,264137,128,0,264310:0:0:0:0:
256,192,264137,128,0,264310:0:0:0:0:
109,192,264310,128,8,264482:0:0:0:0:
329,192,264310,128,8,264482:0:0:0:0:
182,192,264482,1,2,0:0:0:0:
402,192,264482,1,2,0:0:0:0:
182,192,264827,1,0,0:0:0:0:
475,192,264827,1,0,0:0:0:0:
402,192,264913,1,4,0:0:0:0:
329,192,265000,1,4,0:0:0:0:
256,192,265086,1,4,0:0:0:0:
182,192,265172,1,8,0:0:0:0:
475,192,265172,1,8,0:0:0:0:
402,192,265258,1,4,0:0:0:0:
329,192,265344,1,4,0:0:0:0:
256,192,265431,1,4,0:0:0:0:
36,192,265517,1,0,0:0:0:0:
329,192,265517,1,0,0:0:0:0:
109,192,265603,1,4,0:0:0:0:
182,192,265689,1,8,0:0:0:0:
475,192,265689,1,8,0:0:0:0:
256,192,265775,1,4,0:0:0:0:
36,192,265862,1,2,0:0:0:0:
329,192,265862,1,2,0:0:0:0:
475,192,265862,1,2,0:0:0:0:
109,192,265948,1,4,0:0:0:0:
182,192,266034,1,4,0:0:0:0:
109,192,266120,1,4,0:0:0:0:
256,192,266206,1,12,0:0:0:0:
402,192,266293,1,0,0:0:0:0:
475,192,266293,1,0,0:0:0:0:
256,192,266379,1,12,0:0:0:0:
402,192,266465,1,0,0:0:0:0:
475,192,266465,1,0,0:0:0:0:
256,192,266551,1,2,0:0:0:0:
402,192,266637,1,0,0:0:0:0:
475,192,266637,1,0,0:0:0:0:
256,192,266724,1,12,0:0:0:0:
36,192,266810,1,0,0:0:0:0:
109,192,266810,1,0,0:0:0:0:
256,192,266896,1,12,0:0:0:0:
36,192,266982,1,0,0:0:0:0:
109,192,266982,1,0,0:0:0:0:
256,192,267068,1,12,0:0:0:0:
36,192,267155,1,0,0:0:0:0:
109,192,267155,1,0,0:0:0:0:
256,192,267241,1,2,0:0:0:0:
36,192,267327,1,0,0:0:0:0:
109,192,267327,1,0,0:0:0:0:
182,192,267413,1,4,0:0:0:0:
475,192,267413,1,4,0:0:0:0:
402,192,267500,1,4,0:0:0:0:
256,192,267500,1,4,0:0:0:0:
36,192,267586,128,4,270344:0:0:0:0:
329,192,267586,128,0,267758:0:0:0:0:
182,192,267758,128,0,267931:0:0:0:0:
256,192,267931,128,8,268103:0:0:0:0:
329,192,268103,128,0,268275:0:0:0:0:
182,192,268103,128,0,268275:0:0:0:0:
402,192,268275,128,0,268448:0:0:0:0:
475,192,268275,128,0,268448:0:0:0:0:
109,192,268448,128,0,268620:0:0:0:0:
329,192,268448,128,0,268620:0:0:0:0:
182,192,268620,128,8,268793:0:0:0:0:
402,192,268620,128,8,268793:0:0:0:0:
256,192,268793,128,0,268965:0:0:0:0:
329,192,268793,128,0,268965:0:0:0:0:
402,192,268965,128,0,269137:0:0:0:0:
329,192,269137,128,0,269310:0:0:0:0:
109,192,269310,128,8,269482:0:0:0:0:
182,192,269482,128,0,269655:0:0:0:0:
329,192,269482,128,0,269655:0:0:0:0:
402,192,269655,128,0,269827:0:0:0:0:
475,192,269655,128,0,269827:0:0:0:0:
109,192,269827,128,0,270000:0:0:0:0:
256,192,269827,128,0,270000:0:0:0:0:
182,192,270000,128,8,270172:0:0:0:0:
329,192,270000,128,8,270172:0:0:0:0:
402,192,270172,128,0,270344:0:0:0:0:
256,192,270344,128,0,270517:0:0:0:0:
109,192,270517,128,0,270689:0:0:0:0:
182,192,270689,128,8,270862:0:0:0:0:
256,192,270862,128,0,271034:0:0:0:0:
475,192,270862,128,0,271034:0:0:0:0:
402,192,271034,128,0,271206:0:0:0:0:
329,192,271034,128,0,271206:0:0:0:0:
36,192,271206,128,0,271379:0:0:0:0:
256,192,271206,128,0,271379:0:0:0:0:
109,192,271379,128,8,271551:0:0:0:0:
329,192,271379,128,8,271551:0:0:0:0:
402,192,271551,128,0,271724:0:0:0:0:
256,192,271724,128,0,271896:0:0:0:0:
109,192,271896,128,0,272068:0:0:0:0:
182,192,272068,128,8,272241:0:0:0:0:
256,192,272241,128,0,272413:0:0:0:0:
402,192,272241,128,0,272413:0:0:0:0:
36,192,272413,128,0,272586:0:0:0:0:
182,192,272413,128,0,272586:0:0:0:0:
109,192,272586,128,0,272758:0:0:0:0:
329,192,272586,128,0,272758:0:0:0:0:
256,192,272758,128,8,272931:0:0:0:0:
475,192,272758,128,8,272931:0:0:0:0:
402,192,272931,128,0,273103:0:0:0:0:
36,192,273103,1,0,0:0:0:0:
329,192,273103,1,0,0:0:0:0:
182,192,273275,1,0,0:0:0:0:
36,192,273448,1,0,0:0:0:0:
256,192,273448,1,8,0:0:0:0:
329,192,273448,1,0,0:0:0:0:
182,192,273620,1,0,0:0:0:0:
109,192,273793,1,0,0:0:0:0:
182,192,273965,1,0,0:0:0:0:
256,192,274137,1,8,0:0:0:0:
402,192,274137,1,8,0:0:0:0:
475,192,274137,1,8,0:0:0:0:
329,192,274310,1,0,0:0:0:0:
256,192,274482,1,0,0:0:0:0:
475,192,274482,1,0,0:0:0:0:
402,192,274655,1,0,0:0:0:0:
475,192,274827,1,0,0:0:0:0:
182,192,274827,1,0,0:0:0:0:
256,192,274827,1,8,0:0:0:0:
329,192,275000,1,0,0:0:0:0:
402,192,275172,1,0,0:0:0:0:
475,192,275172,128,0,275862:0:0:0:0:
329,192,275344,1,0,0:0:0:0:
36,192,275517,1,8,0:0:0:0:
182,192,275517,1,8,0:0:0:0:
256,192,275517,1,8,0:0:0:0:
109,192,275689,1,0,0:0:0:0:
182,192,275862,1,0,0:0:0:0:
402,192,275862,1,0,0:0:0:0:
256,192,276034,1,0,0:0:0:0:
329,192,276206,1,0,0:0:0:0:
402,192,276206,1,8,0:0:0:0:
475,192,276206,1,0,0:0:0:0:
256,192,276379,1,0,0:0:0:0:
182,192,276551,1,0,0:0:0:0:
109,192,276724,1,0,0:0:0:0:
182,192,276896,1,8,0:0:0:0:
256,192,276896,1,8,0:0:0:0:
329,192,276896,1,8,0:0:0:0:
36,192,277068,1,0,0:0:0:0:
109,192,277068,1,0,0:0:0:0:
256,192,277241,1,4,0:0:0:0:
402,192,277241,1,4,0:0:0:0:
475,192,277241,1,0,0:0:0:0:
256,192,277413,1,4,0:0:0:0:
402,192,277413,1,4,0:0:0:0:
475,192,277413,1,0,0:0:0:0:
256,192,277586,1,8,0:0:0:0:
182,192,277586,1,8,0:0:0:0:
36,192,277586,1,0,0:0:0:0:
256,192,277758,1,4,0:0:0:0:
475,192,277758,1,4,0:0:0:0:
182,192,277758,1,0,0:0:0:0:
256,192,277931,1,0,0:0:0:0:
402,192,277931,1,4,0:0:0:0:
475,192,277931,1,4,0:0:0:0:
256,192,278103,1,0,0:0:0:0:
402,192,278103,1,4,0:0:0:0:
475,192,278103,1,4,0:0:0:0:
36,192,278275,1,8,0:0:0:0:
182,192,278275,1,8,0:0:0:0:
256,192,278275,1,8,0:0:0:0:
109,192,278448,1,4,0:0:0:0:
329,192,278448,1,4,0:0:0:0:
256,192,278534,1,4,0:0:0:0:
182,192,278534,1,4,0:0:0:0:
402,192,278620,1,4,0:0:0:0:
475,192,278620,1,4,0:0:0:0:
36,192,278965,1,0,0:0:0:0:
182,192,278965,1,8,0:0:0:0:
256,192,278965,1,0,0:0:0:0:
109,192,279137,1,0,0:0:0:0:
256,192,279310,1,0,0:0:0:0:
329,192,279482,1,0,0:0:0:0:
182,192,279482,1,0,0:0:0:0:
36,192,279655,1,8,0:0:0:0:
109,192,279655,1,8,0:0:0:0:
256,192,279655,1,8,0:0:0:0:
475,192,279827,128,0,280000:0:0:0:0:
256,192,280000,1,0,0:0:0:0:
329,192,280000,1,0,0:0:0:0:
402,192,280172,128,0,280344:0:0:0:0:
182,192,280172,1,0,0:0:0:0:
256,192,280344,1,8,0:0:0:0:
329,192,280344,1,0,0:0:0:0:
109,192,280344,1,0,0:0:0:0:
36,192,280517,128,0,280689:0:0:0:0:
182,192,280517,1,0,0:0:0:0:
256,192,280689,1,0,0:0:0:0:
109,192,280862,128,0,281034:0:0:0:0:
329,192,280862,1,0,0:0:0:0:
475,192,280862,1,0,0:0:0:0:
256,192,281034,1,8,0:0:0:0:
182,192,281034,1,8,0:0:0:0:
402,192,281034,1,8,0:0:0:0:
329,192,281206,128,0,281379:0:0:0:0:
36,192,281379,1,0,0:0:0:0:
182,192,281379,1,0,0:0:0:0:
256,192,281551,128,0,281724:0:0:0:0:
109,192,281551,1,0,0:0:0:0:
329,192,281724,1,8,0:0:0:0:
475,192,281724,1,8,0:0:0:0:
36,192,281724,1,8,0:0:0:0:
182,192,281896,128,0,282068:0:0:0:0:
402,192,281896,1,0,0:0:0:0:
329,192,282068,1,0,0:0:0:0:
256,192,282241,128,0,282413:0:0:0:0:
402,192,282241,1,0,0:0:0:0:
475,192,282241,1,0,0:0:0:0:
109,192,282413,1,8,0:0:0:0:
182,192,282413,1,8,0:0:0:0:
36,192,282413,1,8,0:0:0:0:
329,192,282586,128,0,282758:0:0:0:0:
109,192,282758,1,0,0:0:0:0:
256,192,282758,1,0,0:0:0:0:
402,192,282931,128,0,283103:0:0:0:0:
36,192,282931,1,0,0:0:0:0:
109,192,283103,1,0,0:0:0:0:
256,192,283103,1,8,0:0:0:0:
329,192,283103,1,0,0:0:0:0:
182,192,283275,128,0,283448:0:0:0:0:
36,192,283275,1,0,0:0:0:0:
109,192,283448,1,0,0:0:0:0:
109,192,283620,128,0,283793:0:0:0:0:
182,192,283620,1,0,0:0:0:0:
256,192,283620,1,0,0:0:0:0:
329,192,283793,1,8,0:0:0:0:
402,192,283793,1,8,0:0:0:0:
475,192,283793,1,8,0:0:0:0:
256,192,284137,128,0,284482:0:0:0:0:
402,192,284137,1,4,0:0:0:0:
109,192,284137,1,4,0:0:0:0:
475,192,284482,1,8,0:0:0:0:
36,192,284482,1,0,0:0:0:0:
182,192,284482,1,0,0:0:0:0:
329,192,284482,1,8,0:0:0:0:
109,192,284655,1,4,0:0:0:0:
402,192,284655,1,4,0:0:0:0:
109,192,285000,1,4,0:0:0:0:
402,192,285000,1,4,0:0:0:0:
36,192,285172,1,8,0:0:0:0:
182,192,285172,1,8,0:0:0:0:
329,192,285172,1,0,0:0:0:0:
475,192,285172,1,0,0:0:0:0:
109,192,285344,1,4,0:0:0:0:
402,192,285344,1,4,0:0:0:0:
109,192,285517,1,4,0:0:0:0:
402,192,285517,1,4,0:0:0:0:
256,192,285517,128,0,285862:0:0:0:0:
36,192,285862,1,0,0:0:0:0:
182,192,285862,1,0,0:0:0:0:
329,192,285862,1,8,0:0:0:0:
475,192,285862,1,8,0:0:0:0:
109,192,286034,1,4,0:0:0:0:
402,192,286034,1,4,0:0:0:0:
109,192,286379,1,4,0:0:0:0:
402,192,286379,1,4,0:0:0:0:
36,192,286551,1,8,0:0:0:0:
182,192,286551,1,8,0:0:0:0:
329,192,286551,1,0,0:0:0:0:
475,192,286551,1,0,0:0:0:0:
109,192,286724,1,4,0:0:0:0:
402,192,286724,1,4,0:0:0:0:
36,192,286896,1,0,0:0:0:0:
182,192,286896,1,4,0:0:0:0:
256,192,286896,1,4,0:0:0:0:
329,192,286896,1,4,0:0:0:0:
475,192,286896,1,0,0:0:0:0:
36,192,287068,1,0,0:0:0:0:
256,192,287068,1,4,0:0:0:0:
182,192,287068,1,4,0:0:0:0:
329,192,287068,1,4,0:0:0:0:
475,192,287068,1,0,0:0:0:0:
109,192,287241,1,8,0:0:0:0:
402,192,287241,1,8,0:0:0:0:
36,192,287413,1,0,0:0:0:0:
182,192,287413,1,4,0:0:0:0:
329,192,287413,1,4,0:0:0:0:
475,192,287413,1,0,0:0:0:0:
109,192,287586,1,4,0:0:0:0:
402,192,287586,1,4,0:0:0:0:
256,192,287672,1,4,0:0:0:0:
36,192,287758,1,4,0:0:0:0:
329,192,287758,1,4,0:0:0:0:
182,192,287844,1,4,0:0:0:0:
109,192,287931,1,8,0:0:0:0:
402,192,287931,1,8,0:0:0:0:
256,192,288017,1,4,0:0:0:0:
182,192,288103,1,4,0:0:0:0:
475,192,288103,1,4,0:0:0:0:
329,192,288189,1,4,0:0:0:0:
109,192,288275,1,4,0:0:0:0:
402,192,288275,1,4,0:0:0:0:
329,192,288362,1,4,0:0:0:0:
475,192,288448,1,4,0:0:0:0:
256,192,288448,1,4,0:0:0:0:
182,192,288534,1,4,0:0:0:0:
109,192,288620,1,8,0:0:0:0:
402,192,288620,1,8,0:0:0:0:
256,192,288706,1,4,0:0:0:0:
109,192,288793,1,4,0:0:0:0:
36,192,288793,1,0,0:0:0:0:
475,192,288793,1,0,0:0:0:0:
402,192,288793,1,4,0:0:0:0:
182,192,288879,1,4,0:0:0:0:
329,192,288879,1,4,0:0:0:0:
36,192,288965,1,0,0:0:0:0:
109,192,288965,1,4,0:0:0:0:
402,192,288965,1,4,0:0:0:0:
475,192,288965,1,0,0:0:0:0:
36,192,289137,1,0,0:0:0:0:
109,192,289137,1,4,0:0:0:0:
402,192,289137,1,4,0:0:0:0:
475,192,289137,1,0,0:0:0:0:
36,192,289310,1,0,0:0:0:0:
109,192,289310,1,4,0:0:0:0:
402,192,289310,1,4,0:0:0:0:
475,192,289310,1,0,0:0:0:0:
36,192,289655,1,0,0:0:0:0:
182,192,289655,1,4,0:0:0:0:
256,192,289655,1,4,0:0:0:0:
329,192,289655,1,4,0:0:0:0:
475,192,289655,1,0,0:0:0:0:
