osu file format v8

[General]
AudioFilename: 11_Propane Nightmares (VIP Remix).mp3
AudioLeadIn: 0
PreviewTime: 43697
Countdown: 2
SampleSet: Normal
StackLeniency: 0.7
Mode: 0
LetterboxInBreaks: 1

[Editor]
Bookmarks: 22334,66472,88542,98198,99577,110611,132680
DistanceSpacing: 0.800000011920929
BeatDivisor: 2
GridSize: 8

[Metadata]
Title:Propane Nightmares (VIP Remix)
Artist:Pendulum
Creator:Ephemeral
Version:Insane
Source:In Silico Special Edition
Tags:

[Difficulty]
HPDrainRate:8
CircleSize:4
OverallDifficulty:8
ApproachRate:8
SliderMultiplier:1.8
SliderTickRate:2

[Events]
//Background and Video events
//Break Periods
//Storyboard Layer 0 (Background)
Sprite,Background,Centre,"18.jpg",320,240 F,0,0,,0
//Storyboard Layer 1 (Fail)
//Storyboard Layer 2 (Pass)
//Storyboard Layer 3 (Foreground)
//Storyboard Sound Samples
//Background Colour Transformations
3,100,0,0,0

[TimingPoints]
249,344.827586206897,4,2,0,100,1,0
30412,-200,4,2,0,100,0,0
33515,-100,4,2,0,100,0,0
44403,-100,4,1,0,100,0,1
54059,-100,4,1,0,100,0,0
55438,-100,4,1,0,100,0,1
66472,-100,4,1,0,100,0,0
88534,-100,4,1,0,100,0,1
98190,-100,4,1,0,100,0,0
99569,-100,4,1,0,100,0,1
110603,-100,4,1,0,100,0,0

[Colours]
Combo1 : 255,150,0
Combo2 : 5,240,5
Combo3 : 5,5,240
Combo4 : 240,5,5

[HitObjects]
384,48,22317,1,4
112,136,23007,5,0
200,248,23352,1,2
248,304,23524,1,0
384,144,24042,1,0
256,88,24386,1,4
272,232,24731,1,2
136,272,25076,6,0,B|88:224|104:104|176:64,1,180,0|2
192,56,25593,1,2
264,40,25766,2,0,B|368:16|432:96|408:136,1,180,0|2
272,112,26455,1,0
328,160,26628,1,2
264,184,26800,1,2
128,232,27145,2,0,B|184:392|432:304|376:160,1,360
160,72,28524,6,0,B|104:72|56:152|88:232,1,180,0|2
120,272,29042,1,0
328,320,29559,1,2
280,264,29731,1,0
352,248,29904,1,4
496,232,30249,1,2
440,192,30593,6,4,B|416:8|320:-32|184:-32|64:0|0:240|192:328,1,720
256,40,34042,6,0,B|328:24|392:88|384:144,1,180,2|0
384,208,34559,1,0
192,296,35076,1,0
112,176,35421,2,0,B|128:72|240:56,1,180,2|2
184,192,36111,6,0,B|304:88,1,90,0|2
304,184,36455,2,0,B|187:284,1,90,0|2
296,288,36800,2,0,B|413:178,1,90,0|2
392,160,37145,1,0
288,64,37490,1,0
176,160,37835,1,2
256,192,38007,12,4,38869
128,312,39559,5,0
168,176,39904,1,2
152,248,40076,2,0,B|192:352|352:280|344:184|264:144,1,270
192,72,40938,1,2
328,112,41283,1,0
256,192,41628,12,4,44386
112,96,44731,5,8
256,256,45249,1,0
320,224,45421,1,8
232,112,45766,1,4
368,168,46111,1,8
184,56,46628,1,0
248,24,46800,1,8
368,104,47145,6,0,B|288:160,1,90,0|2
336,216,47490,2,0,B|448:136,1,90,12|2
448,224,47835,2,0,B|360:288,1,90,0|2
312,312,48180,2,0,B|232:192,1,90,12|2
280,168,48524,1,4
224,120,48697,1,2
160,152,48869,1,12
160,224,49042,1,2
216,272,49214,1,4
168,320,49386,1,8
112,272,49559,1,8
64,136,49904,6,0,B|88:72|168:48|224:72,1,180,0|8
272,104,50421,1,0
328,152,50593,1,0
184,160,50938,1,8
128,200,51111,2,0,B|48:200|48:320|136:320,1,180,0|0
168,264,51628,1,8
168,264,51973,1,4
256,64,52662,6,2,L|248:80|200:48|208:104|160:72|184:136,1,180
256,192,53352,2,2,L|264:208|312:176|304:232|352:200|328:264,1,180
256,320,54042,1,2
256,192,54386,12,4,55421
152,144,55766,5,8
360,88,56283,1,0
400,144,56455,1,8
256,120,56800,1,0
248,264,57145,1,8
80,128,57662,1,0
128,184,57835,1,8
256,192,58180,6,0,B|208:168|216:112,1,90,0|2
256,192,58524,2,0,B|280:144|336:152,1,90,8|2
256,192,58869,2,0,B|304:216|296:272,1,90,0|2
256,192,59214,2,0,B|232:240|176:232,1,90,8|2
128,184,59559,5,0
168,120,59731,1,2
240,96,59904,1,8
304,120,60076,1,2
352,176,60249,1,0
336,248,60421,1,8
288,304,60593,1,8
128,288,60938,5,4
64,160,61283,1,8
272,200,61800,1,0
336,232,61973,1,8
280,104,62317,2,0,B|168:248,1,180,0|8
144,176,62835,2,0,B|208:88,1,90,0|0
128,104,63180,1,0
128,104,63352,1,8
232,240,63697,6,0,B|216:144|304:80,1,180,0|8
368,56,64214,1,0
432,184,64559,1,0
488,232,64731,1,8
352,184,65076,1,0
296,232,65249,1,8
392,128,65593,5,0
336,80,65766,1,8
272,112,65938,1,0
208,80,66111,1,8
168,144,66283,1,0
104,184,66455,1,4
392,152,67145,5,0
368,296,67490,2,0,C|328:208,1,90,8|0
296,152,67835,1,0
256,288,68180,1,8
208,152,68524,2,0,C|184:248,1,90,0|8
120,216,68869,2,0,C|144:120,1,90,0|8
200,80,69214,1,4
336,48,69559,5,8
408,168,69904,1,0
368,112,70076,1,0
320,168,70249,2,0,C|256:96,1,90,8|0
208,56,70593,2,0,B|160:16|64:32|40:104,1,180,0|8
192,120,71283,1,4
120,128,71455,1,8
160,184,71628,1,4
160,184,71800,1,8
224,216,71973,1,4
184,80,72317,5,8
320,32,72662,2,0,B|400:16|480:72|440:192,1,180,0|8
384,160,73180,1,0
448,200,73352,2,0,B|456:264|408:328|288:296,1,180,0|8
200,248,74042,1,0
152,192,74214,1,8
184,128,74386,1,4
232,184,74559,1,8
304,184,74731,1,4
400,296,75076,5,8
424,152,75421,1,0
328,40,75766,1,8
184,40,76111,1,0
128,88,76283,1,2
128,224,76628,1,0
240,320,76973,1,0
312,312,77145,1,2
392,192,77490,5,4
128,72,78180,5,0
120,224,78524,2,0,B|104:176|144:144,1,90,8|0
184,200,78869,1,0
320,248,79214,1,8
224,144,79559,1,0
280,184,79731,1,8
288,112,79904,1,0
344,152,80076,1,8
352,80,80249,1,4
208,56,80593,5,8
88,136,80938,2,0,B|48:184|56:264|120:312,1,180,0|8
168,328,81455,1,8
176,256,81628,2,0,B|248:320,1,90,0|0
248,240,81973,1,8
168,120,82317,2,0,B|232:56,1,90,0|8
232,56,82662,2,0,C|328:96,1,90,0|8
376,128,83007,1,4
456,248,83352,5,8
312,224,83697,1,0
360,280,83869,1,0
400,344,84042,1,8
272,280,84386,2,0,B|328:352,1,90
240,352,84731,1,8
112,280,85076,1,0
112,280,85249,1,8
72,216,85421,1,0
72,216,85593,1,8
144,208,85766,1,4
144,64,86111,5,8
288,56,86455,2,2,B|344:48|400:104|400:176,1,180,2|8
328,176,86973,2,2,B|331:123|271:122,1,90,2|0
256,192,87317,1,2
88,328,87835,5,0
186,312,88007,1,0
288,320,88180,1,0
408,240,88524,5,4
408,96,88869,5,8
192,56,89386,1,0
240,104,89559,1,8
96,104,89904,2,0,B|48:144|48:232|90:271,1,180,0|8
144,232,90421,2,0,B|112:184|148:150,1,90,0|0
208,192,90766,1,0
264,240,90938,1,8
376,152,91283,6,0,C|312:88,1,90,0|2
368,40,91628,2,0,B|424:48|424:104,1,90,8|2
352,112,91973,2,0,B|280:168,1,90,0|2
280,168,92317,2,0,C|208:224,1,90,8|2
152,264,92662,5,0
96,216,92835,1,2
96,144,93007,1,8
144,88,93180,1,2
216,96,93352,1,0
280,64,93524,1,8
336,112,93697,1,8
200,152,94042,5,4
80,232,94386,2,0,B|112:336|232:368,1,180,8|0
208,280,94904,1,0
160,232,95076,1,8
232,208,95249,1,0
232,208,95421,2,0,B|376:80,1,180,0|8
424,48,95938,1,0
280,32,96283,1,0
224,80,96455,1,8
256,272,96800,6,2,L|248:288|200:256|208:312|160:280|184:344,1,180
256,192,97317,5,2
256,192,97662,5,2
256,112,97835,6,2,L|264:128|312:96|304:152|352:120|328:184,1,180,2|2
256,192,98524,12,4,99559
392,80,99904,5,8
176,80,100421,1,0
144,144,100593,1,8
144,216,100766,1,0
200,264,100938,1,0
256,128,101283,1,8
376,304,101800,1,0
328,248,101973,1,8
256,128,102317,6,0,C|136:96,1,90,0|2
200,168,102662,2,0,C|304:240,1,90,8|2
200,224,103007,2,0,C|104:200,1,90,0|2
160,256,103352,2,0,C|240:312,1,90,8|2
304,320,103697,1,0
368,288,103869,1,2
416,240,104042,1,8
432,168,104214,1,2
416,96,104386,1,0
368,40,104559,1,8
296,16,104731,1,8
256,152,105076,5,4
184,24,105421,1,8
88,128,105766,2,0,B|48:168|80:224,1,90
104,272,106111,1,8
160,320,106283,1,0
224,344,106455,2,0,B|268:366|312:336,1,90
376,312,106800,1,8
432,264,106973,1,0
456,192,107145,1,0
440,120,107317,1,0
392,64,107490,1,8
256,16,107835,6,0,B|160:0|32:64|8:224|80:376|264:368,1,540
156,223,109214,6,2,B|140:71|316:31|484:95|436:399|148:383|196:103|308:215,1,540
256,192,110593,5,4
360,104,110938,5,8
440,224,111283,1,0
320,304,111628,1,8
184,272,111973,1,0
120,144,112317,1,8
248,72,112662,1,0
288,128,112835,1,8
240,176,113007,1,0
288,232,113180,1,8
240,288,113352,1,4
96,320,113697,5,8
88,176,114042,2,0,B|72:128|112:88,1,90
152,32,114386,1,8
232,24,114559,2,2,B|280:16|328:40,1,90,2|0
384,72,114904,2,2,B|456:144|416:240,1,180,2|2
368,296,115421,1,0
296,312,115593,1,8
232,280,115766,1,0
208,208,115938,1,8
256,152,116111,1,4
128,80,116455,5,8
264,32,116800,2,0,B|368:40|399:152,1,180,0|8
256,104,117490,2,0,B|312:104|336:192,1,90
376,208,117835,1,8
256,288,118180,2,0,B|168:264,1,90,0|8
168,264,118524,2,0,C|176:168,1,90,0|8
248,208,118869,1,4
184,88,119214,5,8
328,64,119559,1,0
376,120,119731,1,0
304,136,119904,1,8
408,232,120249,1,0
336,256,120421,1,2
216,280,120766,1,2
128,168,121111,1,0
104,104,121283,1,10
232,48,121628,5,4
360,112,121973,1,8
232,168,122317,1,0
360,232,122662,1,8
232,304,123007,1,0
112,224,123352,1,8
136,80,123697,1,0
176,136,123869,1,8
208,72,124042,1,0
248,128,124214,1,8
280,64,124386,1,4
400,136,124731,5,8
408,280,125076,1,0
280,344,125421,1,8
208,320,125593,1,0
264,272,125766,2,0,C|368:192,1,90
280,176,126111,1,8
160,256,126455,1,0
136,184,126628,1,8
152,112,126800,1,0
208,64,126973,1,8
280,56,127145,1,4
400,136,127490,5,8
368,272,127835,2,2,B|312:352|200:328,1,180,2|10
112,224,128524,2,2,B|192:280|296:248,1,180,2|10
336,200,129042,1,0
264,184,129214,2,2,B|176:200|112:160|128:104,1,180,2|10
200,112,129731,1,0
256,64,129904,1,4
384,120,130249,5,8
272,208,130593,2,0,C|200:272,1,90
136,288,130938,1,8
152,216,131111,2,0,B|64:174|38:81,1,180
256,48,131973,5,0
256,120,132145,5,2
256,192,132317,5,8
256,336,132662,5,4
