osu file format v9

[General]
AudioFilename: 03 - Propane Nightmares.mp3
AudioLeadIn: 3000
PreviewTime: -1
Countdown: 1
SampleSet: Normal
StackLeniency: 0.7
Mode: 0
LetterboxInBreaks: 1

[Editor]
Bookmarks: 95,22113,44197,66265,88334,110403,132472,154541,176610,198679,220748,242817,264886,286955,309024
DistanceSpacing: 0.8
BeatDivisor: 4
GridSize: 8

[Metadata]
Title:Propane Nightmares
Artist:Pendulum
Creator:Mercurial
Version:Collab
Source:
Tags:In Silico

[Difficulty]
HPDrainRate:7
CircleSize:4
OverallDifficulty:7
ApproachRate:9
SliderMultiplier:1.8
SliderTickRate:1

[Events]
//Background and Video events
0,0,"BG Mercu.jpg"
//Break Periods
2,198879,220148
//Storyboard Layer 0 (Background)
//Storyboard Layer 1 (Fail)
//Storyboard Layer 2 (Pass)
//Storyboard Layer 3 (Foreground)
//Storyboard Sound Samples
//Background Colour Transformations
3,100,163,162,255

[TimingPoints]
95,344.827586206897,4,1,0,50,1,0
22113,344.827586206897,4,2,0,50,1,0
22113,-200,4,2,0,50,0,0
44197,344.827586206897,4,1,0,20,1,0
154541,-100,4,1,0,70,0,0
154584,-100,4,2,0,50,0,0
154886,-100,4,1,0,50,0,0
155748,-100,4,2,0,40,0,0
155921,-100,4,1,0,50,0,0
156093,-100,4,2,0,40,0,0
156265,-100,4,2,0,60,0,0
156438,-100,4,1,0,50,0,0
156610,-100,4,1,0,60,0,0
157300,-100,4,1,0,70,0,0
157343,-100,4,1,0,50,0,0
158162,-100,4,2,0,40,0,0
158334,-100,4,1,0,50,0,0
158507,-100,4,2,0,40,0,0
158679,-100,4,2,0,60,0,0
158852,-100,4,1,0,60,0,0
160231,-100,4,2,0,40,0,0
160403,-100,4,1,0,50,0,0
160576,-100,4,2,0,40,0,0
160748,-100,4,2,0,60,0,0
160921,-100,4,1,0,50,0,0
161093,-100,4,1,0,60,0,0
161265,-100,4,2,0,60,0,0
161438,-100,4,1,0,50,0,0
161610,-100,4,2,0,60,0,0
161783,-100,4,1,0,50,0,0
161955,-100,4,2,0,70,0,0
162128,-100,4,1,0,50,0,0
162472,-100,4,1,0,50,0,0
166093,-100,4,2,0,60,0,0
166265,-100,4,1,0,50,0,0
166438,-100,4,2,0,60,0,0
166610,-100,4,1,0,50,0,0
166783,-100,4,1,0,40,0,0
166955,-100,4,1,0,50,0,0
167472,-100,4,2,0,60,0,0
167645,-100,4,1,0,50,0,0
167990,-100,4,1,0,60,0,0
168090,-200,4,1,0,60,0,0
168334,-100,4,1,0,70,0,0
168421,-100,4,1,0,50,0,0
169110,-100,4,2,0,60,0,0
169369,-100,4,1,0,50,0,0
169541,-100,4,2,0,60,0,0
169714,-100,4,1,0,50,0,0
186610,-66.6666666666667,4,1,0,50,0,0
186783,-100,4,1,0,50,0,0
196955,-66.6666666666667,4,1,0,50,0,0
197128,-100,4,1,0,50,0,0
289024,-200,4,1,0,50,0,0
289369,-100,4,2,0,60,0,0
289800,-100,4,1,0,50,0,0
290231,-100,4,1,0,60,0,0
291783,-200,4,1,0,50,0,0
291955,-200,4,2,0,60,0,0
292128,-200,4,1,0,50,0,0
292472,-100,4,1,0,50,0,0
292817,-100,4,2,0,60,0,0
292990,-100,4,1,0,50,0,0
294541,-200,4,2,0,60,0,0
294886,-100,4,2,0,60,0,0
295059,-100,4,1,0,50,0,0
295576,-100,4,2,0,60,0,0
295748,-100,4,1,0,50,0,0
308679,-200,4,2,0,60,0,0
309110,-100,4,2,0,5,0,0

[Colours]
Combo1 : 255,150,0
Combo2 : 5,240,5
Combo3 : 5,5,240
Combo4 : 240,5,5

[HitObjects]
256,192,22113,5,0
256,192,23492,5,0
184,64,24181,1,0
256,56,24526,1,0
328,64,24871,1,0
256,304,26078,2,0,B|256:240,1,45
256,192,27630,5,0
256,192,29009,5,0
48,240,30044,1,0
72,264,30216,1,0
104,280,30388,1,0
216,288,30906,2,0,B|272:288,1,45
408,280,31768,5,0
400,208,32113,1,0
368,144,32457,1,0
312,96,32802,1,0
256,48,33147,5,0
256,336,34526,5,0
216,200,35216,2,0,B|256:160|296:200,2,90
256,40,37113,2,0,B|256:88,1,45
256,192,38664,5,0
256,192,40044,5,0
408,40,41078,1,0
432,72,41250,1,0
448,104,41423,1,0
448,208,41940,1,0
440,240,42113,1,0
256,192,42457,12,0,43837
304,240,44197,5,8
273,126,44714,1,0
190,209,45231,1,0
354,218,45576,5,8
229,93,46093,1,0
184,264,46610,1,0
403,152,46955,5,8
312,152,47300,1,0
256,56,47645,1,0
192,152,47990,1,0
109,152,48334,1,8
176,288,48679,1,0
328,288,49024,1,0
192,96,49714,6,0,B|216:40|216:40|240:64|264:32|336:80,1,180,0|8
448,32,50403,1,0
408,152,50748,1,0
288,136,51093,2,0,B|304:200|304:200|272:216|272:216|304:224|320:264|264:296,1,180,0|8
176,328,51783,1,0
136,208,52128,1,0
256,192,52472,12,0,55231
200,336,55576,5,0
88,296,55921,5,8
176,216,56265,1,0
184,200,56438,2,0,B|192:64|368:32,1,270
408,32,57300,1,8
496,104,57645,1,0
373,122,57990,1,0
480,176,58334,1,0
376,232,58679,1,8
499,250,59024,1,0
411,322,59369,2,0,B|352:336|352:336|384:296|384:296|312:320,2,180,0|0|8
88,48,60748,5,0
32,168,61093,1,0
168,168,61438,1,8
224,48,61783,1,0
240,48,61955,2,0,B|248:152|296:24|448:80|472:152,1,270
472,184,62817,5,8
329,222,63162,1,0
440,288,63507,2,0,B|512:384|208:368|120:32|488:368|312:368|240:336,1,360
224,328,64369,1,0
192,312,64541,1,8
168,296,64714,1,0
144,272,64886,5,8
112,272,64972,1,0
80,272,65059,1,0
48,264,65145,1,0
24,240,65231,1,8
24,208,65317,1,0
32,176,65403,1,0
48,152,65490,1,0
72,128,65576,6,0,B|120:88,3,45,8|0|0|0
136,80,65921,2,0,B|192:56,3,45,8|0|0|0
168,88,66265,6,0,B|256:112|348:88,1,180
164,192,66955,1,0
256,256,67128,1,0
348,192,67300,1,0
348,192,67472,6,0,B|360:296|480:328,1,180
256,344,67990,1,0
54,318,68162,2,0,B|152:293|164:192,1,180
64,212,68679,1,0
448,212,69024,6,0,B|432:112|336:80,1,180
64,212,69714,1,0
96,128,69887,1,0
172,81,70059,1,0
256,192,70231,6,0,B|304:272|400:312,1,180
120,304,70748,1,0
256,192,70921,2,0,B|208:112|112:72,1,180
392,80,71438,1,0
344,360,71783,6,0,B|256:336|164:360,1,180
345,256,72472,1,0
256,192,72646,1,0
168,256,72817,1,0
168,256,72990,6,0,B|256:280|348:256,1,180
256,192,73507,1,0
166,127,73679,2,0,B|256:104|344:128,1,180
256,192,74197,1,0
8,104,74541,6,0,B|40:304,1,180
475,281,75231,2,0,B|504:104,1,180
104,144,75921,6,0,B|120:240,1,90
393,232,76265,2,0,B|408:144,1,90
408,144,76610,5,0
256,72,76782,1,0
104,144,76955,1,0
255,371,77300,6,0,B|159:363|98:294,1,180
413,294,77989,1,0
344,348,78162,1,0
256,372,78334,1,0
256,372,78507,6,0,B|256:192,1,180
160,100,79024,1,0
256,12,79197,2,0,B|256:192,1,180
352,284,79714,1,0
118,344,80059,6,0,B|200:284|164:176,1,180
394,40,80748,1,0
342,112,80921,1,0
344,200,81093,1,0
344,200,81265,6,0,B|256:240|168:200,1,180,0|0
256,88,81783,1,0
168,304,81955,2,0,B|255:343|342:304,1,180
256,88,82472,1,0
40,40,82817,22,0,B|120:104|86:208,1,180
472,40,83507,1,0
420,112,83679,1,0
423,201,83852,1,0
424,200,84024,22,0,B|344:264|378:368,1,180
256,264,84541,1,0
136,361,84714,2,0,B|168:264|88:200,1,180
256,120,85231,1,0
504,280,85576,6,0,B|472:80,1,180
36,102,86265,1,0
22,192,86438,1,0
8,280,86610,1,0
408,240,86956,6,0,B|392:144,1,90
118,151,87300,2,0,B|104:240,1,90
104,240,87645,5,0
256,312,87817,1,0
408,240,87990,1,0
256,72,88162,1,0
256,192,88334,5,0
192,232,88679,1,0
220,296,89024,1,0
292,296,89369,1,0
320,232,89714,1,0
256,192,90059,1,0
144,280,90403,6,0,B|92:352,1,90
368,280,90748,2,0,B|420:352,1,90
256,312,91093,1,0
256,192,91438,5,0
192,152,91783,1,0
220,88,92128,1,0
292,88,92473,1,0
320,152,92818,1,0
144,104,93162,6,0,B|92:32,1,90
368,104,93507,2,0,B|420:32,1,90
256,72,93852,1,0
116,228,94197,5,0
176,356,94541,1,0
396,228,94886,1,0
336,356,95230,1,0
132,108,95576,1,0
256,48,95921,5,0
256,48,96093,1,0
380,108,96265,1,0
380,108,96438,1,0
256,192,96610,1,0
256,192,96955,5,0
152,36,97300,1,0
360,36,97645,1,0
256,192,97990,1,0
256,48,98334,1,0
192,320,98679,1,0
256,352,98852,1,0
320,320,99024,1,0
256,192,99369,5,0
52,192,99714,2,0,B|136:352,1,180
460,192,100403,2,0,B|376:32,1,180
256,192,101093,1,0
120,148,101438,6,0,B|100:192|120:236,1,90
392,235,101783,2,0,B|412:192|392:148,1,90
256,192,102128,1,0
392,148,102472,5,0
120,236,102817,1,0
120,148,103162,1,0
392,236,103507,1,0
256,192,103852,1,0
256,308,104197,5,0
256,76,104369,1,0
196,132,104542,1,0
316,252,104714,1,0
256,192,104887,1,0
112,192,105231,6,0,B|73:221|86:284|139:322|181:299,1,180
400,192,105921,2,0,B|438:221|425:284|372:322|330:299,1,180
256,192,106610,1,0
208,84,106956,5,0
160,136,107128,1,0
352,136,107300,1,0
304,84,107472,1,0
256,32,107645,1,0
256,192,107990,1,0
132,244,108334,6,0,B|144:344|256:400|368:344|380:244,1,360
256,192,109197,1,0
256,192,109369,1,0
256,192,109541,12,0,110059
256,72,110403,6,0,B|280:152|216:152|256:252,1,180,4|8
156,252,110921,1,0
204,340,111093,1,0
304,340,111265,1,0
348,252,111438,1,8
256,212,111610,1,0
156,252,111783,6,0,B|60:252|60:252|12:180,1,180,0|2
8,160,112214,1,8
12,136,112300,1,0
72,72,112472,1,0
136,136,112645,1,0
136,136,112817,1,10
396,72,113162,6,0,B|492:112|492:212,1,180,0|8
424,268,113679,1,0
408,280,113765,1,0
388,292,113852,1,8
300,300,114024,1,0
256,220,114197,2,0,B|256:120,1,90,8|0
256,40,114541,1,0
256,40,114714,1,0
256,40,114886,1,8
60,296,115231,6,0,B|60:348|128:348,1,90,8|0
208,300,115576,1,0
312,300,115748,1,0
412,300,115921,6,0,B|412:252|452:224|452:224|412:204|412:144,1,180,0|8
344,76,116438,1,0
324,64,116524,1,0
308,48,116610,1,0
256,132,116783,2,0,B|256:228,1,90,0|8
200,52,117128,1,0
184,68,117214,1,0
168,84,117300,6,0,B|104:148,1,90,0|2
160,216,117645,1,0
228,288,117817,1,2
328,288,117990,1,8
396,216,118162,1,2
396,216,118334,1,2
328,288,118507,6,0,B|328:348|264:344,1,90,0|8
172,344,118852,1,0
92,284,119024,1,8
40,200,119197,1,8
28,180,119283,1,0
16,160,119369,1,0
24,60,119541,2,0,B|112:60,1,90,0|8
196,116,119886,2,0,B|256:204,2,90
256,36,120403,1,8
256,36,120576,1,0
356,36,120748,6,0,B|408:36|436:72,1,90,8|0
432,172,121093,2,0,B|404:207|352:207,1,90,0|8
276,268,121438,2,0,B|276:312|276:348|276:348|212:376|176:348,1,180,4|0
188,252,121955,5,0
188,228,122041,1,0
188,204,122128,1,0
180,104,122300,2,0,B|180:60|180:60|212:27,1,90,0|8
312,28,122645,2,0,B|344:60|344:60|344:104,1,90,0|2
344,204,122990,5,2
416,272,123162,1,0
344,340,123334,1,2
272,272,123507,1,0
172,272,123679,2,0,B|124:272|124:272|88:244,1,90,2|2
156,172,124024,1,0
156,172,124197,1,0
452,40,124541,5,4
452,140,124714,2,0,B|452:232,1,90
364,272,125059,2,0,B|272:272,1,90,0|8
188,224,125403,2,0,B|188:134,1,90
268,76,125748,1,0
184,24,125921,1,8
100,76,126093,1,0
56,164,126265,6,0,B|28:212|68:260,1,90
128,320,126610,1,8
216,364,126783,1,0
300,312,126955,2,0,B|348:312|384:336|384:336|420:312|476:312,1,180,4|8
412,232,127472,2,0,B|412:187,2,45
316,212,127817,2,0,B|268:212|236:176,1,90,0|8
236,176,128162,1,0
332,80,128334,5,2
236,52,128507,2,0,B|140:52|140:52|72:120,1,180,0|2
80,212,129024,1,0
140,292,129197,1,0
240,296,129369,1,2
292,212,129541,1,0
256,192,129714,12,0,130748
256,96,131093,5,4
256,96,131438,1,8
256,124,131610,1,8
256,152,131783,1,8
256,180,131955,5,8
256,208,132128,1,8
256,236,132300,1,8
256,256,132472,5,4
336,136,132817,2,0,B|256:64|176:136,1,180,8|0
160,208,133334,1,0
104,256,133507,1,8
176,280,133679,6,0,B|256:352|336:280,1,180
384,184,134197,2,0,B|344:104,1,90,8|0
256,168,134541,2,0,B|256:264,2,90,0|0|8
168,104,135059,1,0
168,104,135231,6,0,B|128:128|120:136|120:136|112:144|112:264,1,180,0|8
264,104,135921,2,0,B|304:144|344:144,1,90
400,192,136265,1,8
264,279,136438,6,0,B|304:240|342:240,2,90
192,280,136955,2,0,B|104:264,1,90,8|0
274,192,137300,2,0,B|184:192,1,90,0|0
264,88,137645,1,8
192,104,137817,2,0,B|104:120,1,90,0|4
56,256,138334,6,0,B|112:304|112:304|128:360|192:360,1,180,8|0
256,328,138852,2,0,B|256:240,1,90,0|8
256,168,139197,5,0
152,184,139369,1,0
216,272,139541,2,0,B|256:312|296:272,1,90,0|8
360,184,139886,1,0
488,152,140059,1,0
400,88,140231,1,0
456,256,140403,2,0,B|400:304|400:304|384:360|320:360,1,180,8|0
256,272,140921,5,0
192,360,141093,1,8
192,72,141438,1,0
256,160,141610,1,0
320,72,141783,1,8
400,192,141955,6,0,B|368:280,1,90,0|0
256,368,142300,2,0,B|256:280,2,90,8|0|0
144,280,142817,1,8
88,96,142990,1,0
256,192,143162,1,0
376,104,143507,6,0,B|416:192|376:280,1,180,4|8
136,280,144197,1,0
72,192,144369,1,0
136,104,144541,1,8
240,80,144714,6,0,B|336:80|416:120,1,180
352,160,145231,1,8
352,224,145403,1,0
240,304,145576,2,0,B|336:304|416:264,2,180,0|8|0
176,264,146438,5,0
104,256,146610,1,8
408,64,146955,1,0
336,72,147127,1,0
272,120,147300,1,8
432,168,147472,6,0,B|360:224|328:312,1,180
272,120,147990,2,0,B|336:184,1,90,8|0
168,144,148334,2,0,B|231:207,1,90
183,312,148679,2,0,B|152:225|80:168,1,180,8|4
112,312,149369,5,8
400,312,149714,1,0
312,248,149886,1,0
256,344,150059,1,8
200,248,150231,6,0,B|200:296|184:336,1,90
311,247,150576,2,0,B|312:296|328:336,1,90,0|8
408,144,150921,2,0,B|384:192|336:192,1,90
103,143,151265,2,0,B|128:192|174:191,1,90,0|8
32,272,151783,5,0
112,344,151955,1,0
128,240,152128,1,8
400,344,152472,1,0
464,168,152645,1,0
384,240,152817,1,8
480,272,152990,1,0
464,64,153162,5,0
368,112,153334,2,0,B|344:80|344:24,1,90,8|0
215,83,153679,2,0,B|256:120|296:84,1,90,0|8
168,24,154024,6,0,B|168:80|144:112,1,90,0|8
120,136,154283,1,0
96,160,154369,1,0
80,192,154455,1,0
72,224,154541,6,0,B|176:216,1,90,4|2
232,96,154886,2,0,B|280:176|248:280,2,180,0|0|0
144,64,155748,1,2
96,144,155921,2,0,B|112:192|96:240,1,90
184,352,156265,2,0,B|168:304|184:256,1,90,2|0
264,304,156610,1,0
352,328,156783,1,8
352,328,156955,1,0
440,336,157128,1,8
400,256,157300,22,0,B|376:168|424:72,2,180,4|0|0
472,200,158162,1,2
320,40,158334,2,0,B|312:144,1,90
216,232,158679,2,0,B|224:128,1,90,2|0
144,104,159024,2,0,B|128:296,1,180
56,232,159541,1,8
24,144,159714,1,0
24,144,159886,1,8
64,64,160059,22,0,B|104:32|160:48,1,90,4|2
312,96,160403,2,0,B|272:128|216:112,1,90,0|6
256,32,160748,1,2
344,16,160921,1,0
400,88,161093,1,0
360,168,161265,1,6
440,200,161438,2,0,B|464:240|456:296,1,90,4|0
400,360,161783,1,0
400,360,161955,1,4
312,320,162128,22,0,B|248:320|208:344,1,90,4|2
32,224,162472,2,0,B|96:224|136:200,1,90,0|2
152,128,162817,38,0,B|224:96|304:120,1,135,4|2
368,112,163162,2,2,B|368:168|296:200,1,90,0|2
240,208,163507,2,2,B|184:120|256:32,1,180
336,16,164024,1,2
424,40,164197,21,4
472,112,164369,1,2
408,240,164541,21,4
368,328,164714,1,2
320,256,164886,1,4
384,128,165058,21,2
368,328,165231,1,6
176,280,165403,1,2
80,144,165576,6,0,B|136:168|192:136|192:136|256:96,1,180,4|2
264,16,166093,1,0
272,184,166265,2,0,B|192:224,1,90,0|2
104,240,166610,2,0,B|23:280,1,90,0|4
96,336,166955,22,0,B|200:360|264:280,1,180,4|4
264,200,167472,1,2
208,56,167645,2,0,B|192:104|200:152,1,90,4|2
328,336,167990,2,0,B|344:288|336:240,1,90,4|2
288,112,168334,6,0,B|296:224|416:232,2,180,4|2|0
376,144,169197,1,2
360,56,169369,2,0,B|312:24|272:24,1,90
208,88,169714,2,0,B|160:184|48:144,1,180
120,80,170231,1,2
184,216,170403,22,0,B|240:312,1,90,4|2
328,168,170748,2,0,B|272:72,1,90,4|2
32,312,171093,38,0,B|128:280|200:352,1,180,4|6
288,344,171610,1,0
368,296,171783,2,0,B|416:288|448:232,1,90
496,96,172128,2,0,B|410:124,1,90,6|0
272,104,172472,2,0,B|272:48|312:0,1,90
272,240,172817,2,0,B|186:268,1,90,6|0
128,200,173162,21,4
48,160,173334,1,2
48,160,173507,1,0
120,104,173679,1,2
200,144,173852,6,2,B|352:160,1,135,4|0
384,96,174197,2,2,B|368:56|384:8,1,90
424,184,174541,1,6
360,248,174714,1,0
360,248,174800,1,0
360,248,174886,1,2
272,224,175059,1,2
240,136,175231,22,2,B|240:80|240:80|272:40,1,90
168,200,175576,1,2
152,208,175748,1,0
186,362,175921,2,2,B|208:336|208:336|208:280,1,90
8,136,176265,2,2,B|8:264,1,90,0|2
88,312,176610,2,2,B|176:336|272:312,1,180,0|2
264,312,177128,1,0
368,176,177300,1,2
264,208,177472,1,2
96,136,177817,5,2
48,208,177990,2,2,B|0:168|0:112|16:64|80:48|80:48,1,180,0|2
208,56,178507,1,0
309,157,178679,1,2
60,56,178852,1,0
280,184,179197,5,2
315,113,179369,2,2,B|376:144|376:256|288:264,1,180,0|2
160,256,179886,1,0
262,358,180059,1,2
312,258,180231,1,2
248,128,180576,5,2
200,72,180748,2,2,B|144:176,1,90
88,128,181093,2,0,B|136:40,1,90
131,48,181438,1,2
322,240,181783,1,2
322,240,181955,1,2
432,144,182128,6,2,B|392:56|312:32,1,135,0|2
312,32,182472,1,2
184,144,182645,1,0
312,256,182817,1,2
432,144,182990,1,2
232,344,183334,5,2
200,360,183421,1,0
168,376,183507,2,2,B|112:400|48:384|16:360,1,135,0|2
0,360,183852,1,2
88,208,184024,1,0
200,360,184197,1,2
0,360,184369,1,2
8,192,184714,5,2
24,160,184800,1,2
48,136,184886,2,0,B|128:112|128:112|128:112|144:96|144:96|144:64|144:64|144:64,1,135,0|2
144,32,185231,1,0
320,32,185403,1,0
192,159,185576,1,2
144,32,185748,1,2
264,104,186093,5,0
392,144,186265,2,2,B|424:188|399:236,1,90
136,256,186610,2,2,B|88:190|136:120,1,134.999995976687
256,192,186955,1,2
328,240,187128,1,0
344,200,187214,1,0
336,160,187300,1,2
256,112,187472,1,2
136,56,187645,6,2,B|64:120|32:208,1,180,0|2
32,304,188162,1,0
120,344,188334,1,0
208,304,188507,1,2
296,344,188679,1,0
384,304,188852,1,2
456,136,189024,6,2,B|381:83|285:90,1,180
192,128,189541,1,0
148,216,189714,2,0,B|188:232|236:216,1,90,0|2
232,40,190059,2,0,B|188:24|144:40,1,90,0|2
112,280,190403,6,0,B|196:320|296:276,1,180,0|2
389,177,190921,1,0
287,75,191093,1,2
288,76,191265,1,2
143,76,191438,1,0
144,76,191610,1,2
32,168,191783,6,0,B|-8:244|44:336,1,135
48,328,192128,2,0,B|88:380|172:384,1,135,2|0
200,380,192472,2,2,B|312:336|312:232,1,180
439,122,192990,1,2
292,20,193162,6,2,B|200:4|96:32,1,180,0|2
32,84,193679,1,0
96,160,193852,1,0
32,236,194024,1,2
96,312,194197,1,0
28,384,194369,1,2
208,384,194541,6,2,B|304:392|388:340,1,180,0|2
464,296,195059,1,0
464,176,195231,1,2
472,144,195317,1,2
480,112,195403,1,0
472,80,195490,1,0
456,48,195576,1,2
376,0,195748,1,2
216,0,195921,6,2,B|136:96|240:192,1,180,0|2
304,80,196438,1,0
392,40,196610,2,2,B|408:88|392:128,1,90
120,16,196955,6,2,B|88:88|128:176,1,134.999995976687
256,192,197300,12,0,198679
112,56,220748,6,0,B|200:104,1,90
191,99,221093,1,0
64,192,221265,2,0,B|164:198,1,90
153,197,221610,1,0
112,328,221783,2,0,B|200:280,1,90
320,284,222128,6,0,B|400:328,1,90
400,328,222472,1,0
358,197,222646,2,0,B|448:192,1,90
448,192,222990,1,0
320,99,223163,2,0,B|400:56,1,90
191,99,223507,6,0,B|112:56,1,90,0|0
320,284,223852,2,0,B|400:328,1,90,0|0
191,284,224197,2,0,B|112:328,1,90,0|0
320,99,224542,2,0,B|400:56,1,90,0|0
168,192,224886,6,0,B|240:168|272:216|352:192,2,180
256,32,225748,1,0
256,352,225921,1,0
344,96,226093,1,0
168,288,226265,6,0,B|64:256|80:136,1,180
168,96,226783,1,0
212,180,226955,2,0,B|256:196|300:180,1,90
344,96,227300,1,0
433,150,227472,1,0
433,150,227645,6,0,B|448:256|344:288,1,180
256,352,228162,1,0
166,287,228334,2,0,B|92:216,1,90
345,96,228679,2,0,B|420:168,1,90
256,192,229024,12,0,231783
72,49,232472,5,0
55,145,232645,1,0
140,184,232817,1,0
208,117,232990,1,0
168,32,233162,2,0,B|256:13|348:33,1,180
440,49,233679,1,0
457,145,233852,1,0
372,184,234024,1,0
304,117,234197,1,0
256,192,234369,1,0
209,267,234541,6,0,B|133:351,1,90
139,200,234886,2,0,B|40:192,1,90
303,117,235231,2,0,B|379:33,1,90
373,184,235576,2,0,B|472:192,1,90
148,50,235921,5,0
363,333,236265,1,0
256,192,236610,1,0
20,272,237300,6,0,B|56:364|164:352,1,180
116,268,237817,1,0
212,260,237990,2,0,B|176:168|67:180,1,180
492,112,238679,6,0,B|456:20|348:32,1,180
396,116,239196,1,0
299,123,239369,2,0,B|336:216|444:203,1,180
216,152,240059,5,0
296,232,240231,1,0
144,192,240403,1,0
368,192,240576,1,0
96,256,240748,1,0
416,128,240921,1,0
72,328,241093,1,0
440,56,241265,1,0
256,224,241438,5,0
256,216,241524,1,0
256,208,241610,1,0
256,200,241697,1,0
256,192,241783,1,0
256,184,241869,1,0
256,176,241955,1,0
256,168,242041,1,0
256,160,242128,5,0
256,56,242300,1,0
216,328,242472,2,0,B|328:328,1,90
336,264,242817,6,0,B|256:192|176:264,1,180,4|8
176,120,243507,1,0
256,88,243679,1,0
336,120,243852,1,8
400,80,244024,6,0,B|440:152|416:256,1,180
256,336,244541,1,8
95,255,244714,2,0,B|72:152|112:80,1,180
200,136,245231,1,8
312,136,245403,1,0
384,160,245576,6,0,B|376:256|288:304,1,180,0|8
128,161,246093,2,0,B|136:256|224:304,1,180,0|0
256,368,246610,1,8
256,224,246783,1,0
320,192,246955,6,0,B|375:120,1,90
256,152,247300,2,0,B|256:64,1,90,8|0
192,192,247645,2,0,B|136:120,1,90
32,24,247990,1,0
80,168,248334,6,0,B|80:240|88:256|88:256|120:296|168:296,1,180,4|8
432,167,248852,2,0,B|432:240|424:256|424:256|392:296|345:295,1,180
256,150,249369,2,0,B|256:240,1,90,8|0
304,96,249714,6,0,B|376:96|400:88|400:88|408:112|432:168,1,180,0|8
208,96,250231,2,0,B|136:96|112:88|112:88|104:112|80:168,1,180,0|0
184,192,250748,1,8
328,192,250921,1,0
408,216,251093,5,0
424,288,251265,1,0
368,336,251438,1,8
296,328,251610,1,0
104,216,251783,5,0
88,288,251955,1,0
144,336,252128,1,8
216,328,252300,1,0
256,272,252472,6,0,B|320:192|192:192|256:112,2,180,0|8|0
200,232,253334,1,0
312,152,253507,1,0
200,72,253852,6,0,B|112:112|112:216,1,180,4|8
312,72,254541,1,0
376,136,254713,1,0
400,224,254886,1,8
464,264,255059,6,0,B|424:328|360:288|360:288|312:320,1,180
256,152,255576,1,8
200,320,255748,2,0,B|152:288|152:288|88:328|48:264,1,180
112,232,256265,1,8
128,160,256438,1,0
56,184,256610,6,0,B|56:136|80:96|80:96|128:88|168:96,1,180,0|8
344,95,257128,2,0,B|384:88|432:96|432:96|456:136|456:184,1,180,0|0
384,192,257645,2,0,B|320:256,1,90,8|0
424,288,257990,6,0,B|360:352,1,90,0|0
127,192,258334,2,0,B|191:255,1,90,8|0
88,288,258679,2,0,B|151:351,2,90
80,144,259369,6,0,B|168:128|208:24,1,180,4|8
431,143,259886,2,0,B|344:128|305:27,1,180,0|0
256,80,260403,1,8
256,224,260576,1,0
328,264,260748,6,0,B|312:304|256:328|200:304|184:264,1,180,0|8
328,185,261265,2,0,B|312:144|256:120|200:144|184:184,1,180
112,192,261783,1,8
256,224,261955,1,0
400,192,262128,6,0,B|400:280,1,90
256,222,262472,2,0,B|256:312,1,90,8|0
112,192,262817,2,0,B|112:282,2,90,0|0|8
176,64,263334,1,0
176,64,263507,6,0,B|192:152,1,90,0|8
312,224,263852,1,0
200,224,264024,1,0
320,152,264197,6,0,B|336:64,1,90,8|8
40,104,264886,5,10
80,32,265231,2,2,B|248:80|272:40|320:8|448:80,1,360
384,128,266265,1,8
320,224,266438,1,8
256,128,266610,1,8
192,224,266783,1,8
128,128,266955,1,8
128,128,267300,2,0,B|80:240|208:264,1,180
352,256,267990,5,6
416,256,268162,2,2,B|416:128,1,90
264,232,268679,5,0
96,120,268852,1,0
96,32,269024,2,0,B|480:32,1,360
480,96,270059,2,0,B|480:224|320:192,1,180
400,120,270748,1,0
480,352,271438,5,4
32,352,271783,1,4
256,32,272128,1,4
256,96,272472,1,6
144,256,272645,1,6
368,256,272817,1,6
472,184,273162,2,0,B|472:96,2,90
408,184,273679,2,0,B|408:296,2,90
344,184,274197,2,0,B|256:184,2,90
256,80,275231,5,0
144,192,275403,1,0
256,312,275576,1,0
352,192,275748,1,0
256,144,275921,1,0
224,200,276093,1,0
288,200,276352,1,0
256,64,276610,5,0
424,80,276783,1,0
424,96,276869,1,0
424,112,276955,1,0
424,176,277128,1,0
424,240,277300,1,0
424,312,277645,6,0,B|336:320|232:280,1,180
256,192,278162,1,0
232,192,278248,1,0
208,192,278334,1,0
184,192,278421,1,0
160,192,278507,1,0
136,192,278593,1,0
112,192,278679,1,4
256,72,279369,6,0,B|256:160,1,90
256,240,279714,1,0
256,272,279800,1,0
256,304,279886,1,0
360,272,280059,1,2
416,160,280576,2,4,B|416:256,1,90
112,144,281093,2,0,B|192:96,2,90
256,192,281524,12,0,284110
416,304,284541,5,8
368,272,284714,1,8
128,304,284886,5,8
176,272,285059,1,8
128,192,285231,5,8
176,192,285403,1,8
128,80,285576,5,8
176,112,285748,1,8
408,72,285921,5,8
368,112,286093,1,8
416,192,286265,5,8
368,192,286438,5,8
320,192,286610,1,4
304,96,286955,6,2,B|120:64,1,180
48,112,287472,1,0
136,144,287645,2,2,B|248:136|272:16,1,180,2|0
512,48,288162,2,2,B|400:56|376:176,2,180
424,296,289024,6,2,B|448:208,1,90,2|4
288,232,289714,6,0,B|176:224|136:328,1,180,4|0
272,368,290231,1,0
80,232,290403,2,2,B|16:192|16:112|32:64,1,180,2|4
274,53,290921,2,2,B|240:144|128:136,2,180
416,136,291783,6,0,B|376:104,1,45,4|0
224,240,292128,2,0,B|264:208,1,45,4|0
448,280,292472,6,0,B|384:280|384:280|256:352,1,180,4|2
192,320,292990,1,0
144,248,293162,2,2,B|192:160|128:56,1,180,4|2
80,144,293679,2,2,B|280:176,2,180
224,64,294541,6,0,B|312:72,1,90,2|4
424,224,295059,1,0
295,321,295231,6,0,B|314:216|430:224,1,180,4|2
194,336,295748,1,0
223,250,295921,2,2,B|204:355|87:346,1,180,0|4
116,259,296438,2,2,B|164:80,2,180,2|0|2
37,214,297300,5,2
61,127,297472,1,0
290,65,297645,5,2
266,152,297817,1,2
461,223,297990,6,0,B|484:88|484:88|432:41,1,180,4|2
368,147,298507,1,0
270,373,298679,2,2,B|376:351|370:218,1,180
242,11,299197,2,2,B|136:33|142:166,2,180,2|4|2
256,192,300059,1,2
256,192,300403,1,2
256,192,300576,1,0
168,248,300748,6,0,B|160:296|184:352,1,90,4|0
344,136,301093,2,2,B|352:88|328:32,1,90,2|0
256,104,301438,2,2,B|288:160|224:240|256:296,1,180,2|0
320,336,301955,1,2
192,48,302300,1,2
392,256,302645,1,2
312,216,302817,6,0,B|272:176|224:192,1,90,2|4
96,264,303162,2,0,B|136:304|184:288,1,90,2|4
120,128,303507,6,0,B|16:104|16:104|112:88,1,180,4|2
176,64,304024,1,0
256,104,304197,2,2,B|352:168|456:72,1,180,2|4
488,264,304714,2,2,B|392:200|288:296,1,180
408,352,305231,1,0
488,264,305403,1,2
416,160,305576,6,2,B|408:72,1,90,2|0
384,32,305921,2,2,B|392:120,1,90
264,104,306265,6,0,B|152:80|152:80|192:144,1,180,4|2
240,312,306783,1,0
168,256,306955,2,2,B|56:96,1,180
344,128,307472,2,2,B|456:288,2,180
320,248,308334,1,2
472,160,308507,1,2
288,56,308679,6,0,B|344:136,1,90,0|4
256,192,309110,12,0,310403
