osu file format v6

[General]
AudioFilename: Pendulum - Hold Your Colour.mp3
AudioLeadIn: 0
PreviewTime: -1
Countdown: 1
SampleSet: Soft
StackLeniency: 0.4
Mode: 0
LetterboxInBreaks: 1

[Editor]
Bookmarks: 23103,66982,72758,78275,83793,227241,232758
DistanceSpacing: 1.39999997615814
BeatDivisor: 4
GridSize: 32

[Metadata]
Title:Hold Your Colour
Artist:Pendulum
Creator:Jono00
Version:Hard
Source:
Tags:Pendulum drum and bass game soundtrack

[Difficulty]
HPDrainRate:6
CircleSize:5
OverallDifficulty:7
SliderMultiplier:0.8
SliderTickRate:0.5

[Events]
//Background and Video events
0,0,"00000247.jpg"
//Break Periods
2,53302,54617
2,89510,108065
2,176751,178065
2,200544,209789
2,221924,226341
//Storyboard Layer 0 (Background)
//Storyboard Layer 1 (Fail)
//Storyboard Layer 2 (Pass)
//Storyboard Layer 3 (Foreground)
//Storyboard Sound Samples
//Background Colour Transformations
3,100,163,162,255

[TimingPoints]
0,344.827586206897,4,1,0,100,1,0
23103,-100,4,2,0,100,0,0
56091,-100,4,2,0,100,0,0
67126,-100,4,2,0,100,0,1
89482,-100,4,2,0,100,0,0

[Colours]
Combo1 : 255,255,0
Combo2 : 5,240,5
Combo3 : 5,5,240
Combo4 : 240,5,5
Combo5 : 255,150,0

[HitObjects]
256,192,23103,1,0
416,96,24482,5,0
320,96,25172,1,0
224,128,25517,1,0
160,192,26206,1,0
160,192,26896,5,0
224,128,27241,1,0
320,96,27701,1,0
416,96,28275,2,6,B|480:224|384:288|224:288,1,320
160,192,31379,5,4
224,192,31839,1,4
320,64,32413,1,0
288,96,32643,1,0
352,96,32988,2,0,B|320:128|320:128|352:128|352:128|320:160|320:160|352:160|352:160|320:192|320:192|352:192,1,213.333333333333
288,64,34137,1,4
448,64,35172,5,0
416,160,35517,1,0
384,256,36206,1,0
288,288,36551,2,4,B|216:286|128:224,1,160
96,192,37931,1,4
128,224,38620,2,2,B|192:288|288:256,3,160
352,192,42413,5,4
288,192,42873,1,4
320,224,43333,1,0
288,256,43563,1,0
256,224,44022,1,0
256,288,44252,1,0
224,256,44396,1,0
192,224,44568,1,0
160,192,44741,1,0
192,160,45172,1,4
448,192,46551,6,0,B|352:224|288:192,1,160
320,160,47586,2,0,B|352:288|448:256|480:160|288:256|224:160,1,320
416,96,49310,1,0
352,128,50000,1,0
352,64,50344,2,6,B|160:32|32:160|160:320|224:192|64:96|0:64|192:64|320:96|320:288,1,640
224,192,55517,6,2,B|288:160|320:192,1,80
416,160,56206,5,4
352,96,56551,1,8
288,160,57011,1,0
320,256,57413,1,4
384,256,57615,1,0
352,192,57930,1,8
160,64,58965,5,4
128,96,59310,1,8
96,64,59770,1,0
96,64,60172,1,4
128,96,60374,1,0
160,64,60689,1,8
320,352,61724,5,4
192,352,62069,1,8
256,352,62500,1,0
224,288,62931,1,4
288,288,63133,1,0
256,224,63448,1,8
288,64,64482,5,4
224,96,64827,1,8
352,96,65287,1,0
352,32,65689,1,4
352,160,65891,1,0
288,128,66206,1,8
416,96,67241,5,0
320,64,67586,1,8
352,160,67931,1,0
256,128,68275,1,8
256,224,68620,1,0
160,192,68965,1,8
192,256,69310,1,0
224,160,69655,1,8
320,160,70000,1,0
288,64,70344,1,8
416,32,70689,1,0
448,96,71034,1,8
416,160,71379,1,0
352,224,71724,1,8
288,192,72068,1,0
224,224,72413,1,8
320,320,72758,5,0
256,320,73103,1,8
256,256,73448,1,0
256,192,73792,1,8
256,128,74137,1,0
256,64,74482,1,8
192,64,74827,1,0
128,96,75172,1,8
128,160,75517,1,0
128,224,75861,1,8
192,224,76206,1,0
256,224,76551,1,8
320,224,76896,1,0
320,160,77241,1,8
320,96,77585,1,0
256,64,77930,1,8
32,64,78275,5,0
96,64,78620,1,8
160,64,78965,1,0
192,96,79309,1,8
160,128,79654,1,0
96,128,79999,1,8
32,128,80344,1,0
0,160,80689,1,8
32,192,81034,1,0
96,192,81378,1,8
160,192,81723,1,0
192,224,82068,1,8
160,256,82413,1,0
96,256,82758,1,8
32,256,83102,1,0
32,256,83447,1,8
224,352,83793,5,0
224,320,84138,1,8
192,352,84483,1,0
192,320,84827,1,8
160,352,85172,1,0
160,320,85517,1,8
224,288,85862,1,0
224,256,86207,1,8
192,288,86552,1,0
192,256,86896,1,8
160,288,87241,1,0
160,256,87586,1,8
160,128,87931,6,2,B|224:64,1,80
160,128,88620,2,2,B|256:128,1,80
384,192,89310,5,4
416,64,108965,5,0
320,128,109310,1,0
288,128,109655,1,0
192,128,110000,1,0
160,128,110344,1,0
96,64,110689,1,0
96,64,111034,1,0
448,384,112758,6,0,B|391:383|416:256,1,140
384,256,113448,2,0,B|352:256|352:320,1,60
352,320,113793,2,0,B|288:320|256:288|320:256|320:288|288:352|256:352,1,160
224,352,114568,2,0,B|160:256|288:288,1,140
275,285,115258,2,0,B|320:256|288:224,1,60
256,224,115603,2,0,B|192:224|192:192|192:256,1,80
192,288,116034,2,0,B|128:288|128:320|96:224,1,120
96,192,116637,2,0,B|209:191|184:126|184:126|208:105|288:128,1,220
480,192,117931,6,0,B|384:192,1,80
352,192,118362,2,0,B|384:128|384:128|352:128|352:128|320:96,1,140
384,64,119051,1,0
480,96,119310,2,0,B|416:160|416:160|480:192,1,160
480,224,120086,2,0,B|416:256|416:256|320:224,1,160
384,192,120862,2,0,B|320:96,1,100
288,96,121379,2,0,B|224:160|224:160|224:96|224:96|160:64|160:64|160:32,1,240
384,160,123793,6,0,B|480:160|416:256,1,140
384,256,124483,2,0,B|352:256|352:320,1,60
352,352,124827,2,0,B|256:352|224:256,1,160
256,224,125603,2,0,B|352:224|384:160,1,140
352,128,126293,2,0,B|396:98|364:66,1,60
352,64,126638,2,0,B|288:64|352:0|288:64,1,80
224,160,127255,1,0
256,192,127586,12,0,131379
160,160,132586,6,0,B|256:160|256:224,1,120
160,320,133448,5,0
160,256,133793,1,8
96,256,134138,1,0
224,256,134482,1,8
160,192,134827,1,0
96,192,135172,1,8
224,192,135517,1,0
160,128,135862,1,8
96,128,136207,1,0
224,128,136551,1,8
160,64,136896,1,0
160,128,137241,1,8
160,192,137586,1,0
160,256,137931,1,8
160,320,138275,1,0
160,64,138620,1,8
256,352,138965,5,0
256,320,139310,1,8
256,288,139655,1,0
256,256,139999,1,8
256,224,140344,1,0
256,192,140689,1,8
256,160,141034,1,0
288,128,141379,1,8
320,128,141724,1,0
352,128,142068,1,8
384,160,142413,1,0
352,192,142758,1,8
320,192,143103,1,0
288,192,143448,1,8
224,320,143793,1,0
288,192,144137,1,8
480,320,144482,5,0
288,320,144827,1,8
480,288,145172,1,0
288,288,145516,1,8
480,256,145861,1,0
288,256,146206,1,8
480,224,146551,1,0
288,224,146896,1,8
448,192,147241,1,0
320,192,147585,1,8
352,192,147930,1,0
416,192,148275,1,8
384,224,148620,1,0
384,256,148965,1,8
384,288,149309,1,0
384,320,149654,1,8
224,160,150000,5,0
192,160,150345,1,8
160,160,150690,1,0
128,160,151034,1,8
96,160,151379,1,0
64,128,151724,1,8
64,192,152069,1,0
64,96,152414,1,8
64,224,152759,1,0
96,64,153103,1,8
96,256,153448,1,0
128,64,153793,1,8
128,256,154138,1,0
160,64,154483,1,8
160,256,154827,1,0
224,160,155172,1,8
352,64,155517,6,0,B|415:62|480:128,1,133.333333333333
352,256,156551,6,0,B|352:192,1,60
352,160,156896,2,0,B|288:160,1,60
288,160,157241,1,0
256,256,157500,1,0
288,320,157758,2,0,B|352:352|352:288,1,80
416,288,158362,1,0
32,288,159310,5,0
96,256,159568,2,0,B|128:320|128:256,1,60
160,224,160000,1,0
128,192,160258,2,0,B|96:160|96:224,1,60
64,256,160689,1,0
32,224,160862,2,0,B|32:160|96:128,1,120
384,96,162068,5,0
416,128,162413,2,0,B|384:160,1,40
416,192,162758,1,0
480,160,163017,2,0,B|416:160,1,60
352,160,163448,1,0
352,224,163793,2,0,B|288:224|288:96,1,140
256,192,164827,5,0
320,192,165000,2,0,B|320:128|256:128|256:128|192:128|192:192|192:192|192:256|256:256|256:256|320:256|322:178,1,400
416,288,167586,5,0
352,288,167931,2,0,B|192:288,1,133.333333333333
224,224,168965,2,0,B|288:160|352:224,1,140
384,224,170344,2,0,B|352:288,1,60
384,288,170689,2,0,B|448:320,1,60
448,288,171034,2,0,B|480:224,1,60
416,320,172068,5,0
352,320,172413,2,0,B|224:288|192:256,1,160
192,224,173362,2,0,B|256:160,1,80
320,160,174137,1,0
288,224,174482,2,0,B|352:224|320:288,1,80
256,192,175172,12,0,176551
448,320,178965,6,0,B|320:288,1,120
352,192,179655,1,0
384,256,180000,2,0,B|448:224|416:352|352:320,1,140
352,352,180775,2,0,B|256:352|224:320,1,120
288,288,181465,2,0,B|288:256,1,20
224,256,181724,2,0,B|192:224|192:160,1,100
256,192,182327,2,0,B|288:128|320:160,1,80
352,192,182758,2,0,B|416:256|320:320|160:320,1,280
128,288,184137,5,0
128,224,184482,2,0,B|128:160|224:128,1,140
224,224,185172,1,0
352,224,185517,2,0,B|416:160|416:160|352:160,2,140
416,256,186896,2,0,B|384:320|352:320,1,80
320,320,187586,2,0,B|192:224|352:160|384:256,1,240
416,96,190000,6,0,B|416:32|352:64,1,80
320,32,190689,1,0
256,64,191034,2,0,B|192:64|256:160,2,120
192,64,192413,2,0,B|128:128,2,80
128,192,193448,1,0
96,320,193793,2,0,B|192:320|224:128|256:96|256:96|288:256|320:32|320:256|352:-32|352:224|384:32|352:288|416:224|416:0|480:32|501:138|507:256|256:352,1,860
96,96,198965,5,0
160,160,199310,1,0
256,128,199655,1,0
320,160,200344,1,0
256,192,210689,12,0,211379
448,224,211724,5,0
416,192,212068,1,0
384,224,212413,1,0
416,256,212758,1,0
352,256,213103,1,0
384,288,213448,2,0,B|448:352|384:384|320:352,1,160
288,320,214482,5,0
256,352,214827,1,0
256,288,215172,1,0
224,320,215517,1,0
224,256,215862,1,0
192,288,216206,2,0,B|128:288|96:224|192:192,1,160
224,160,217241,5,0
192,128,217586,1,0
256,128,217931,1,0
224,96,218275,1,0
288,96,218620,1,0
256,64,218965,2,0,B|224:-32|320:0|352:64,1,160
368,87,220000,5,0
400,55,220344,1,0
400,119,220689,1,0
432,87,221034,1,0
432,151,221379,1,0
464,119,221724,1,0
480,352,227241,5,0
448,320,227586,1,8
416,288,227931,1,0
384,256,228275,1,8
416,224,228620,1,0
384,192,228965,1,8
352,160,229310,1,0
320,160,229655,1,8
288,192,230000,1,0
320,224,230344,1,8
352,256,230689,1,0
384,288,231034,1,8
416,320,231379,1,0
448,288,231724,1,8
448,256,232068,1,0
416,224,232413,1,8
256,192,232758,5,0
256,128,233103,1,8
288,160,233448,1,0
320,192,233792,1,8
288,224,234137,1,0
256,256,234482,1,8
224,224,234827,1,0
192,192,235172,1,8
224,160,235517,1,0
256,128,235861,1,8
288,160,236206,1,0
320,192,236551,1,8
288,224,236896,1,0
256,256,237241,1,8
224,224,237585,1,0
256,192,237930,1,8
320,352,238276,5,0
352,352,238621,1,8
320,320,238966,1,0
352,320,239310,1,8
320,288,239655,1,0
352,288,240000,1,8
288,288,240345,1,0
288,320,240690,1,8
256,288,241035,1,0
256,320,241379,1,8
224,288,241724,1,0
224,320,242069,1,8
160,128,242414,6,2,B|224:64,1,80
160,128,243103,2,2,B|256:128,1,80
384,192,243793,5,4
384,64,245172,6,0,B|448:96|448:96|352:128,1,160
320,128,246206,2,0,B|256:192|256:192|352:192,2,160
352,96,247931,2,0,B|448:160|448:160|384:224,1,200
352,256,248965,2,0,B|256:192|256:192|352:96,1,240
320,128,251034,6,0,B|256:192,1,80
263,184,251724,2,0,B|192:128,1,80
200,134,252413,2,0,B|256:64,1,80
249,71,253103,2,0,B|320:128,1,80
320,128,253534,2,0,B|384:64,1,80
384,64,253965,2,0,B|455:121,1,80
416,128,254396,2,0,B|352:192,1,80
352,192,254827,2,0,B|423:249,1,80
416,288,255862,5,0
352,288,256206,2,0,B|192:256,1,160
195,256,257241,2,0,B|352:160,1,160
352,160,258017,2,0,B|320:64,1,100
320,64,258534,2,0,B|416:64,1,80
400,64,258965,2,0,B|480:96,1,80
474,93,259396,2,0,B|416:160,1,80
480,288,260344,6,0,B|352:352|160:320|160:320,1,320
160,224,262413,1,0
320,224,262758,1,0
256,192,263448,12,0,264827
