osu file format v12

[General]
AudioFilename: Girl In The Fire.mp3
AudioLeadIn: 0
PreviewTime: 81688
Countdown: 0
SampleSet: Normal
StackLeniency: 0.7
Mode: 0
LetterboxInBreaks: 1

[Editor]
Bookmarks: 85929,174550,185584
DistanceSpacing: 1.5
BeatDivisor: 4
GridSize: 4

[Metadata]
Title:Girl In The Fire
TitleUnicode:Girl In The Fire
Artist:Pendulum
ArtistUnicode:Pendulum
Creator:Liiraye
Version:Insane
Source:
Tags:
BeatmapID:269485
BeatmapSetID:101793

[Difficulty]
HPDrainRate:6
CircleSize:4
OverallDifficulty:7
ApproachRate:9
SliderMultiplier:1.4
SliderTickRate:1

[Events]
//Background and Video events
0,0,"BG1.png",0,0
//Break Periods
2,31127,38777
2,174750,184984
//Storyboard Layer 0 (Background)
//Storyboard Layer 1 (Fail)
//Storyboard Layer 2 (Pass)
//Storyboard Layer 3 (Foreground)
//Storyboard Sound Samples
//Background Colour Transformations
3,100,163,162,255

[TimingPoints]
3516,344.827586206897,4,2,0,70,1,0
20067,-100,4,1,0,60,0,0
86274,-80,4,1,0,80,0,1
149722,-100,4,1,0,80,0,0
152481,-80,4,1,0,80,0,1
171791,-100,4,1,0,80,0,0
196619,-80,4,1,0,80,0,1
237998,-100,4,1,0,80,0,0
240757,-80,4,1,0,80,0,1
282136,-100,4,1,0,80,0,0

[Colours]
Combo1 : 162,0,0
Combo2 : 255,128,128
Combo3 : 255,128,64
Combo4 : 128,0,255
Combo5 : 255,255,0

[HitObjects]
160,104,3515,2,0,P|156:144|164:192,1,70
260,208,3860,2,0,P|242:182|236:144,2,70
404,56,4549,2,0,P|424:128|424:192,1,140
336,256,5067,2,0,P|380:272|412:308,1,70
397,286,5411,1,0,0:0:0:0:
284,328,5584,2,0,P|264:300|256:264,1,70
242,179,5929,2,0,P|208:184|182:206,1,70
100,344,6273,6,0,L|60:208,1,140
76,104,6791,2,0,B|148:124|210:83,1,140
210,300,7825,1,0,0:0:0:0:
244,204,7998,1,0,0:0:0:0:
210,300,8170,2,0,P|284:292|331:251,1,140
352,148,8687,5,0,0:0:0:0:
424,224,8860,1,0,0:0:0:0:
352,148,9032,2,0,P|364:76|403:24,1,140
268,112,9549,1,0,0:0:0:0:
456,76,9721,1,0,0:0:0:0:
60,128,10411,5,0,0:0:0:0:
128,328,10929,1,0,0:0:0:0:
128,328,11446,1,0,0:0:0:0:
124,116,11791,2,0,P|132:188|164:252,1,140
216,340,12308,2,0,P|252:284|264:212,1,140
396,56,12998,5,0,0:0:0:0:
468,24,13170,1,0,0:0:0:0:
320,180,13515,1,0,0:0:0:0:
432,164,13687,1,0,0:0:0:0:
476,336,14032,1,0,0:0:0:0:
399,282,14205,1,0,0:0:0:0:
324,336,14377,1,0,0:0:0:0:
248,236,14549,6,0,P|188:272|160:334,1,140
47,345,15067,2,0,P|92:292|104:224,1,140
96,108,15756,2,0,L|64:36,1,70
268,108,16273,2,0,P|288:140|317:150,1,70
464,316,16791,2,0,L|445:248,1,70
484,44,17308,6,0,P|444:104|394:150,1,140
300,200,17825,2,0,P|240:236|234:300,1,140
104,76,18515,1,0,0:0:0:0:
80,284,18860,1,0,0:0:0:0:
104,184,19032,2,0,P|120:216|149:231,1,70
188,72,19377,2,0,L|200:144,1,70
267,214,19722,2,0,P|293:194|304:160,1,70
428,32,20067,6,0,P|476:92|468:164,1,140
444,260,20584,1,0,0:0:0:0:
444,260,20756,2,0,L|393:211,1,70
289,233,21101,1,0,0:0:0:0:
207,179,21273,2,0,P|191:258|220:304,1,140
80,64,21963,1,0,0:0:0:0:
296,64,22308,5,0,0:0:0:0:
190,28,22480,1,0,0:0:0:0:
80,64,22653,1,0,0:0:0:0:
80,64,22825,2,0,P|124:124|143:186,1,140
236,236,23342,2,0,L|229:166,2,70
340,224,23860,1,0,0:0:0:0:
488,88,24032,2,0,P|416:36|348:20,1,140
160,68,24722,5,0,0:0:0:0:
84,140,24894,1,0,0:0:0:0:
24,228,25067,1,0,0:0:0:0:
84,140,25239,2,0,L|96:208,1,70
432,320,25584,6,0,P|360:312|295:328,1,140
144,312,26101,1,0,0:0:0:0:
144,312,26273,2,0,L|208:339,1,70
172,220,26618,1,0,0:0:0:0:
24,56,26791,2,0,P|24:128|49:190,1,140
236,52,27480,1,0,0:0:0:0:
228,304,27825,5,0,0:0:0:0:
356,300,27998,1,0,0:0:0:0:
460,228,28170,1,0,0:0:0:0:
400,140,28342,2,0,P|339:95|283:115,1,140
234,236,28860,2,0,P|307:223|332:169,1,140
136,92,29549,1,0,0:0:0:0:
264,336,29894,2,0,B|304:308|360:364|399:336,1,140
412,232,30412,1,0,0:0:0:0:
447,71,30583,2,0,P|464:100|460:136,2,70
112,56,39377,5,0,0:0:0:0:
168,332,39721,1,0,0:0:0:0:
296,88,40066,1,0,0:0:0:0:
168,240,40239,1,0,0:0:0:0:
171,112,40411,1,0,0:0:0:0:
290,214,40583,2,0,P|325:220|358:213,1,70
424,84,40928,5,0,0:0:0:0:
424,84,41273,1,0,0:0:0:0:
412,252,41446,2,0,P|380:192|336:136,1,140
252,68,41963,1,0,0:0:0:0:
78,121,42135,6,0,B|74:139|74:139|80:152|80:152|72:160|72:160|80:168|80:168|72:180|72:180|80:188|80:188|72:200|72:200|80:208|80:208|72:220|72:220|80:228|80:228|76:240|76:240,1,140
268,324,42825,1,0,0:0:0:0:
188,196,42997,1,0,0:0:0:0:
188,196,43342,1,0,0:0:0:0:
472,284,43687,2,0,P|454:215|397:180,1,140
256,28,44377,5,0,0:0:0:0:
256,132,44549,1,0,0:0:0:0:
256,236,44721,1,0,0:0:0:0:
173,302,44894,2,0,P|224:352|287:341,1,140
168,176,45411,1,0,0:0:0:0:
64,316,45583,1,0,0:0:0:0:
28,152,45756,1,0,0:0:0:0:
28,152,46101,1,0,0:0:0:0:
268,340,46446,6,0,P|328:312|400:313,1,140
360,96,46963,2,0,L|340:240,1,140
341,235,47480,2,0,P|309:215|278:205,1,70
72,176,47997,2,0,P|88:140|115:122,1,70
164,216,48342,2,0,P|176:252|165:281,1,70
166,282,48859,1,0,0:0:0:0:
428,44,49204,6,0,P|384:96|319:125,1,140
120,60,49894,2,0,P|96:88|86:119,2,70
204,160,50411,1,0,0:0:0:0:
468,288,50756,1,0,0:0:0:0:
164,336,51101,1,0,0:0:0:0:
100,184,51273,1,0,0:0:0:0:
216,228,51445,1,0,0:0:0:0:
46,300,51618,6,0,P|75:279|107:271,1,70
256,300,51963,2,0,P|308:256|328:188,1,140
337,111,52480,2,0,P|380:152|328:188,1,140
224,136,52997,1,0,0:0:0:0:
140,52,53170,6,0,B|158:56|158:56|171:50|171:50|179:58|179:58|187:50|187:50|199:58|199:58|207:50|207:50|219:58|219:58|227:50|227:50|239:58|239:58|247:50|247:50|259:54|259:54,1,140
84,176,53859,1,0,0:0:0:0:
196,268,54032,1,0,0:0:0:0:
196,268,54377,1,0,0:0:0:0:
448,32,54721,2,0,L|429:170,1,140
208,48,55411,5,0,0:0:0:0:
120,108,55583,1,0,0:0:0:0:
208,168,55756,1,0,0:0:0:0:
272,88,55928,2,0,P|247:155|256:224,1,140
300,316,56446,1,0,0:0:0:0:
404,296,56618,1,0,0:0:0:0:
300,316,56790,2,0,P|248:285|170:275,1,140
88,68,57480,6,0,P|160:68|226:53,1,140
396,104,57997,2,0,B|340:120|340:120|306:148|271:163,1,140
144,228,58515,1,0,0:0:0:0:
288,244,58687,2,0,P|332:296|316:360,1,140
188,304,59204,1,0,0:0:0:0:
56,324,59377,1,0,0:0:0:0:
264,188,59549,2,0,P|197:178|132:206,1,140
336,340,60239,6,0,P|393:304|407:236,1,140
224,64,60928,1,0,0:0:0:0:
328,48,61101,2,0,B|353:112,1,70
396,208,61446,1,0,0:0:0:0:
84,108,61790,1,0,0:0:0:0:
296,336,62135,1,0,0:0:0:0:
104,224,62308,1,0,0:0:0:0:
220,332,62480,1,0,0:0:0:0:
222,222,62652,6,0,L|168:272,1,70
222,222,62997,2,0,P|234:171|210:79,1,140
312,120,63515,2,0,P|356:176|418:199,1,140
416,96,64032,1,0,0:0:0:0:
212,44,64204,6,0,P|132:76|96:136,2,140
208,148,65066,2,0,P|159:197|91:209,1,140
16,284,65583,1,0,0:0:0:0:
100,352,65756,2,0,P|156:312|228:312,1,140
225,311,66273,1,0,0:0:0:0:
316,256,66446,6,0,L|300:187,2,70
472,212,66963,2,0,P|420:268|414:328,1,140
304,312,67480,1,0,0:0:0:0:
272,220,67652,2,0,P|308:204|326:179,1,70
360,80,67997,1,0,0:0:0:0:
360,80,68170,2,0,P|288:84|220:44,1,140
124,68,68687,1,0,0:0:0:0:
28,256,68859,2,0,L|164:296,1,140
212,144,69377,1,0,0:0:0:0:
248,240,69549,1,0,0:0:0:0:
395,357,69721,6,0,B|336:312|352:232,2,140
188,240,70583,2,0,L|56:184,1,140
384,68,71273,2,0,P|436:120|448:196,1,140
244,140,71963,1,0,0:0:0:0:
152,88,72135,1,0,0:0:0:0:
60,36,72308,1,0,0:0:0:0:
76,216,72480,5,0,0:0:0:0:
328,32,72825,1,0,0:0:0:0:
248,312,73170,1,0,0:0:0:0:
216,152,73342,1,0,0:0:0:0:
248,312,73515,1,0,0:0:0:0:
171,266,73687,2,0,P|229:232|299:238,1,140
299,237,74377,1,0,0:0:0:0:
170,265,74549,2,0,P|160:192|116:136,1,140
32,84,75066,1,0,0:0:0:0:
252,32,75239,5,0,0:0:0:0:
252,32,75583,2,0,P|280:60|288:88,1,70
308,248,75928,2,0,L|301:178,1,70
208,132,76273,1,0,0:0:0:0:
108,168,76446,1,0,0:0:0:0:
228,340,76790,2,0,P|164:308|96:304,1,140
355,167,77480,5,0,0:0:0:0:
439,103,77652,1,0,0:0:0:0:
359,35,77825,1,0,0:0:0:0:
439,103,77997,2,0,B|471:175|453:239,1,140
456,348,78515,2,0,P|432:312|412:296,1,70
320,248,78859,1,0,0:0:0:0:
320,248,79204,1,0,0:0:0:0:
88,116,79549,6,0,P|154:88|194:32,1,140
28,49,80066,2,0,P|0:117|18:177,1,140
100,244,80583,1,0,0:0:0:0:
256,192,80756,12,0,85928,0:0:0:0:
172,304,86273,5,0,0:0:0:0:
316,96,86618,1,0,0:0:0:0:
352,224,86790,1,0,0:0:0:0:
363,257,86876,1,0,0:0:0:0:
374,290,86962,1,0,0:0:0:0:
492,228,87135,1,0,0:0:0:0:
388,148,87308,1,0,0:0:0:0:
256,236,87480,1,0,0:0:0:0:
256,236,87652,1,0,0:0:0:0:
224,108,87825,2,0,L|145:70,1,87.5
152,208,88170,1,0,0:0:0:0:
152,208,88256,1,0,0:0:0:0:
152,208,88342,1,0,0:0:0:0:
16,204,88515,5,0,0:0:0:0:
151,338,88687,1,0,0:0:0:0:
16,204,88859,1,0,0:0:0:0:
148,68,89032,2,0,L|328:52,1,175
448,84,89549,1,0,0:0:0:0:
420,108,89635,1,0,0:0:0:0:
396,132,89721,1,0,0:0:0:0:
456,248,89894,1,0,0:0:0:0:
336,300,90066,1,0,0:0:0:0:
232,176,90239,2,0,L|232:264,1,87.5
96,280,90583,1,0,0:0:0:0:
98,104,90756,1,0,0:0:0:0:
4,196,90928,5,0,0:0:0:0:
4,196,91015,1,0,0:0:0:0:
4,196,91101,1,0,0:0:0:0:
134,196,91273,1,0,0:0:0:0:
316,120,91446,1,0,0:0:0:0:
200,112,91618,1,0,0:0:0:0:
256,232,91790,2,0,P|344:256|416:220,1,175
400,88,92308,5,0,0:0:0:0:
364,84,92394,1,0,0:0:0:0:
328,80,92480,1,0,0:0:0:0:
208,28,92652,1,0,0:0:0:0:
88,80,92825,1,0,0:0:0:0:
76,260,92997,2,0,P|72:216|54:176,1,87.5
196,236,93342,1,0,0:0:0:0:
16,108,93515,1,0,0:0:0:0:
196,236,93687,1,0,0:0:0:0:
196,236,93773,1,0,0:0:0:0:
196,236,93859,1,0,0:0:0:0:
144,132,94032,5,0,0:0:0:0:
112,328,94204,1,0,0:0:0:0:
296,296,94377,1,0,0:0:0:0:
368,68,94549,2,0,L|405:238,1,175
260,112,95066,1,0,0:0:0:0:
260,76,95152,1,0,0:0:0:0:
260,40,95239,1,0,0:0:0:0:
28,140,95411,1,0,0:0:0:0:
140,76,95583,1,0,0:0:0:0:
28,140,95756,2,0,P|52:176|56:219,1,87.5
96,344,96101,1,0,0:0:0:0:
188,224,96273,1,0,0:0:0:0:
252,308,96446,5,0,0:0:0:0:
285,297,96532,1,0,0:0:0:0:
318,287,96618,1,0,0:0:0:0:
352,276,96704,1,0,0:0:0:0:
385,266,96790,1,0,0:0:0:0:
419,256,96877,1,0,0:0:0:0:
432,224,96963,5,0,0:0:0:0:
440,190,97049,1,0,0:0:0:0:
449,156,97135,1,0,0:0:0:0:
458,122,97221,1,0,0:0:0:0:
468,88,97308,6,0,P|392:48|304:32,1,175
356,152,97825,1,0,0:0:0:0:
244,84,97997,1,0,0:0:0:0:
84,68,98170,2,0,L|176:44,1,87.5
64,152,98515,1,0,0:0:0:0:
194,152,98687,1,0,0:0:0:0:
156,276,98859,1,0,0:0:0:0:
24,276,99032,1,0,0:0:0:0:
128,200,99204,1,0,0:0:0:0:
128,200,99290,1,0,0:0:0:0:
128,200,99377,1,0,0:0:0:0:
260,200,99549,1,0,0:0:0:0:
272,332,99721,1,0,0:0:0:0:
144,360,99894,5,0,0:0:0:0:
56,264,100066,2,0,L|16:176,1,87.5
68,60,100411,2,0,L|107:148,1,87.5
176,248,100756,2,0,P|184:208|216:168,1,87.5
300,72,101101,1,0,0:0:0:0:
336,196,101273,1,0,0:0:0:0:
336,196,101446,1,0,0:0:0:0:
404,20,101618,2,0,L|416:116,1,87.5
472,264,101963,1,0,0:0:0:0:
456,296,102049,1,0,0:0:0:0:
440,328,102135,1,0,0:0:0:0:
312,352,102308,1,0,0:0:0:0:
184,332,102480,1,0,0:0:0:0:
96,248,102652,5,0,0:0:0:0:
260,104,102825,1,0,0:0:0:0:
260,104,102997,1,0,0:0:0:0:
132,76,103170,1,0,0:0:0:0:
316,212,103342,1,0,0:0:0:0:
316,212,103428,1,0,0:0:0:0:
316,212,103515,1,0,0:0:0:0:
184,224,103687,1,0,0:0:0:0:
80,144,103859,1,0,0:0:0:0:
192,24,104032,1,0,0:0:0:0:
192,24,104118,1,0,0:0:0:0:
192,24,104204,1,0,0:0:0:0:
280,120,104377,6,0,P|313:146|363:158,1,87.5
444,36,104721,2,0,P|468:120|452:208,1,175
380,316,105239,1,0,0:0:0:0:
268,244,105411,1,0,0:0:0:0:
384,176,105583,1,0,0:0:0:0:
28,176,105928,5,0,0:0:0:0:
308,104,106273,1,0,0:0:0:0:
106,104,106446,1,0,0:0:0:0:
206,255,106618,2,0,L|206:168,1,87.5
206,167,107135,1,0,0:0:0:0:
48,324,107480,1,0,0:0:0:0:
116,212,107652,2,0,P|148:284|228:330,1,175
340,260,108170,1,0,0:0:0:0:
472,40,108342,6,0,L|332:156,1,175
240,64,108859,1,0,0:0:0:0:
240,64,108946,1,0,0:0:0:0:
240,64,109032,1,0,0:0:0:0:
116,104,109204,1,0,0:0:0:0:
212,196,109377,1,0,0:0:0:0:
46,280,109549,2,0,L|116:280,1,70
274,280,109894,1,0,0:0:0:0:
46,280,110066,1,0,0:0:0:0:
136,184,110239,1,0,0:0:0:0:
116,156,110325,1,0,0:0:0:0:
96,128,110411,1,0,0:0:0:0:
180,28,110583,5,0,0:0:0:0:
232,148,110756,2,0,L|304:96,1,87.5
457,30,111101,2,0,P|428:112|360:164,1,175
472,216,111618,1,0,0:0:0:0:
472,216,111704,1,0,0:0:0:0:
472,216,111790,1,0,0:0:0:0:
424,308,111963,1,0,0:0:0:0:
320,332,112135,1,0,0:0:0:0:
196,288,112308,2,0,L|159:208,1,87.5
36,160,112652,2,0,L|70:240,1,87.5
234,185,112997,5,0,0:0:0:0:
265,170,113083,1,0,0:0:0:0:
300,156,113170,2,0,L|456:79,1,175
324,56,113687,1,0,0:0:0:0:
324,56,113859,2,0,P|296:24|252:36,1,87.5
125,55,114205,2,0,P|97:23|53:35,1,87.5
128,140,114549,1,0,0:0:0:0:
140,172,114635,1,0,0:0:0:0:
152,204,114721,1,0,0:0:0:0:
20,188,114894,1,0,0:0:0:0:
236,112,115066,1,0,0:0:0:0:
20,188,115239,2,0,P|32:228|31:273,1,87.5
148,332,115583,6,0,P|168:296|204:269,1,87.5
205,270,115842,1,0,0:0:0:0:
205,270,115928,1,0,0:0:0:0:
328,316,116101,1,0,0:0:0:0:
452,276,116273,2,0,P|429:239|390:219,1,87.5
288,136,116618,2,0,B|306:140|306:140|319:134|319:134|327:142|327:142|335:134|335:134|347:142|347:142|355:134|355:134|367:142|367:142|375:134|375:134|387:142|387:142|395:134|395:134|408:142|408:142|417:134|417:134|428:140|428:140|440:140|440:140,1,175
340,44,117135,1,0,0:0:0:0:
304,40,117221,1,0,0:0:0:0:
268,36,117309,2,0,B|252:45|252:45|247:59|247:59|236:59|236:59|236:70|236:70|222:73|222:73|222:84|222:84|207:87|207:87|207:98,1,87.5
88,64,117652,1,0,0:0:0:0:
64,196,117826,2,0,B|55:212|55:212|57:226|57:226|48:232|48:232|53:241|53:241|42:251|42:251|48:261|48:261|37:270|37:270|43:280|43:280|32:290|32:290|38:299|38:299|27:310|27:310|32:321|32:321|23:330|23:330|20:341|20:341,1,175
156,184,118342,1,0,0:0:0:0:
237,273,118515,1,0,0:0:0:0:
237,273,118601,1,0,0:0:0:0:
237,273,118687,1,0,0:0:0:0:
237,273,118773,1,0,0:0:0:0:
237,273,118859,1,0,0:0:0:0:
248,240,118945,5,0,0:0:0:0:
259,207,119031,1,0,0:0:0:0:
270,174,119117,1,0,0:0:0:0:
281,140,119203,1,0,0:0:0:0:
292,107,119290,1,0,0:0:0:0:
305,73,119377,6,0,L|392:60,1,87.5
468,168,119721,2,0,L|372:152,1,87.5
300,256,120066,1,0,0:0:0:0:
300,256,120239,2,0,L|388:252,1,87.5
512,280,120583,2,0,L|445:339,1,87.5
504,180,120928,1,0,0:0:0:0:
380,220,121101,1,0,0:0:0:0:
447,336,121273,1,0,0:0:0:0:
447,336,121359,1,0,0:0:0:0:
447,336,121446,1,0,0:0:0:0:
316,336,121618,1,0,0:0:0:0:
220,248,121790,1,0,0:0:0:0:
304,148,121963,5,0,0:0:0:0:
240,36,122135,2,0,L|148:36,1,87.5
28,76,122480,1,0,0:0:0:0:
140,148,122652,1,0,0:0:0:0:
48,240,122825,2,0,L|48:144,1,87.5
16,320,123170,1,0,0:0:0:0:
16,320,123342,2,0,L|108:320,1,87.5
286,334,123687,2,0,B|296:348|248:256|167:213,1,175
280,148,124204,1,0,0:0:0:0:
408,124,124377,1,0,0:0:0:0:
424,252,124549,1,0,0:0:0:0:
292,268,124721,1,0,0:0:0:0:
424,252,124894,6,0,L|472:180,1,87.5
408,124,125239,2,0,L|324:76,1,87.5
208,124,125583,1,0,0:0:0:0:
52,124,125756,2,0,L|136:76,1,87.5
112,212,126101,1,0,0:0:0:0:
112,212,126188,1,0,0:0:0:0:
112,212,126273,1,0,0:0:0:0:
232,264,126447,1,0,0:0:0:0:
44,304,126619,1,0,0:0:0:0:
168,344,126791,1,0,0:0:0:0:
202,339,126877,1,0,0:0:0:0:
237,334,126963,1,0,0:0:0:0:
271,329,127049,1,0,0:0:0:0:
306,324,127136,6,0,L|376:271,1,87.5
384,140,127481,1,0,0:0:0:0:
292,48,127653,1,0,0:0:0:0:
4,140,127998,1,0,0:0:0:0:
280,140,128171,2,0,L|192:140,1,87.5
152,24,128516,1,0,0:0:0:0:
152,256,128688,1,0,0:0:0:0:
152,140,128860,1,0,0:0:0:0:
456,160,129205,6,0,L|424:68,2,87.5
496,284,129722,2,0,B|496:260|456:244|416:260|416:284|416:284|416:324|416:324|384:324,1,175
124,296,130412,1,0,0:0:0:0:
124,296,130584,2,0,L|124:208,1,87.5
20,132,130929,1,0,0:0:0:0:
56,32,131102,1,0,0:0:0:0:
168,36,131274,2,0,L|168:128,1,87.5
240,280,131619,1,0,0:0:0:0:
240,280,131964,2,0,L|328:280,1,87.5
416,184,132309,1,0,0:0:0:0:
416,184,132395,1,0,0:0:0:0:
416,184,132481,1,0,0:0:0:0:
504,280,132653,1,0,0:0:0:0:
472,112,132826,1,0,0:0:0:0:
308,72,132998,5,0,0:0:0:0:
176,84,133171,2,0,L|212:172,1,87.5
328,224,133516,1,0,0:0:0:0:
328,224,133688,2,0,L|292:144,1,87.5
236,264,134033,1,0,0:0:0:0:
132,184,134205,1,0,0:0:0:0:
60,76,134378,1,0,0:0:0:0:
60,76,134464,1,0,0:0:0:0:
60,76,134550,1,0,0:0:0:0:
56,212,134722,1,0,0:0:0:0:
192,136,134895,1,0,0:0:0:0:
148,280,135067,1,0,0:0:0:0:
148,280,135153,1,0,0:0:0:0:
148,280,135240,1,0,0:0:0:0:
272,176,135412,1,0,0:0:0:0:
364,88,135584,1,0,0:0:0:0:
364,88,135757,5,0,0:0:0:0:
416,180,135929,2,0,P|432:224|429:263,1,87.5
328,348,136274,1,0,0:0:0:0:
224,268,136447,1,0,0:0:0:0:
196,246,136533,1,0,0:0:0:0:
169,224,136619,1,0,0:0:0:0:
141,202,136705,1,0,0:0:0:0:
114,180,136791,1,0,0:0:0:0:
224,108,136964,1,0,0:0:0:0:
24,104,137136,2,0,P|116:88|176:24,1,175
172,32,137653,1,0,0:0:0:0:
36,188,137826,1,0,0:0:0:0:
44,224,137912,1,0,0:0:0:0:
52,260,137998,1,0,0:0:0:0:
220,320,138171,1,0,0:0:0:0:
96,356,138343,1,0,0:0:0:0:
184,200,138516,5,0,0:0:0:0:
344,56,138688,2,0,P|424:88|455:165,1,175
464,296,139205,1,0,0:0:0:0:
360,204,139378,1,0,0:0:0:0:
368,336,139550,1,0,0:0:0:0:
360,204,139722,1,0,0:0:0:0:
368,336,139895,2,0,P|292:320|248:240,1,175
288,116,140412,1,0,0:0:0:0:
180,40,140584,5,0,0:0:0:0:
150,58,140670,1,0,0:0:0:0:
120,76,140756,1,0,0:0:0:0:
90,95,140842,1,0,0:0:0:0:
61,113,140928,1,0,0:0:0:0:
31,132,141015,1,0,0:0:0:0:
48,164,141102,5,0,0:0:0:0:
77,182,141188,1,0,0:0:0:0:
112,184,141274,1,0,0:0:0:0:
145,173,141360,1,0,0:0:0:0:
176,152,141447,6,0,P|216:236|200:320,1,175
104,268,141964,1,0,0:0:0:0:
328,280,142136,1,0,0:0:0:0:
420,184,142309,2,0,P|368:124|279:92,1,175
152,104,142826,1,0,0:0:0:0:
52,16,142998,1,0,0:0:0:0:
152,104,143171,1,0,0:0:0:0:
28,148,143343,1,0,0:0:0:0:
28,148,143429,1,0,0:0:0:0:
28,148,143516,1,0,0:0:0:0:
136,224,143688,1,0,0:0:0:0:
256,172,143860,1,0,0:0:0:0:
260,36,144033,5,0,0:0:0:0:
288,260,144205,2,0,P|372:236|432:160,1,175
328,148,144722,1,0,0:0:0:0:
396,320,144895,1,0,0:0:0:0:
200,296,145067,2,0,P|116:288|35:325,1,175
100,212,145584,1,0,0:0:0:0:
184,72,145757,2,0,L|184:168,1,87.5
64,108,146102,1,0,0:0:0:0:
56,72,146188,1,0,0:0:0:0:
48,36,146274,1,0,0:0:0:0:
260,40,146447,1,0,0:0:0:0:
404,120,146619,1,0,0:0:0:0:
444,244,146791,5,0,0:0:0:0:
244,140,146964,2,0,P|312:176|344:264,1,175
244,348,147481,1,0,0:0:0:0:
136,272,147653,2,0,P|108:236|100:192,1,87.5
156,72,147998,1,0,0:0:0:0:
16,180,148171,1,0,0:0:0:0:
156,72,148343,1,0,0:0:0:0:
32,72,148516,1,0,0:0:0:0:
240,40,148688,1,0,0:0:0:0:
340,124,148860,5,0,0:0:0:0:
340,124,148947,1,0,0:0:0:0:
340,124,149033,1,0,0:0:0:0:
456,184,149205,1,0,0:0:0:0:
396,300,149378,1,0,0:0:0:0:
284,232,149550,1,0,0:0:0:0:
288,268,149636,1,0,0:0:0:0:
292,304,149722,1,0,0:0:0:0:
256,192,149895,12,0,152136,0:0:0:0:
148,216,152481,5,0,0:0:0:0:
380,92,152826,1,0,0:0:0:0:
264,152,152998,1,0,0:0:0:0:
239,115,153084,1,0,0:0:0:0:
215,78,153170,1,0,0:0:0:0:
64,44,153343,2,0,P|104:72|128:116,1,87.5
64,236,153688,2,0,L|64:144,1,87.5
124,280,154033,2,0,P|104:320|60:356,1,87.5
200,316,154378,1,0,0:0:0:0:
264,204,154550,2,0,P|308:216|348:209,1,87.5
472,160,154895,2,0,L|444:248,1,87.5
324,296,155240,6,0,P|328:216|307:123,1,175
180,88,155757,1,0,0:0:0:0:
150,119,155843,1,0,0:0:0:0:
111,140,155929,1,0,0:0:0:0:
68,145,156015,1,0,0:0:0:0:
26,136,156101,1,0,0:0:0:0:
112,36,156274,1,0,0:0:0:0:
64,244,156447,2,0,P|152:208|230:205,1,175
320,108,156964,1,0,0:0:0:0:
352,236,157136,5,0,0:0:0:0:
352,236,157222,1,0,0:0:0:0:
352,236,157309,1,0,0:0:0:0:
444,144,157481,1,0,0:0:0:0:
352,236,157653,1,0,0:0:0:0:
260,328,157826,1,0,0:0:0:0:
104,164,157998,2,0,P|144:248|139:327,1,175
16,276,158516,1,0,0:0:0:0:
212,192,158688,2,0,L|296:156,1,87.5
16,276,159033,1,0,0:0:0:0:
28,144,159205,1,0,0:0:0:0:
148,96,159378,2,0,P|196:88|230:71,1,87.5
356,32,159722,5,0,0:0:0:0:
372,152,159895,1,0,0:0:0:0:
381,194,159981,1,0,0:0:0:0:
391,237,160067,1,0,0:0:0:0:
400,280,160153,1,0,0:0:0:0:
410,322,160239,1,0,0:0:0:0:
220,296,160412,1,0,0:0:0:0:
304,196,160584,1,0,0:0:0:0:
340,324,160757,6,0,P|260:312|156:332,1,175
40,304,161274,1,0,0:0:0:0:
132,212,161447,1,0,0:0:0:0:
44,116,161619,2,0,L|152:116,1,87.5
376,124,161964,2,0,P|328:72|228:24,1,175
196,152,162481,1,0,0:0:0:0:
304,224,162653,2,0,P|352:224|387:240,1,87.5
412,276,162912,5,0,0:0:0:0:
412,318,162998,1,0,0:0:0:0:
382,349,163084,1,0,0:0:0:0:
340,359,163170,1,0,0:0:0:0:
297,354,163256,1,0,0:0:0:0:
259,333,163343,1,0,0:0:0:0:
218,318,163429,1,0,0:0:0:0:
176,324,163516,6,0,P|156:260|88:172,1,175
196,96,164033,1,0,0:0:0:0:
216,136,164119,1,0,0:0:0:0:
236,176,164205,2,0,L|276:256,1,87.5
356,152,164550,1,0,0:0:0:0:
276,48,164722,2,0,P|184:32|96:56,1,175
24,156,165240,1,0,0:0:0:0:
56,284,165412,1,0,0:0:0:0:
56,284,165498,1,0,0:0:0:0:
56,284,165584,2,0,L|104:204,1,87.5
232,204,165929,2,0,L|186:279,1,87.5
308,332,166274,6,0,P|388:300|428:212,1,175
424,92,166791,1,0,0:0:0:0:
336,192,166964,1,0,0:0:0:0:
336,60,167136,1,0,0:0:0:0:
336,192,167309,1,0,0:0:0:0:
336,60,167481,2,0,P|264:80|168:60,1,175
52,124,167998,1,0,0:0:0:0:
172,176,168171,5,0,0:0:0:0:
201,207,168257,1,0,0:0:0:0:
213,249,168343,1,0,0:0:0:0:
207,292,168429,1,0,0:0:0:0:
182,327,168515,1,0,0:0:0:0:
308,288,168688,1,0,0:0:0:0:
360,168,168860,1,0,0:0:0:0:
476,104,169033,2,0,P|452:188|447:275,1,175
324,228,169550,5,0,0:0:0:0:
296,193,169636,1,0,0:0:0:0:
269,159,169722,2,0,L|212:84,1,87.5
144,200,170067,2,0,L|144:296|144:292,1,87.5
24,158,170412,2,0,L|80:90,1,87.5
204,44,170757,1,0,0:0:0:0:
320,100,170929,1,0,0:0:0:0:
396,208,171102,2,0,P|405:237|409:293,1,87.5
284,257,171447,2,0,P|276:226|276:170,1,87.5
176,288,171791,5,0,0:0:0:0:
252,92,172136,1,0,0:0:0:0:
308,292,172481,1,0,0:0:0:0:
252,196,172653,1,0,0:0:0:0:
156,172,172826,1,0,0:0:0:0:
344,168,172998,1,0,0:0:0:0:
344,168,173343,1,0,0:0:0:0:
152,84,173688,5,0,0:0:0:0:
40,24,173860,1,0,0:0:0:0:
72,232,174205,1,0,0:0:0:0:
124,340,174378,1,0,0:0:0:0:
252,328,174550,1,0,0:0:0:0:
344,92,185584,5,0,0:0:0:0:
296,296,185929,1,0,0:0:0:0:
136,160,186274,1,0,0:0:0:0:
168,60,186447,2,0,P|216:124|224:188,1,140
68,324,187136,2,0,P|56:288|58:256,1,70
58,256,187481,2,0,P|138:280|198:268,1,140
344,232,187998,1,0,0:0:0:0:
420,156,188171,1,0,0:0:0:0:
344,232,188343,6,0,P|408:264|448:318,1,140
344,312,188860,2,0,P|304:308|279:292,1,70
240,196,189205,2,0,P|188:248|179:311,1,140
32,160,189895,1,0,0:0:0:0:
220,64,190240,2,0,P|296:96|360:152,1,140
448,140,190757,1,0,0:0:0:0:
384,224,190929,1,0,0:0:0:0:
341,132,191102,6,0,L|365:52,1,70
244,168,191447,1,0,0:0:0:0:
244,168,191791,2,0,P|208:164|180:145,1,70
56,316,192309,1,0,0:0:0:0:
84,116,192653,1,0,0:0:0:0:
164,312,192998,2,0,P|204:312|236:328,1,70
336,336,193343,1,0,0:0:0:0:
424,276,193516,1,0,0:0:0:0:
404,172,193688,1,0,0:0:0:0:
328,244,193860,6,0,P|260:216|176:208,1,140
100,252,194378,1,0,0:0:0:0:
140,152,194550,1,0,0:0:0:0:
248,124,194722,2,0,L|332:128,1,70
376,40,195067,2,0,P|407:58|428:84,1,70
404,292,195584,1,0,0:0:0:0:
404,292,195929,2,0,P|368:272|340:265,1,70
236,288,196274,2,0,L|148:292,1,70
51,354,196619,6,0,B|8:272|65:189,1,175
92,57,197136,1,0,0:0:0:0:
133,71,197222,1,0,0:0:0:0:
166,99,197308,1,0,0:0:0:0:
188,137,197394,1,0,0:0:0:0:
196,180,197480,1,0,0:0:0:0:
128,292,197653,1,0,0:0:0:0:
284,248,197826,1,0,0:0:0:0:
284,248,197998,1,0,0:0:0:0:
388,168,198171,6,0,L|426:338,1,175
484,220,198688,2,0,P|480:180|456:140,1,87.5
332,188,199033,2,0,P|273:125|269:39,1,175
372,120,199550,1,0,0:0:0:0:
388,248,199722,1,0,0:0:0:0:
268,304,199895,2,0,B|196:296|196:296|148:304|148:304|68:296,4,175
256,40,201619,5,0,0:0:0:0:
240,81,201705,1,0,0:0:0:0:
233,124,201791,1,0,0:0:0:0:
232,167,201877,1,0,0:0:0:0:
240,212,201964,2,0,P|312:212|364:300,1,175
232,296,202481,1,0,0:0:0:0:
112,220,202653,2,0,P|56:176|40:124,1,87.5
52,32,202998,2,0,P|96:48|124:76,1,87.5
252,108,203343,5,0,0:0:0:0:
252,240,203516,1,0,0:0:0:0:
424,184,203688,2,0,L|380:264,1,87.5
252,240,204033,2,0,L|296:160,1,87.5
420,204,204378,2,0,L|356:272,1,87.5
316,44,204722,1,0,0:0:0:0:
316,44,204895,2,0,P|228:76|164:125,1,175
84,232,205412,2,0,L|60:272,4,43.75
196,300,205929,1,0,0:0:0:0:
180,168,206102,1,0,0:0:0:0:
56,124,206274,1,0,0:0:0:0:
180,84,206447,6,0,L|88:48,1,87.5
252,84,206791,1,0,0:0:0:0:
420,60,206964,1,0,0:0:0:0:
374,48,207050,1,0,0:0:0:0:
328,57,207136,1,0,0:0:0:0:
295,89,207222,1,0,0:0:0:0:
334,108,207308,1,0,0:0:0:0:
366,138,207394,1,0,0:0:0:0:
387,176,207480,1,0,0:0:0:0:
396,218,207567,1,0,0:0:0:0:
391,262,207653,6,0,B|336:280|336:280|280:256|204:256,2,175
288,344,208516,1,0,0:0:0:0:
248,176,208688,1,0,0:0:0:0:
180,288,208860,2,0,P|96:292|20:352,1,175
48,212,209378,1,0,0:0:0:0:
136,112,209550,2,0,L|172:196,1,87.5
280,120,209895,2,0,L|244:32,1,87.5
136,112,210240,1,0,0:0:0:0:
280,120,210412,2,0,B|316:148|316:148|344:128|344:128|392:148|437:134,1,175
408,336,210929,5,0,0:0:0:0:
374,307,211015,1,0,0:0:0:0:
341,278,211101,1,0,0:0:0:0:
308,250,211187,1,0,0:0:0:0:
275,221,211273,1,0,0:0:0:0:
408,228,211447,1,0,0:0:0:0:
256,312,211619,2,0,P|176:280|84:296,1,175
24,180,212136,5,0,0:0:0:0:
144,128,212308,2,0,L|231:128,1,87.5
316,24,212653,2,0,L|228:23,1,87.5
320,116,212998,1,0,0:0:0:0:
108,52,213171,2,0,P|148:132|217:177,1,175
424,244,213688,1,0,0:0:0:0:
395,256,213774,1,0,0:0:0:0:
372,264,213860,2,0,B|328:260|328:260|304:272|287:274,1,87.5
156,284,214205,2,0,P|160:240|188:206,1,87.5
436,124,214722,5,0,0:0:0:0:
308,36,214895,2,0,L|308:132,1,87.5
176,123,215240,1,0,0:0:0:0:
44,124,215412,2,0,L|44:36,2,87.5
144,40,215929,2,0,P|229:67|283:130,1,175
228,304,216447,1,0,0:0:0:0:
215,261,216533,1,0,0:0:0:0:
200,218,216619,2,0,L|174:134,3,87.5
292,200,217309,5,0,0:0:0:0:
364,312,217481,1,0,0:0:0:0:
428,200,217653,2,0,L|448:300,1,87.5
364,112,217998,1,0,0:0:0:0:
364,112,218084,1,0,0:0:0:0:
364,112,218171,1,0,0:0:0:0:
241,93,218343,2,0,L|304:32,2,87.5
136,172,218860,6,0,L|108:272,1,87.5
208,348,219205,2,0,P|272:272|260:180,1,175
320,80,219722,1,0,0:0:0:0:
188,64,219895,2,0,L|4:48,1,175
56,172,220412,1,0,0:0:0:0:
140,272,220584,2,0,P|224:236|305:241,1,175
428,288,221102,1,0,0:0:0:0:
