osu file format v9

[General]
AudioFilename: Crush - Pendulum.mp3
AudioLeadIn: 0
PreviewTime: 88477
Countdown: 0
SampleSet: Normal
StackLeniency: 0.7
Mode: 0
LetterboxInBreaks: 1

[Editor]
DistanceSpacing: 0.8
BeatDivisor: 4
GridSize: 4

[Metadata]
Title:Crush
Artist:Pendulum
Creator:Mercurius
Version:Insane
Source:
Tags:Immersion drum n bass d'n'b

[Difficulty]
HPDrainRate:7
CircleSize:5
OverallDifficulty:8
ApproachRate:9
SliderMultiplier:1.7
SliderTickRate:1

[Events]
//Background and Video events
0,0,"bg.jpg"
//Break Periods
2,55581,64954
2,110754,120988
//Storyboard Layer 0 (Background)
//Storyboard Layer 1 (Fail)
//Storyboard Layer 2 (Pass)
//Storyboard Layer 3 (Foreground)
//Storyboard Sound Samples
//Background Colour Transformations
3,100,163,162,255

[TimingPoints]
11244,344.827586206897,4,1,1,70,1,0
88485,-100,4,1,1,70,0,1
110554,-100,4,1,1,70,0,0
154692,-100,4,1,1,70,0,1
176761,-100,4,1,1,70,0,0

[Colours]
Combo1 : 0,119,176
Combo2 : 157,255,255
Combo3 : 55,155,255

[HitObjects]
108,316,11244,2,0,B|128:276|184:268,1,85,4|0
244,264,11588,1,8
308,288,11761,1,0
208,208,11933,2,0,B|228:104|136:52,1,170,0|8
149,60,12450,1,0
204,16,12623,6,0,B|292:48,1,85
352,164,12968,2,0,B|264:132,1,85,8|0
148,192,13312,2,0,B|236:224,1,85
296,340,13657,2,0,B|208:308,1,85,8|0
92,256,14002,5,0
80,188,14175,1,0
136,148,14347,2,0,B|127:63,1,85,8|0
204,156,14692,1,0
264,120,14864,1,0
332,132,15037,2,0,B|296:220,1,85,8|0
172,252,15381,5,0
232,220,15554,2,0,B|252:304,1,85,0|8
196,344,15899,2,0,B|280:304|360:356,1,170,0|0
392,296,16416,2,0,B|431:276|474:280,1,85,8|0
400,164,16761,6,0,B|360:184|312:180,1,85,4|0
312,112,17106,1,8
256,72,17278,1,0
176,175,17450,2,0,B|192:92,1,85
132,64,17795,2,0,B|68:136,1,85,8|0
28,256,18140,5,0
84,220,18312,1,0
144,248,18485,1,8
96,296,18657,2,0,B|184:260|260:316,1,170,0|0
304,264,19175,2,0,B|342:340,1,85,8|0
324,200,19519,5,0
364,144,19692,1,0
324,88,19864,1,8
372,40,20037,1,0
236,28,20209,5,0
188,76,20381,1,0
228,132,20554,2,0,B|180:200,1,85,8|0
112,200,20899,5,0
132,228,20985,1,0
133,262,21071,1,0
149,291,21157,1,0
183,294,21244,1,8
210,314,21330,1,0
243,309,21416,1,0
274,321,21502,1,0
307,313,21588,2,0,B|346:336,2,42.5
340,253,21933,2,0,B|380:236,2,42.5,8|0|0
400,132,22278,6,0,B|356:116|328:72,1,85,4|0
268,68,22623,1,8
200,60,22795,1,0
86,81,22968,2,0,B|156:76|200:128,1,127.5
218,155,23312,1,8
288,152,23485,1,0
348,188,23657,6,0,B|256:224|248:336,1,170,0|8
312,348,24175,1,0
184,304,24347,2,0,B|148:280|96:292,1,85
36,300,24692,2,0,B|72:268|84:216,1,85,8|0
100,92,25037,6,0,B|60:16,2,85,0|0|8
160,216,25554,1,0
292,180,25726,2,0,B|220:156|208:84,1,127.5
204,57,26071,1,8
269,39,26244,1,0
332,60,26416,5,0
396,36,26588,1,0
408,68,26675,1,0
420,100,26761,1,8
480,68,26933,1,0
372,148,27106,5,0
399,168,27192,1,0
409,200,27278,1,0
403,233,27364,1,0
382,259,27450,1,8
328,300,27623,1,0
204,352,27795,6,0,B|240:324|232:272,1,85,4|0
140,176,28140,2,0,B|104:204|112:256,1,85,8|0
192,144,28485,2,0,B|164:108|116:115,1,85
36,224,28830,2,0,B|63:259|111:252,1,85,8|0
244,216,29175,6,0,B|344:200|396:292,1,170,0|8
396,348,29692,2,0,B|360:248|472:196,1,170
456,136,30209,1,8
424,124,30295,1,0
392,112,30381,1,0
364,92,30468,1,0
336,72,30554,6,0,B|312:108|260:120,1,85
208,88,30899,1,8
156,128,31071,1,0
88,132,31244,2,0,B|144:240,1,85
196,200,31588,1,8
256,236,31761,1,0
320,220,31933,5,0
353,227,32019,1,0
385,217,32106,1,0
406,243,32192,1,0
426,269,32278,2,0,B|384:305,3,42.5,8|0|0|0
402,329,32623,5,0
380,355,32709,1,0
346,348,32795,1,0
312,341,32881,1,0
283,360,32968,2,0,B|231:334,3,42.5,8|0|0|0
211,347,33312,6,0,B|182:278|96:278,1,127.5,4|0
77,276,33657,1,8
164,172,33830,1,0
97,52,34002,2,0,B|144:60|188:32,1,85
210,98,34347,2,0,B|256:99|292:122,1,85,8|0
416,68,34692,5,0
356,104,34864,1,0
384,168,35037,2,0,B|424:188,2,42.5,8|0|0
336,216,35381,2,0,B|368:308,1,85
312,340,35726,1,8
312,340,35812,1,0
312,340,35899,1,0
180,312,36071,5,0
124,272,36244,1,0
56,264,36416,2,0,B|80:164,1,85,8|0
132,64,36761,5,0
124,132,36933,1,0
192,131,37106,2,0,B|173:215,1,85,8|0
256,108,37450,5,0
289,100,37537,1,0
312,76,37623,1,0
345,73,37709,1,0
371,94,37795,1,8
432,68,37968,1,0
468,124,38140,2,0,B|409:199,1,85
415,190,38485,1,8
440,324,38657,6,0,B|380:260|280:280,1,170
248,336,39175,2,0,B|316:264|260:180,1,170,8|0
232,164,39606,1,0
232,132,39692,1,0
204,112,39778,1,0
204,80,39864,1,8
336,52,40037,1,0
204,80,40209,6,0,B|112:104,1,85
152,164,40554,2,0,B|60:188,1,85,8|0
96,248,40899,1,0
96,248,41071,1,0
152,288,41244,2,0,B|132:348,2,42.5,8|0|0
248,192,41588,5,0
380,160,41761,1,0
332,288,41933,1,8
328,256,42019,1,0
324,220,42106,1,0
248,332,42278,5,0
376,376,42450,1,0
392,240,42623,1,8
360,248,42709,1,0
328,256,42795,1,0
200,208,42968,5,0
172,187,43054,1,0
138,191,43140,1,0
113,167,43226,1,0
92,140,43312,1,8
109,110,43399,1,0
114,76,43485,1,0
142,57,43571,1,0
174,67,43657,2,0,B|219:87,3,42.5
237,59,44002,2,0,B|290:52,3,42.5,8|0|0|0
308,36,44347,6,0,B|320:84|368:120,1,85,4|0
420,96,44692,1,8
300,156,44864,1,0
300,156,44950,1,0
300,156,45037,1,0
424,208,45209,1,0
356,200,45381,2,0,B|344:244|304:276,1,85,8|0
192,336,45726,6,0,B|204:232|112:188,1,170,0|8
52,200,46244,2,0,B|140:172|156:76,1,170
155,77,46675,1,0
155,77,46761,1,8
244,184,46933,1,0
308,64,47106,6,0,B|396:112,1,85
376,172,47450,1,8
332,224,47623,1,0
360,284,47795,2,0,B|456:224,2,85,0|0|8
300,320,48312,1,0
236,296,48485,2,0,B|176:232|72:260,1,170,0|8
79,258,49002,1,0
184,168,49175,5,0
184,168,49261,1,0
184,168,49347,1,0
76,88,49519,1,8
184,168,49692,1,0
252,48,49864,6,0,B|356:72|376:168,1,170,0|8
432,124,50381,2,0,B|340:156|308:248,1,170
176,264,50899,1,8
312,236,51071,1,0
416,324,51244,2,0,B|312:320,1,85
272,352,51588,1,8
240,292,51761,1,0
176,264,51933,2,0,B|224:184,1,85
108,268,52278,1,8
108,268,52364,1,0
108,268,52450,1,0
92,132,52623,5,0
204,52,52795,1,0
340,76,52968,2,0,B|348:116|392:144,1,85,8|0
268,80,53312,1,0
132,68,53485,1,0
116,204,53657,2,0,B|164:220|184:256,1,85,8|0
300,324,54002,5,0
288,291,54088,1,0
300,259,54175,1,0
331,246,54261,1,0
362,232,54347,2,0,B|382:184,3,42.5,8|0|0|0
374,158,54692,1,0
349,134,54778,1,0
337,102,54864,1,0
318,73,54950,1,0
284,65,55037,2,0,B|241:56,3,42.5,8|0|0|0
231,123,55381,5,4
416,72,65554,6,0,B|384:104|328:100,1,85
304,96,65812,1,0
272,108,65899,1,0
240,104,65985,1,0
206,97,66071,1,0
172,99,66157,1,0
138,106,66244,1,0
111,127,66330,1,0
92,156,66416,6,0,B|132:176|140:224,1,85,4|0
69,353,66761,2,0,B|80:308|120:288,1,85,8|0
188,276,67106,2,0,B|232:296|276:272,1,85
320,228,67450,1,8
384,248,67623,1,0
419,117,67795,6,0,B|351:46|239:85,1,170,0|8
227,209,68312,2,0,B|295:280|407:241,1,170
416,188,68830,1,8
416,188,68916,1,0
416,188,69002,1,0
336,76,69175,6,0,B|244:112|180:40,1,170,0|8
116,68,69692,1,0
68,116,69864,2,0,B|152:152,1,85,0|0
212,168,70209,2,0,B|156:252,1,85,8|0
96,240,70554,5,0
228,264,70726,1,0
360,292,70899,1,8
196,76,71244,5,0
196,76,71416,1,0
196,76,71588,1,8
328,40,71761,2,0,B|368:128|264:224,1,170
232,160,72278,2,0,B|300:228|412:184,1,170,8|0
389,191,72709,1,0
389,191,72795,1,0
428,248,72968,1,8
404,312,73140,1,0
272,276,73312,6,0,B|338:329,1,85
272,276,73657,2,0,B|176:272,1,85,8|0
68,208,74002,2,0,B|168:192,1,85
151,194,74261,1,0
151,194,74347,1,8
264,120,74519,1,0
140,64,74692,6,0,B|152:160|60:212,1,170,0|8
192,268,75209,2,0,B|92:260|40:360,2,170
244,312,76071,1,0
292,264,76244,1,0
292,264,76330,1,0
292,264,76416,1,8
360,272,76588,2,0,B|348:232|352:184,1,85
292,152,76933,1,0
312,88,77106,1,8
444,112,77278,6,0,B|388:188|276:148,1,170,4|0
204,48,77795,2,0,B|107:13|51:89,1,170,8|0
52,87,78226,1,0
52,87,78312,1,0
108,128,78485,2,0,B|84:224,1,85,8|0
152,236,78830,1,0
216,212,79002,1,0
284,228,79175,1,8
304,292,79347,2,0,B|232:296|184:336,1,127.5
159,355,79692,1,0
84,244,79864,1,8
156,128,80037,6,0,B|208:56|312:76,1,170
316,212,80554,2,0,B|280:248|232:240,1,85,8|0
180,208,80899,2,0,B|116:284,1,85
64,143,81244,2,0,B|76:228,2,85,8|0|0
52,76,81761,1,0
52,76,81933,1,8
320,32,82278,6,0,B|352:120,1,85
349,111,82623,1,8
412,136,82795,2,0,B|372:220|264:200,1,170
192,312,83312,2,0,B|260:232|180:132,1,170,8|0
128,148,83830,2,0,B|172:68,2,85,0|8|0
76,192,84347,1,0
76,192,84433,1,0
76,192,84519,1,0
60,260,84692,1,8
320,340,85037,6,0,B|232:300,1,85
242,304,85381,1,0
180,276,85554,2,0,B|200:176|316:168,1,170
260,108,86071,2,0,B|328:188|428:128,2,170,8|0|8
216,56,86933,1,0
148,64,87106,6,0,B|104:92,3,42.5
140,104,87450,2,0,B|128:148,3,42.5
140,176,87795,1,0
172,192,87881,1,0
204,188,87968,1,0
236,200,88054,1,0
268,196,88140,1,0
292,216,88226,1,0
304,248,88312,1,0
328,272,88399,1,0
360,276,88485,6,2,B|332:372|192:356,1,170,6|8
156,240,89002,2,2,B|184:144|324:160,1,170,2|0
336,208,89519,1,8
336,208,89692,1,0
368,76,89864,6,2,B|288:24|204:68,1,170,2|8
152,104,90381,1,0
84,108,90554,2,2,B|96:216,1,85,2|0
28,216,90899,1,8
28,216,90985,1,0
28,216,91071,1,0
160,188,91244,6,0,B|228:280,1,85,2|0
304,283,91588,2,0,B|228:320,2,85,8|0|2
424,220,92106,1,0
380,92,92278,1,8
256,40,92450,1,0
144,116,92623,6,0,B|92:96,2,42.5,2|0|0
256,40,92968,1,8
380,92,93140,1,0
424,220,93312,2,0,B|468:312,2,85,2|0|10
304,284,93830,1,0
296,148,94002,6,2,B|240:72|136:120,1,170,6|8
124,252,94519,2,2,B|180:328|284:280,1,170,2|0
276,283,94950,1,0
276,283,95037,1,8
400,224,95209,1,0
420,88,95381,5,2
296,144,95554,1,0
296,144,95640,1,0
296,144,95726,1,8
172,92,95899,1,0
68,180,96071,2,2,B|108:260|212:264,1,170,2|8
206,263,96588,1,0
305,326,96761,6,0,B|272:248,1,85,2|0
324,204,97106,1,8
392,208,97278,1,0
416,76,97450,2,0,B|320:120,1,85,2|0
276,88,97795,1,8
220,128,97968,1,0
156,248,98140,6,0,B|108:336,2,85,2|0|8
80,136,98657,1,0
120,192,98830,2,2,B|164:128|252:128,1,127.5,2|0
260,124,99175,1,10
334,67,99347,1,0
404,128,99519,6,0,B|436:224,1,85,6|0
296,212,99864,1,8
212,320,100037,1,0
96,248,100209,2,0,B|168:184,1,85,2|0
296,212,100554,1,8
404,128,100726,1,0
284,60,100899,6,2,B|256:96|192:108,2,85,2|0|0
148,56,101416,2,2,B|228:100|200:220,1,170,2|0
203,203,101847,1,0
203,203,101933,1,8
180,268,102106,1,0
72,184,102278,6,0,B|116:264,1,85,2|0
180,268,102623,1,8
208,332,102795,1,0
332,280,102968,6,0,B|376:200,1,85,2|0
440,196,103312,1,8
468,132,103485,1,0
332,152,103657,6,0,B|272:64,2,85,2|0|8
216,76,104175,1,0
80,88,104347,1,2
108,108,104433,1,0
128,136,104519,1,0
136,168,104606,1,0
136,200,104692,2,0,B|136:244|88:280,1,85,10|0
204,360,105037,6,2,B|196:264|296:224,1,170,6|8
392,136,105554,2,2,B|460:212|404:316,1,170,2|0
288,240,106071,2,0,B|346:302,1,85,8|0
288,240,106416,2,0,B|184:228,1,85,2|0
172,168,106761,1,8
216,116,106933,1,0
333,128,107106,2,2,B|234:128|192:52,1,170,2|8
192,52,107623,1,0
100,192,107795,5,2
256,348,107968,1,0
412,192,108140,1,8
256,36,108312,1,0
256,192,108485,12,4,110554
456,88,121588,6,0,B|420:172,1,85,4|0
360,136,121933,1,8
300,172,122106,1,0
207,227,122278,2,0,B|236:148,1,85
236,147,122537,1,0
236,147,122623,1,8
168,148,122795,1,0
124,276,122968,6,0,B|104:232|52:220,2,85,0|0|8
100,340,123485,2,0,B|112:236|213:227,1,170
268,256,124002,1,8
332,232,124175,1,0
304,100,124347,6,0,B|412:132,1,85
304,100,124692,2,0,B|240:28,1,85,8|0
216,96,125037,2,0,B|136:72,2,85,0|0|8
216,96,125554,1,0
168,224,125726,5,0
168,224,125899,1,0
316,236,126071,1,8
316,236,126244,1,0
196,300,126416,5,0
316,236,126588,1,0
196,300,126761,1,8
316,236,126933,1,0
196,300,127106,6,0,B|96:276,1,85,4|0
136,148,127450,2,0,B|88:218,2,85,8|0|0
108,84,127968,1,0
156,36,128140,2,0,B|216:112,1,85,8|0
340,64,128485,6,0,B|356:160|280:228,1,170,0|8
224,340,129002,2,0,B|216:340|120:328|100:224,1,170
224,168,129519,2,0,B|265:181|290:221,1,85,8|0
272,284,129864,5,0
340,296,130037,1,0
400,264,130209,1,8
468,252,130381,1,0
432,192,130554,2,0,B|392:184,2,42.5
472,136,130899,2,0,B|500:176,2,42.5,8|0|0
440,76,131244,6,0,B|376:148|264:96,1,170,0|8
168,32,131761,1,0
200,48,131847,1,0
212,80,131933,1,0
192,108,132019,1,0
164,128,132106,1,0
148,160,132192,1,0
164,188,132278,1,0
192,208,132364,1,0
224,216,132450,1,0
256,208,132537,1,0
284,192,132623,6,0,B|324:168|372:180,1,85,4|0
412,228,132968,1,8
400,296,133140,1,0
348,340,133312,2,0,B|288:304|216:328,1,127.5
195,341,133657,1,8
76,271,133830,1,0
104,140,134002,6,0,B|122:236|256:246,1,170,0|8
312,137,134519,2,0,B|293:40|159:30,1,170
191,34,134950,1,0
191,34,135037,1,8
228,164,135209,6,0,B|312:112|408:164,1,170
460,156,135726,2,0,B|412:248,1,85,8|0
436,300,136071,1,0
376,332,136243,1,0
320,296,136416,1,8
264,332,136588,1,0
208,292,136761,2,0,B|264:256|252:176,1,127.5
242,147,137106,1,8
138,63,137278,5,0
242,147,137450,1,0
138,63,137623,1,0
266,19,137795,1,8
265,18,137968,6,0,B|366:27|374:127,1,170
430,165,138485,2,0,B|340:121|272:182,1,170,8|0
326,223,139002,1,0
272,181,139175,1,8
221,135,139347,1,0
221,135,139519,6,0,B|189:239,1,85
131,336,139864,2,0,B|113:252,1,85,8|0
140,119,140209,2,0,B|158:202,1,85
292,236,140554,2,0,B|260:340,1,85,8|0
392,260,140899,6,0,B|472:184|424:80,1,170,0|8
284,132,141416,2,0,B|360:200|452:160,1,170
384,40,141933,1,8
284,132,142106,1,0
232,92,142278,5,0
232,92,142450,1,0
104,132,142623,1,8
104,132,142795,1,0
176,16,142968,6,0,B|168:124,1,85
176,136,143226,1,0
164,168,143312,1,0
168,204,143399,1,0
152,232,143485,1,0
160,264,143571,1,0
172,296,143657,6,0,B|260:341|329:279,1,170,4|8
356,344,144175,2,0,B|297:267|353:186,1,170
336,120,144692,2,0,B|376:84,2,42.5
276,84,145037,2,0,B|233:162|128:133,1,170,0|8
60,92,145554,2,0,B|160:120|156:228,1,170
156,215,145985,1,0
156,215,146071,1,8
268,136,146243,1,0
268,136,146416,6,0,B|292:236,1,85
352,200,146761,1,8
416,220,146933,1,0
385,352,147106,6,0,B|436:284,1,85
332,312,147450,1,8
264,324,147623,1,0
200,348,147795,2,0,B|168:248|44:260,1,170,0|8
70,258,148312,1,0
68,124,148485,5,0
68,124,148657,1,0
68,124,148830,1,8
192,68,149002,2,0,B|224:168|348:156,1,170
440,92,149519,2,0,B|488:176|416:256,1,170,8|0
321,157,150037,2,0,B|355:235,1,85,0|8
355,235,150381,1,0
292,264,150554,5,0
292,264,150640,1,0
292,264,150726,1,0
264,324,150899,1,8
196,316,151071,1,0
184,248,151243,1,0
184,248,151330,1,0
184,248,151416,1,0
244,216,151588,2,0,B|176:152,1,85,8|0
68,83,151933,6,0,B|140:152|223:104,1,170,0|8
340,36,152450,2,0,B|452:72|420:188,1,170
288,144,152968,1,8
425,163,153140,1,0
288,144,153312,6,0,B|272:192|320:248,1,85
368,248,153657,2,0,B|356:296|300:300,1,85,8|0
276,288,153916,1,0
244,296,154002,1,0
212,308,154088,1,0
184,288,154175,1,0
152,276,154261,1,0
144,244,154347,1,0
124,220,154433,1,0
136,188,154519,1,0
116,160,154606,1,0
124,128,154692,5,6
248,76,154864,1,0
376,128,155037,2,0,B|300:180,1,85,8|0
188,108,155381,2,2,B|268:160|236:260,1,170,2|8
135,347,155899,2,2,B|187:284|290:303,1,170,2|0
424,284,156416,2,2,B|353:331,1,85,10|0
452,224,156761,1,2
400,180,156933,1,0
452,136,157106,1,8
400,92,157278,1,0
400,92,157450,5,2
272,44,157623,1,0
144,92,157795,1,8
136,228,157968,1,0
252,300,158140,2,0,B|332:356,2,85,2|0|8
136,228,158657,1,0
144,92,158830,5,2
272,44,159002,1,0
400,92,159175,2,0,B|300:120,1,85,8|0
252,136,159519,2,0,B|308:208,1,85,2|0
368,176,159864,2,0,B|400:228,2,42.5,10|0|0
436,296,160209,6,2,B|368:360|268:316,1,170,6|8
144,336,160726,2,2,B|240:308|232:200,1,170,2|0
232,208,161157,1,0
232,208,161243,1,8
152,100,161416,1,0
200,148,161588,6,0,B|304:108,1,85,2|0
344,96,161933,1,8
408,72,162106,1,0
344,96,162278,2,2,B|348:168|428:200,1,127.5,2|0
445,208,162623,1,8
501,245,162795,1,0
387,352,162968,6,0,B|400:268,1,85,2|0
332,276,163312,1,8
264,264,163485,1,0
132,296,163657,2,0,B|200:244,1,85,2|0
104,236,164002,1,8
44,204,164175,1,0
132,100,164347,6,0,B|44:72,2,85,2|0|8
132,100,164778,1,0
132,100,164864,1,0
256,40,165037,1,2
392,56,165209,1,0
364,76,165295,1,0
336,96,165381,1,10
464,148,165554,1,0
360,236,165726,6,0,B|392:314,1,85,6|0
292,223,166071,2,0,B|301:308,1,85,8|0
236,188,166416,2,0,B|223:272,1,85,2|0
184,140,166761,1,8
164,168,166847,1,0
144,196,166933,1,0
100,248,167106,5,2
52,120,167278,1,0
184,140,167450,1,8
100,248,167623,1,0
236,264,167795,1,2
184,140,167968,1,0
184,140,168054,1,0
184,140,168140,1,8
320,160,168312,1,0
452,132,168485,6,2,B|404:56,1,85,2|0
272,70,168830,2,0,B|352:99,1,85,8|0
272,70,169175,2,2,B|216:160|104:120,1,170,2|8
148,64,169692,1,0
125,126,169864,6,2,B|80:208|144:288,1,170,2|8
141,284,170295,1,0
141,284,170381,1,0
256,208,170554,1,2
264,344,170726,1,0
264,344,170812,1,0
264,344,170899,1,10
376,268,171071,1,0
256,208,171243,6,2,B|364:200|372:80,1,170,6|8
268,12,171761,2,2,B|160:20|152:140,1,170,2|0
44,200,172278,2,0,B|126:180,1,85,8|0
164,236,172623,1,2
228,212,172795,1,0
268,268,172968,1,8
332,244,173140,1,0
396,272,173312,2,2,B|320:212|328:108,1,170,2|8
327,123,173830,1,0
256,40,174002,5,2
104,192,174175,1,0
256,344,174347,1,8
408,192,174519,1,0
256,192,174692,12,4,176761
