osu file format v10

[General]
AudioFilename: pendulum_-_crush.mp3
AudioLeadIn: 0
PreviewTime: -1
Countdown: 1
SampleSet: Normal
StackLeniency: 0.9
Mode: 0
LetterboxInBreaks: 1

[Editor]
Bookmarks: 32109,32884,65902,117626,124005,147971,165126
DistanceSpacing: 1.2
BeatDivisor: 4
GridSize: 4

[Metadata]
Title:Crush
TitleUnicode:Crush
Artist:Pendulum
ArtistUnicode:Pendulum
Creator:FunnyBalZ
Version:Crush
Source:
Tags:
BeatmapID:183991
BeatmapSetID:61797

[Difficulty]
HPDrainRate:7
CircleSize:4
OverallDifficulty:7
ApproachRate:9
SliderMultiplier:1.7
SliderTickRate:2

[Events]
//Background and Video events
0,0,"Call.Of.Duty.full.1007853.jpg"
//Break Periods
//Storyboard Layer 0 (Background)
//Storyboard Layer 1 (Fail)
//Storyboard Layer 2 (Pass)
//Storyboard Layer 3 (Foreground)
//Storyboard Sound Samples
//Background Colour Transformations
3,100,163,162,255

[TimingPoints]
-10,344.827586206897,4,1,0,60,1,0
10593,-100,4,2,0,70,0,0
10938,-100,4,1,0,60,0,0
11093,-100,4,2,0,70,0,0
11266,-100,4,1,0,60,0,0
11438,-100,4,2,0,70,0,0
11783,-100,4,1,0,60,0,0
12128,-100,4,2,0,70,0,0
12300,-100,4,1,0,60,0,0
12472,-100,4,2,0,70,0,0
12645,-100,4,1,0,60,0,0
12817,-100,4,2,0,70,0,0
13162,-100,4,1,0,60,0,0
13852,-100,4,2,0,70,0,0
14024,-100,4,1,0,60,0,0
14197,-100,4,2,0,70,0,0
14541,-100,4,1,0,60,0,0
14886,-100,4,2,0,70,0,0
15059,-100,4,1,0,60,0,0
15231,-100,4,2,0,70,0,0
15403,-100,4,1,0,60,0,0
15576,-100,4,2,0,70,0,0
15921,-100,4,1,0,60,0,0
16266,-100,4,2,0,70,0,0
16438,-100,4,1,0,60,0,0
16610,-100,4,2,0,70,0,0
16783,-100,4,1,0,60,0,0
16955,-100,4,2,0,70,0,0
17300,-100,4,1,0,60,0,0
17645,-100,4,2,0,70,0,0
17817,-100,4,1,0,60,0,0
17990,-100,4,2,0,70,0,0
18162,-100,4,1,0,60,0,0
18335,-100,4,2,0,70,0,0
18669,-100,4,1,0,60,0,0
19369,-100,4,2,0,70,0,0
19628,-100,4,1,0,60,0,0
19714,-100,4,2,0,70,0,0
20059,-100,4,1,0,60,0,0
20403,-100,4,2,0,70,0,0
20576,-100,4,1,0,60,0,0
20748,-100,4,2,0,70,0,0
20921,-100,4,1,0,60,0,0
21093,-100,4,2,0,70,0,0
21438,-100,4,1,0,60,0,0
22128,-100,4,2,0,70,0,0
22386,-100,4,1,0,60,0,0
22472,-100,4,2,0,70,0,0
22817,-100,4,1,0,60,0,0
23162,-100,4,2,0,70,0,0
23335,-100,4,1,0,60,0,0
23507,-100,4,2,0,70,0,0
23679,-100,4,1,0,60,0,0
23852,-100,4,2,0,70,0,0
24197,-100,4,1,0,60,0,0
24541,-100,4,2,0,70,0,0
24714,-100,4,1,0,60,0,0
24886,-100,4,2,0,70,0,0
25059,-100,4,1,0,60,0,0
25231,-100,4,2,0,70,0,0
25576,-100,4,1,0,60,0,0
25921,-100,4,2,0,70,0,0
26093,-100,4,1,0,60,0,0
26266,-100,4,2,0,70,0,0
26438,-100,4,1,0,60,0,0
26610,-100,4,2,0,70,0,0
26955,-100,4,1,0,60,0,0
27214,-117.647058823529,4,2,0,70,0,0
27300,-117.647058823529,4,1,0,60,0,0
28507,-100,4,1,0,60,0,0
29369,-100,4,2,0,70,0,0
29541,-100,4,1,0,60,0,0
29714,-100,4,2,0,70,0,0
29886,-100,4,1,0,60,0,0
30403,-100,4,2,0,70,0,0
30576,-100,4,1,0,60,0,0
30748,-100,4,2,0,70,0,0
31093,-100,4,1,0,60,0,0
31438,-100,4,2,0,70,0,0
31610,-100,4,1,0,60,0,0
31783,-100,4,2,0,70,0,0
31955,-100,4,1,0,60,0,0
32128,-100,4,2,0,70,0,0
32472,-100,4,1,0,60,0,0
32817,-100,4,2,0,70,0,0
32990,-100,4,1,0,60,0,0
33162,-100,4,2,0,70,0,0
33335,-100,4,1,0,60,0,0
33507,-100,4,2,0,70,0,0
33852,-100,4,1,0,60,0,0
34886,-100,4,2,0,70,0,0
35059,-100,4,1,0,60,0,0
35576,-100,4,2,0,70,0,0
35748,-100,4,1,0,60,0,0
35921,-100,4,2,0,70,0,0
36093,-100,4,1,0,60,0,0
36266,-100,4,2,0,70,0,0
36610,-100,4,1,0,60,0,0
36955,-100,4,2,0,70,0,0
37128,-100,4,1,0,60,0,0
37645,-100,4,2,0,70,0,0
37817,-153.846153846154,4,2,0,70,0,0
38162,-153.846153846154,4,1,0,60,0,0
39197,-153.846153846154,4,2,0,70,0,0
39541,-153.846153846154,4,1,0,60,0,0
40576,-153.846153846154,4,2,0,70,0,0
40921,-153.846153846154,4,1,0,60,0,0
41955,-153.846153846154,4,2,0,70,0,0
42300,-153.846153846154,4,1,0,60,0,0
42472,-153.846153846154,4,2,0,70,0,0
42645,-153.846153846154,4,1,0,60,0,0
43248,-100,4,2,0,70,0,0
43507,-100,4,1,0,60,0,0
43852,-100,4,2,0,70,0,0
44024,-100,4,1,0,60,0,0
44197,-100,4,2,0,70,0,0
44369,-100,4,1,0,60,0,0
44541,-100,4,2,0,70,0,0
44886,-100,4,1,0,60,0,0
45231,-100,4,2,0,70,0,0
45403,-100,4,1,0,60,0,0
45576,-100,4,2,0,70,0,0
46266,-100,4,1,0,60,0,0
46610,-100,4,2,0,70,0,0
46783,-100,4,1,0,60,0,0
46955,-100,4,2,0,70,0,0
47128,-100,4,1,0,60,0,0
47300,-100,4,2,0,70,0,0
47817,-100,4,1,0,60,0,0
48007,-100,4,2,0,70,0,0
48179,-100,4,1,0,60,0,0
48679,-100,4,2,0,70,0,0
49024,-100,4,1,0,60,0,0
49369,-100,4,2,0,70,0,0
49455,-153.846153846154,4,1,0,60,0,0
50231,-153.846153846154,4,2,0,70,0,0
50576,-153.846153846154,4,1,0,60,0,0
51438,-153.846153846154,4,2,0,70,0,0
51955,-153.846153846154,4,1,0,60,0,0
52990,-153.846153846154,4,2,0,70,0,0
53162,-153.846153846154,4,1,0,60,0,0
54369,-153.846153846154,4,2,0,70,0,0
54714,-153.846153846154,4,1,0,60,0,0
55231,-100,4,1,0,60,0,0
55576,-100,4,2,0,70,0,0
55921,-100,4,1,0,60,0,0
56266,-100,4,2,0,70,0,0
56438,-74.0740740740741,4,1,0,60,0,0
57817,-100,4,1,0,60,0,0
57990,-100,4,2,0,70,0,0
58162,-100,4,1,0,60,0,0
58335,-100,4,2,0,70,0,0
58679,-100,4,1,0,60,0,0
59024,-100,4,2,0,70,0,0
59110,-74.0740740740741,4,1,0,60,0,0
59369,-74.0740740740741,4,2,0,70,0,0
59541,-74.0740740740741,4,1,0,60,0,0
60403,-74.0740740740741,4,2,0,70,0,0
60580,-100,4,1,0,60,0,0
60748,-100,4,2,0,70,0,0
60921,-100,4,1,0,60,0,0
61093,-100,4,2,0,70,0,0
61438,-100,4,1,0,60,0,0
61783,-100,4,2,0,70,0,0
61955,-74.0740740740741,4,1,0,60,0,0
62128,-74.0740740740741,4,2,0,70,0,0
62300,-74.0740740740741,4,1,0,60,0,0
62472,-74.0740740740741,4,2,0,70,0,0
62817,-74.0740740740741,4,1,0,60,0,0
63335,-100,4,2,0,70,0,0
63421,-100,4,1,0,60,0,0
63507,-100,4,2,0,70,0,0
63679,-100,4,1,0,60,0,0
63852,-100,4,2,0,70,0,0
64197,-100,4,1,0,60,0,0
64541,-100,4,2,0,70,0,0
64714,-74.0740740740741,4,1,0,60,0,0
65231,-100,4,2,0,70,0,0
65576,-100,4,1,0,60,0,0
65921,-100,4,2,0,70,0,0
66093,-100,4,1,0,60,0,0
66266,-100,4,2,0,70,0,0
66438,-100,4,1,0,60,0,0
66610,-100,4,2,0,70,0,0
67128,-100,4,1,0,60,0,0
67645,-100,4,2,0,70,0,0
67817,-100,4,1,0,60,0,0
67990,-100,4,2,0,70,0,0
68335,-100,4,1,0,60,0,0
68679,-100,4,2,0,70,0,0
68852,-100,4,1,0,60,0,0
69541,-100,4,2,0,70,0,0
69714,-100,4,1,0,60,0,0
70748,-100,4,2,0,70,0,0
71093,-100,4,1,0,60,0,0
73679,-100,4,2,0,70,0,0
76610,-100,4,1,0,60,0,0
76955,-100,4,2,0,70,0,0
77128,-100,4,1,0,60,0,0
77300,-100,4,2,0,70,0,0
77472,-100,4,1,0,60,0,0
77645,-100,4,2,0,70,0,0
78162,-100,4,1,0,60,0,0
78679,-100,4,2,0,70,0,0
78852,-100,4,1,0,60,0,0
79024,-100,4,2,0,70,0,0
79369,-100,4,1,0,60,0,0
79714,-100,4,2,0,70,0,0
79886,-100,4,1,0,60,0,0
80576,-100,4,2,0,70,0,0
80748,-100,4,1,0,60,0,0
81783,-100,4,2,0,70,0,0
82128,-100,4,1,0,60,0,0
88265,-100,4,1,0,60,0,1
88335,-100,4,2,0,70,0,1
89024,-100,4,1,0,60,0,1
89369,-100,4,2,0,70,0,1
90403,-100,4,1,0,60,0,1
90748,-100,4,2,0,70,0,1
90921,-100,4,1,0,60,0,1
91093,-153.846153846154,4,1,0,60,0,1
92472,-153.846153846154,4,2,0,70,0,1
92645,-153.846153846154,4,1,0,60,0,1
95748,-153.846153846154,4,2,0,70,0,1
96093,-153.846153846154,4,1,0,60,0,1
96610,-153.846153846154,4,2,0,70,0,1
96783,-153.846153846154,4,1,0,60,0,1
98507,-153.846153846154,4,2,0,70,0,1
98852,-153.846153846154,4,1,0,60,0,1
99024,-100,4,2,0,70,0,1
99197,-100,4,1,0,60,0,1
99369,-100,4,2,0,70,0,1
99541,-100,4,1,0,60,0,1
99714,-100,4,2,0,70,0,1
100059,-100,4,1,0,60,0,1
100403,-100,4,2,0,70,0,1
100576,-100,4,1,0,60,0,1
101266,-100,4,2,0,70,0,1
101438,-100,4,1,0,60,0,1
101783,-100,4,2,0,70,0,1
101955,-100,4,1,0,60,0,1
102128,-100,4,2,0,70,0,1
102300,-100,4,1,0,60,0,1
102472,-100,4,2,0,70,0,1
102990,-100,4,1,0,60,0,1
103507,-100,4,2,0,70,0,1
103679,-100,4,1,0,60,0,1
104541,-100,4,2,0,70,0,1
107128,-100,4,1,0,60,0,1
109645,-100,4,1,0,60,0,0
110748,-100,4,2,0,70,0,0
111093,-100,4,1,0,60,0,0
111438,-100,4,2,0,70,0,0
111610,-100,4,1,0,60,0,0
111783,-100,4,2,0,70,0,0
111955,-100,4,1,0,60,0,0
112128,-100,4,2,0,70,0,0
112472,-100,4,1,0,60,0,0
113162,-100,4,2,0,70,0,0
113335,-100,4,1,0,60,0,0
113679,-100,4,2,0,70,0,0
113852,-100,4,1,0,60,0,0
114197,-100,4,2,0,70,0,0
114369,-100,4,1,0,60,0,0
114541,-100,4,2,0,70,0,0
114714,-100,4,1,0,60,0,0
114886,-100,4,2,0,70,0,0
115231,-100,4,1,0,60,0,0
115576,-100,4,2,0,70,0,0
115748,-100,4,1,0,60,0,0
115921,-100,4,2,0,70,0,0
116093,-100,4,1,0,60,0,0
116266,-100,4,2,0,70,0,0
116610,-100,4,1,0,60,0,0
116955,-100,4,2,0,70,0,0
117128,-100,4,1,0,60,0,0
117300,-100,4,2,0,70,0,0
117472,-100,4,1,0,60,0,0
117645,-100,4,2,0,70,0,0
117990,-100,4,1,0,60,0,0
118679,-100,4,2,0,70,0,0
118852,-100,4,1,0,60,0,0
119024,-100,4,2,0,70,0,0
119369,-100,4,1,0,60,0,0
119714,-100,4,2,0,70,0,0
119886,-100,4,1,0,60,0,0
120059,-100,4,2,0,70,0,0
120231,-100,4,1,0,60,0,0
120403,-100,4,2,0,70,0,0
120748,-100,4,1,0,60,0,0
121438,-100,4,2,0,70,0,0
121697,-100,4,1,0,60,0,0
121955,-100,4,2,0,70,0,0
122128,-100,4,1,0,60,0,0
122472,-100,4,2,0,70,0,0
122645,-100,4,1,0,60,0,0
122817,-100,4,2,0,70,0,0
122990,-100,4,1,0,60,0,0
123162,-100,4,2,0,70,0,0
123507,-100,4,1,0,60,0,0
123852,-100,4,2,0,70,0,0
124024,-100,4,1,0,60,0,0
124541,-100,4,2,0,70,0,0
124886,-100,4,1,0,60,0,0
125231,-100,4,2,0,70,0,0
125403,-100,4,1,0,60,0,0
125576,-100,4,2,0,70,0,0
125748,-100,4,1,0,60,0,0
125921,-100,4,2,0,70,0,0
126266,-100,4,1,0,60,0,0
126438,-117.647058823529,4,1,0,60,0,0
127300,-117.647058823529,4,2,0,70,0,0
127817,-100,4,1,0,60,0,0
127990,-100,4,2,0,70,0,0
128162,-100,4,1,0,60,0,0
128679,-100,4,2,0,70,0,0
129024,-100,4,1,0,60,0,0
129714,-100,4,2,0,70,0,0
129886,-100,4,1,0,60,0,0
130059,-100,4,2,0,70,0,0
130403,-100,4,1,0,60,0,0
130748,-100,4,2,0,70,0,0
130921,-100,4,1,0,60,0,0
131093,-100,4,2,0,70,0,0
131266,-100,4,1,0,60,0,0
131438,-100,4,2,0,70,0,0
131783,-100,4,1,0,60,0,0
132128,-100,4,2,0,70,0,0
132300,-100,4,1,0,60,0,0
132472,-100,4,2,0,70,0,0
132645,-100,4,1,0,60,0,0
132817,-100,4,2,0,70,0,0
133335,-100,4,1,0,60,0,0
133852,-100,4,2,0,70,0,0
134541,-100,4,1,0,60,0,0
134886,-100,4,2,0,70,0,0
135059,-100,4,1,0,60,0,0
135231,-100,4,2,0,70,0,0
135403,-100,4,1,0,60,0,0
135576,-100,4,2,0,70,0,0
135921,-100,4,1,0,60,0,0
136955,-153.846153846154,4,1,0,60,0,0
137128,-153.846153846154,4,2,0,70,0,0
137472,-153.846153846154,4,1,0,60,0,0
138507,-153.846153846154,4,2,0,70,0,0
138852,-153.846153846154,4,1,0,60,0,0
139369,-153.846153846154,4,2,0,70,0,0
139541,-153.846153846154,4,1,0,60,0,0
139886,-153.846153846154,4,2,0,70,0,0
140059,-153.846153846154,4,1,0,60,0,0
141266,-153.846153846154,4,2,0,70,0,0
141610,-153.846153846154,4,1,0,60,0,0
142128,-153.846153846154,4,2,0,70,0,0
142300,-153.846153846154,4,1,0,60,0,0
142472,-100,4,2,0,70,0,0
142817,-100,4,1,0,60,0,0
143162,-100,4,2,0,70,0,0
143766,-100,4,1,0,60,0,0
143852,-100,4,2,0,70,0,0
144197,-100,4,1,0,60,0,0
145231,-100,4,2,0,70,0,0
145576,-100,4,1,0,60,0,0
145921,-100,4,2,0,70,0,0
146093,-100,4,1,0,60,0,0
146266,-100,4,2,0,70,0,0
146438,-100,4,1,0,60,0,0
146610,-100,4,2,0,70,0,0
146955,-100,4,1,0,60,0,0
147990,-153.846153846154,4,1,0,60,0,0
148162,-153.846153846154,4,2,0,70,0,0
148507,-153.846153846154,4,1,0,60,0,0
149541,-153.846153846154,4,2,0,70,0,0
149886,-153.846153846154,4,1,0,60,0,0
150403,-153.846153846154,4,2,0,70,0,0
150576,-153.846153846154,4,1,0,60,0,0
150921,-153.846153846154,4,2,0,70,0,0
151179,-153.846153846154,4,1,0,60,0,0
152300,-153.846153846154,4,2,0,70,0,0
152645,-153.846153846154,4,1,0,60,0,0
153679,-153.846153846154,4,2,0,70,0,0
154024,-153.846153846154,4,1,0,60,0,0
154197,-100,4,2,0,70,0,0
154369,-100,4,1,0,60,0,0
154541,-100,4,2,0,70,0,0
154714,-100,4,1,0,60,0,0
154817,-100,4,1,0,60,0,1
154886,-100,4,2,0,70,0,1
155231,-100,4,1,0,60,0,1
155576,-100,4,2,0,70,0,1
155748,-100,4,1,0,60,0,1
156438,-100,4,2,0,70,0,1
156610,-100,4,1,0,60,0,1
156955,-100,4,2,0,70,0,1
157128,-100,4,1,0,60,0,1
157300,-100,4,2,0,70,0,1
157472,-100,4,1,0,60,0,1
157645,-100,4,2,0,70,0,1
158162,-100,4,1,0,60,0,1
158679,-100,4,2,0,70,0,1
158852,-100,4,1,0,60,0,1
159714,-100,4,2,0,70,0,1
159886,-100,4,1,0,60,0,1
165231,-100,4,2,0,70,0,1
165490,-100,4,1,0,60,0,1
165576,-100,4,2,0,70,0,1
165748,-100,4,1,0,60,0,1
165921,-100,4,2,0,70,0,1
166266,-100,4,1,0,60,0,1
166610,-100,4,2,0,70,0,1
166783,-100,4,1,0,60,0,1
166955,-100,4,2,0,70,0,1
167128,-100,4,1,0,60,0,1
167300,-100,4,2,0,70,0,1
167645,-100,4,1,0,60,0,1
167990,-100,4,2,0,70,0,1
168162,-100,4,1,0,60,0,1
168335,-100,4,2,0,70,0,1
168507,-100,4,1,0,60,0,1
168679,-100,4,2,0,70,0,1
168852,-100,4,1,0,60,0,1
169369,-100,4,2,0,70,0,1
169541,-100,4,1,0,60,0,1
169714,-100,4,2,0,70,0,1
169886,-100,4,1,0,60,0,1
170059,-100,4,2,0,70,0,1
170403,-100,4,1,0,60,0,1
170748,-100,4,2,0,70,0,1
170921,-153.846153846154,4,1,0,60,0,1
171610,-153.846153846154,4,2,0,70,0,1
171955,-153.846153846154,4,1,0,60,0,1
172990,-153.846153846154,4,2,0,70,0,1
173162,-153.846153846154,4,1,0,60,0,1
174197,-153.846153846154,4,2,0,70,0,1
174541,-153.846153846154,4,1,0,60,0,1
175748,-153.846153846154,4,2,0,70,0,1
176093,-153.846153846154,4,1,0,60,0,1
176886,-153.846153846154,4,1,0,60,0,0

[Colours]
Combo1 : 64,128,128
Combo2 : 0,64,128
Combo3 : 182,203,201

[HitObjects]
256,192,9645,12,0,10679,0:0:0
180,168,11024,1,0,0:0:0
180,168,11196,1,2,0:0:0
180,168,11369,1,2,0:0:0
180,168,11541,6,2,B|224:168|264:180,1,85,2|2,0:0|0:0,0:0:0
304,276,11886,2,0,B|380:232,1,85,0|0,0:0|0:0,0:0:0
224,292,12231,2,0,B|136:280,1,85
312,316,12576,6,0,B|388:272,1,85
232,332,12921,2,0,B|144:320,1,85
76,248,13265,1,0,0:0:0
116,152,13438,2,0,B|200:140|284:116,1,170
380,236,13955,6,2,B|464:264,1,85
308,260,14300,2,2,B|280:344,1,85,2|2,0:0|0:0,0:0:0
200,276,14645,2,0,B|160:288|116:288,1,85
52,212,14990,5,0,0:0:0
120,136,15162,1,0,0:0:0
256,188,15334,1,0,0:0:0
320,108,15507,2,0,B|236:108,1,85
256,188,15852,2,0,B|172:188,2,85
312,296,16369,5,0,0:0:0
436,288,16541,1,0,0:0:0
436,288,16627,1,0,0:0:0
436,288,16714,2,2,B|409:254|371:232,1,85,2|2,0:0|0:0,1:0:0
328,96,17058,2,0,B|396:148,2,85,2|2|0,0:0|0:0|0:0,0:0:0
288,220,17576,2,0,B|299:304,2,85
176,280,18093,2,0,B|123:348,2,85
288,220,18610,5,0,0:0:0
180,152,18783,1,0,0:0:0
52,144,18955,2,0,B|38:179|56:230|100:267|140:267,1,170
152,256,19386,5,0,0:0:0
164,244,19472,2,2,B|111:312,2,85,2|2|2,0:0|0:0|0:0,0:0:0
252,272,19990,1,2,0:0:0
252,272,20162,1,0,0:0:0
324,212,20334,1,0,0:0:0
324,212,20507,1,0,0:0:0
360,116,20679,1,0,0:0:0
360,116,20852,2,0,B|320:104|320:104|276:100|276:100,1,85
188,52,21196,5,0,0:0:0
188,52,21369,1,0,0:0:0
108,112,21541,1,0,0:0:0
108,112,21714,2,0,B|184:148|252:200,1,170
256,100,22231,5,2,0:0:0
256,100,22317,1,0,0:0:0
256,100,22403,2,2,B|292:124|324:152,1,85
364,264,22748,1,2,0:0:0
248,240,22921,2,0,B|212:216|180:188,1,85
256,100,23265,2,0,B|292:124|324:152,1,85
260,220,23610,6,0,B|224:196|192:168,1,85
268,80,23955,2,0,B|304:104|336:132,1,85
272,200,24300,6,0,B|236:176|204:148,1,85
204,148,24645,37,0,0:0:0
272,199,24817,2,0,B|308:223|340:251,1,85,0|2,0:0|0:0,0:0:0
444,176,25162,1,2,0:0:0
360,80,25334,1,2,0:0:0
260,160,25507,1,2,0:0:0
344,256,25679,1,0,0:0:0
192,288,25852,6,0,B|144:292|116:256,1,85
60,116,26196,2,0,B|108:112|136:148,1,85
135,146,26541,1,0,0:0:0
256,104,26714,2,0,B|344:104,1,85
408,208,27058,1,0,0:0:0
308,248,27231,6,0,B|306:285|342:310|378:336|412:321,2,144.500002756119,0|0|2,0:0|0:0|0:0,0:0:0
236,196,28093,2,0,B|92:216,1,144.500002756119,2|0,0:0|0:0,0:0:0
164,292,28610,22,0,B|80:304,2,85
364,52,29300,1,0,0:0:0
324,124,29472,1,2,0:0:0
280,196,29645,1,0,0:0:0
232,264,29817,1,2,0:0:0
180,332,29990,1,0,0:0:0
96,108,30334,5,0,0:0:0
96,108,30421,1,0,0:0:0
96,108,30507,2,2,B|120:144|156:168,1,85
236,80,30852,2,0,B|274:99|317:101,2,85,2|2|0,0:0|0:0|0:0,0:0:0
156,168,31369,1,0,0:0:0
264,256,31541,5,0,0:0:0
264,256,31714,1,0,0:0:0
364,152,31886,1,0,0:0:0
364,152,32058,1,0,0:0:0
252,60,32231,1,0,0:0:0
252,60,32403,1,0,0:0:0
156,168,32576,2,0,B|72:200,2,85
92,276,33093,5,0,0:0:0
184,236,33265,2,0,B|264:200,1,85
264,100,33610,2,0,B|288:136|324:160,1,85
323,159,33955,1,0,0:0:0
340,260,34127,2,0,B|390:293|464:220|430:169,2,170
324,160,34990,6,0,B|273:126|199:199|233:250,2,170
200,68,35852,6,0,B|160:88|140:128,1,85
264,36,36196,2,0,B|305:24|347:40,1,85
224,100,36541,2,0,B|184:120|164:160,1,85
288,68,36886,2,0,B|329:56|371:72,1,85
384,200,37231,6,0,B|332:232|332:232|284:196|228:212,1,170,0|0,0:0|0:0,0:0:0
204,220,37662,1,0,0:0:0
180,228,37748,1,0,0:0:0
64,224,37921,6,0,B|100:120,2,110.499994941712
168,304,38955,1,0,2:1:0
264,184,39300,2,0,B|248:220|286:261|326:251,2,110.499994941712
396,180,40334,2,0,B|411:143|373:102|333:112,2,110.499994941712
280,44,41369,5,0,0:0:0
156,92,41714,1,0,0:0:0
268,164,42058,2,0,B|233:144|188:177|193:218,1,110.499994941712
224,300,42576,1,0,0:0:0
312,276,42748,2,0,B|346:295|391:262|386:221,1,110.499994941712
236,256,43265,6,0,B|148:232|88:176,2,170
348,176,44127,2,0,B|424:136,1,85
288,124,44472,2,0,B|333:51,1,85
212,112,44817,2,0,B|215:26,2,85
144,232,45334,1,0,0:0:0
144,232,45507,1,0,0:0:0
144,232,45679,2,0,B|236:252|296:308,3,170
350,172,46886,5,0,0:0:0
484,227,47058,1,0,0:0:0
430,361,47231,1,0,0:0:0
296,308,47403,1,0,0:0:0
292,164,47576,2,0,B|262:119|161:156|160:211,1,170
256,248,48093,1,0,0:0:0
292,164,48265,2,0,B|321:208|422:171|423:116,1,170
416,108,48696,5,0,0:0:0
408,96,48783,2,0,B|492:128,2,85
312,64,49300,2,0,B|232:36,1,85
136,96,49645,5,0,0:0:0
60,204,49990,2,0,B|164:248,1,110.499994941712
256,156,50679,1,0,0:0:0
380,200,51024,1,0,0:0:0
304,308,51369,1,0,0:0:0
224,276,51541,1,0,0:0:0
224,276,51627,1,0,0:0:0
224,276,51714,6,0,B|184:236|124:236,1,110.499994941712
48,128,52403,2,0,B|60:152|136:152|148:128,2,110.499994941712
60,216,53265,1,0,0:0:0
152,212,53438,2,0,B|164:236|240:236|252:212,2,110.499994941712
256,296,54472,2,0,B|268:320|344:320|356:296,2,110.499994941712
156,272,55334,5,2,0:0:0
64,232,55507,1,2,0:0:0
120,148,55679,1,2,0:0:0
212,192,55852,2,0,B|296:192,1,85,2|0,0:0|0:0,0:0:0
428,124,56196,2,0,B|336:124,1,85
124,48,56541,6,2,B|68:148,1,114.750000437737
204,252,56886,2,2,B|262:350,2,114.750000437737
296,104,57403,2,2,B|410:102,2,114.750000437737
168,56,57921,5,0,0:0:0
80,136,58093,1,2,0:0:0
168,56,58265,1,2,0:0:0
184,200,58438,2,2,B|192:244|224:272,1,85
284,192,58783,1,0,0:0:0
384,180,58955,2,0,B|376:136|344:108,1,85
272,224,59300,5,2,0:0:0
212,348,59472,1,2,0:0:0
88,284,59645,1,2,0:0:0
208,216,59817,2,2,B|224:291|346:310|393:245,1,229.500000875473,2|0,0:0|0:0,0:0:0
320,364,60334,2,2,B|432:320|432:320,1,114.750000437737
304,204,60679,5,0,0:0:0
304,204,60852,1,2,0:0:0
200,132,61024,1,2,0:0:0
200,132,61196,1,2,0:0:0
116,228,61369,1,2,0:0:0
116,228,61541,1,0,0:0:0
220,304,61714,1,0,0:0:0
220,304,61886,1,0,0:0:0
296,136,62058,5,0,0:0:0
296,136,62231,2,0,B|344:104|404:104,2,114.750000437737
220,304,62748,1,2,0:0:0
220,304,62921,2,2,B|268:272|328:272,2,114.750000437737,2|2|0,0:0|0:0|0:0,0:0:0
208,292,63352,5,0,0:0:0
200,280,63438,2,0,B|252:352,2,85,0|2|2,0:0|0:0|0:0,0:0:0
176,144,63955,1,2,0:0:0
312,124,64127,2,0,B|252:188,1,85,2|0,0:0|0:0,0:0:0
388,168,64472,2,0,B|328:232,1,85
164,104,64817,6,0,B|176:220|236:320,1,229.500000875473
212,324,65248,5,0,0:0:0
188,328,65334,2,0,B|268:360,2,85
92,256,65852,1,0,0:0:0
76,140,66024,1,0,0:0:0
212,212,66196,1,0,0:0:0
212,212,66369,2,0,B|240:176|276:156,1,85
392,140,66714,1,0,0:0:0
392,140,66886,2,0,B|427:85|355:16|302:53,2,170
496,80,67748,2,0,B|468:168,1,85
344,248,68093,5,0,0:0:0
236,184,68265,1,0,0:0:0
236,312,68438,1,0,0:0:0
128,244,68610,1,0,0:0:0
236,184,68783,1,0,0:0:0
236,184,68955,6,0,B|400:280,2,170
200,60,69817,1,0,0:0:0
200,60,69990,2,0,B|364:156,2,170
228,160,70852,1,0,0:0:0
260,264,71024,1,0,0:0:0
292,368,71196,1,0,0:0:0
256,192,71541,12,0,73783,0:0:0
256,192,73955,12,0,76024,0:0:0
324,56,76369,2,0,B|244:24,2,85
420,128,76886,1,0,0:0:0
436,244,77058,1,0,0:0:0
300,172,77231,1,0,0:0:0
300,172,77403,2,0,B|272:208|236:228,1,85
120,244,77748,1,0,0:0:0
120,244,77921,2,0,B|85:299|157:368|210:331,2,170
16,304,78783,2,0,B|44:216,1,85
168,136,79127,5,0,0:0:0
276,200,79300,1,0,0:0:0
276,72,79472,1,0,0:0:0
384,140,79645,1,0,0:0:0
276,200,79817,1,0,0:0:0
276,200,79990,6,0,B|112:104,2,170
312,324,80852,1,0,0:0:0
312,324,81024,2,0,B|148:228,2,170
284,224,81886,1,0,0:0:0
252,120,82058,1,0,0:0:0
220,16,82231,1,0,0:0:0
256,192,82576,12,0,84472,0:0:0
256,192,84645,12,0,87748,0:0:0
368,236,88265,37,0,0:0:0
368,236,88438,2,0,B|352:276|232:276|216:236,1,170
100,208,88955,2,0,B|160:280,2,85
188,152,89472,2,0,B|146:163|74:67|96:30,2,170
336,116,90334,5,0,0:0:0
336,116,90507,2,0,B|280:184,1,85
180,296,90852,2,0,B|236:232,1,85
84,72,91369,5,2,0:0:0
56,200,91714,1,2,0:0:0
160,280,92058,1,0,0:0:0
188,152,92403,5,0,0:0:0
188,152,92576,1,2,0:0:0
188,152,92748,2,2,B|232:116|284:96,1,110.499994941712,2|0,0:0|0:0,0:0:0
364,84,93265,1,0,0:0:0
400,160,93438,6,2,B|356:196|304:216,1,110.499994941712,2|0,0:0|0:0,0:0:0
172,232,94127,2,2,B|143:262|171:310|214:304,2,110.499994941712
300,264,95162,2,0,B|328:233|300:185|258:191,2,110.499994941712
392,168,96196,1,0,0:0:0
296,76,96541,5,0,0:0:0
296,76,96714,1,0,0:0:0
296,76,96886,2,2,B|184:68,1,110.499994941712,0|2,0:0|0:0,0:0:0
72,136,97576,6,2,B|184:144,1,110.499994941712,0|2,0:0|0:0,0:0:0
182,143,98265,1,2,0:0:0
280,236,98610,1,2,0:0:0
280,236,98955,1,2,0:0:0
324,56,99127,6,0,B|244:24,2,85
420,128,99645,1,2,0:0:0
436,244,99817,1,0,0:0:0
300,172,99990,1,2,0:0:0
300,172,100162,2,2,B|272:208|236:228,1,85,2|0,0:0|0:0,0:0:0
120,244,100507,1,0,0:0:0
120,244,100679,2,0,B|85:299|157:368|210:331,2,170,0|0|2,0:0|0:0|0:0,0:0:0
16,304,101541,2,0,B|44:216,1,85
168,136,101886,5,0,0:0:0
276,200,102058,1,0,0:0:0
276,72,102231,1,0,0:0:0
384,140,102403,1,2,0:0:0
276,200,102576,1,0,0:0:0
276,200,102748,6,0,B|112:104,2,170,2|0|0,0:0|0:0|0:0,0:0:0
312,324,103610,1,2,0:0:0
312,324,103783,2,0,B|148:228,2,170,2|2|0,0:0|0:0|0:0,0:0:0
284,224,104645,1,0,0:0:0
284,224,104817,1,0,0:0:0
256,192,104990,12,0,107231,0:0:0
256,192,107403,12,0,109472,0:0:0
380,240,110334,1,0,0:0:0
364,232,110507,1,2,0:0:0
348,224,110679,1,2,0:0:0
332,216,110852,6,2,B|288:216|248:204,1,85,2|2,0:0|0:0,0:0:0
208,108,111196,2,0,B|132:152,1,85,0|0,0:0|0:0,0:0:0
288,92,111541,2,0,B|376:104,1,85
200,68,111886,38,0,B|124:112,1,85
280,52,112231,2,0,B|368:64,1,85
436,136,112576,1,0,0:0:0
396,232,112748,2,0,B|312:244|228:268,1,170
132,148,113265,6,2,B|48:120,1,85
204,124,113610,2,2,B|232:40,1,85
312,108,113955,2,0,B|352:96|396:96,1,85
460,172,114300,5,0,0:0:0
392,248,114472,1,0,0:0:0
256,196,114645,1,0,0:0:0
192,276,114817,2,0,B|276:276,1,85
256,196,115162,2,0,B|340:196,2,85
200,88,115679,5,0,0:0:0
76,96,115852,1,0,0:0:0
76,96,115938,1,0,0:0:0
76,96,116024,2,2,B|103:130|141:152,1,85,2|2,0:0|0:0,1:0:0
184,288,116369,2,2,B|116:236,2,85,2|2|0,0:0|0:0|0:0,0:0:0
224,164,116886,2,0,B|213:80,2,85
336,104,117403,2,0,B|389:36,2,85
224,164,117921,5,0,0:0:0
332,232,118093,1,0,0:0:0
460,240,118265,2,0,B|474:205|456:154|412:117|372:117,1,170
360,128,118696,5,0,0:0:0
348,140,118783,2,2,B|401:72,2,85
260,112,119300,1,2,0:0:0
260,112,119472,1,0,0:0:0
188,172,119645,1,0,0:0:0
188,172,119817,1,2,0:0:0
152,268,119990,1,0,0:0:0
152,268,120162,2,0,B|192:280|192:280|236:284|236:284,1,85
324,332,120507,5,0,0:0:0
324,332,120679,1,0,0:0:0
404,272,120852,1,0,0:0:0
404,272,121024,2,0,B|328:236|260:184,1,170
256,284,121541,5,2,0:0:0
256,284,121627,1,0,0:0:0
256,284,121714,2,2,B|220:260|188:232,1,85,2|0,0:0|0:0,0:0:0
148,120,122058,1,2,0:0:0
264,144,122231,2,0,B|300:168|332:196,1,85
256,284,122576,2,0,B|220:260|188:232,1,85
252,164,122921,6,0,B|288:188|320:216,1,85
244,304,123265,2,0,B|208:280|176:252,1,85
240,184,123610,6,0,B|276:208|308:236,1,85
308,236,123955,5,0,0:0:0
240,185,124127,2,0,B|204:161|172:133,1,85,0|2,0:0|0:0,0:0:0
68,208,124472,1,2,0:0:0
152,304,124645,1,2,0:0:0
252,224,124817,1,2,0:0:0
168,128,124990,1,0,0:0:0
320,96,125162,6,0,B|368:92|396:128,1,85,0|2,0:0|0:0,0:0:0
452,268,125507,2,0,B|404:272|376:236,1,85,0|2,0:0|0:0,0:0:0
377,238,125852,1,0,0:0:0
256,280,126024,2,2,B|168:280,1,85
104,176,126369,1,0,0:0:0
204,136,126541,6,0,B|206:99|170:74|134:48|100:63,2,144.500002756119,0|0|2,0:0|0:0|0:0,0:0:0
276,188,127403,2,2,B|420:168,1,144.500002756119,2|0,0:0|0:0,0:0:0
348,92,127921,22,0,B|432:80,2,85
148,332,128610,1,0,0:0:0
188,260,128783,1,2,0:0:0
232,188,128955,1,2,0:0:0
280,120,129127,1,0,0:0:0
332,52,129300,1,0,0:0:0
416,276,129645,5,0,0:0:0
416,276,129731,1,0,0:0:0
416,276,129817,2,2,B|392:240|356:216,1,85
276,304,130162,2,0,B|238:285|195:283,2,85,2|2|0,0:0|0:0|0:0,0:0:0
356,216,130679,1,0,0:0:0
248,128,130852,5,0,0:0:0
248,128,131024,1,0,0:0:0
148,232,131196,1,2,0:0:0
148,232,131369,1,0,0:0:0
260,324,131541,1,0,0:0:0
260,324,131714,1,0,0:0:0
356,216,131886,2,0,B|440:184,2,85
328,148,132403,6,0,B|248:184,1,85
248,284,132748,2,0,B|224:248|188:224,1,85
172,124,133093,2,0,B|122:91|48:164|82:215,2,170
188,224,133955,38,0,B|239:258|313:185|279:134,2,170
312,316,134817,6,0,B|352:296|372:256,1,85
248,348,135162,2,0,B|207:360|165:344,1,85
288,284,135507,2,0,B|328:264|348:224,1,85
224,316,135852,2,0,B|183:328|141:312,1,85
128,184,136196,6,0,B|180:152|180:152|228:188|284:172,2,170
240,260,137231,5,0,0:0:0
324,160,137576,1,0,0:0:0
192,148,137921,2,0,B|144:176|144:176|108:220,1,110.499994941712
232,272,138610,2,0,B|280:244|280:244|316:200,1,110.499994941712
328,68,139300,1,0,0:0:0
328,68,139472,1,0,0:0:0
328,68,139645,1,0,0:0:0
392,184,139989,5,0,0:0:0
392,184,140162,1,0,0:0:0
392,184,140334,1,0,0:0:0
268,236,140679,2,0,B|245:264|299:318|330:292,1,110.499994941712
268,236,141369,2,0,B|290:207|236:153|205:179,1,110.499994941712
206,178,142058,1,0,0:0:0
206,178,142231,1,0,0:0:0
206,178,142403,1,0,0:0:0
364,56,142576,6,0,B|329:95|401:181|453:163,1,170
127,192,143265,2,0,B|178:174|250:260|216:300,1,170
200,312,143696,1,0,0:0:0
184,324,143783,2,0,B|272:324,2,85
128,192,144300,1,0,0:0:0
140,72,144472,2,0,B|260:204,2,170
160,76,145248,5,0,0:0:0
180,80,145334,2,0,B|136:84|100:112,2,85
324,136,145852,2,0,B|300:52,1,85
320,204,146196,2,0,B|292:288,1,85
360,136,146541,2,0,B|336:52,1,85
356,204,146886,2,0,B|328:288,1,85
312,288,147231,5,0,0:0:0
280,292,147576,1,0,0:0:0
248,296,147921,1,0,0:0:0
128,164,148265,5,0,0:0:0
240,92,148610,2,0,B|216:140|200:196,1,110.499994941712
332,176,149300,2,0,B|308:224|292:280,1,110.499994941712
172,224,149989,1,0,0:0:0
296,276,150334,1,0,0:0:0
296,276,150507,1,0,0:0:0
296,276,150679,1,0,0:0:0
348,152,151024,5,0,0:0:0
348,152,151110,1,0,0:0:0
348,152,151196,2,0,B|304:120,1,55.2499974708558
172,136,151714,2,0,B|167:99|92:99|84:136,2,110.499994941712
84,236,152748,2,0,B|88:272|163:272|171:236,2,110.499994941712
68,264,153783,5,0,0:0:0
52,292,154127,1,0,0:0:0
188,328,154300,6,0,B|268:360,2,85
92,256,154817,1,0,0:0:0
76,140,154989,1,0,0:0:0
212,212,155162,1,0,0:0:0
212,212,155334,2,0,B|240:176|276:156,1,85
392,140,155679,1,0,0:0:0
392,140,155852,2,0,B|427:85|355:16|302:53,2,170
496,80,156714,2,0,B|468:168,1,85
344,248,157058,5,0,0:0:0
236,184,157231,1,0,0:0:0
236,312,157403,1,0,0:0:0
128,244,157576,1,2,0:0:0
236,184,157748,1,0,0:0:0
236,184,157921,6,0,B|400:280,2,170,2|2|0,0:0|0:0|0:0,0:0:0
200,60,158783,1,2,0:0:0
200,60,158955,2,0,B|364:156,2,170,2|2|0,0:0|0:0|0:0,0:0:0
228,160,159817,1,0,0:0:0
228,160,159989,1,0,0:0:0
256,192,160162,12,0,162403,0:0:0
256,192,162576,12,0,164989,0:0:0
320,220,165334,5,0,0:0:0
320,220,165421,1,0,0:0:0
320,220,165507,2,0,B|240:252,1,85
88,240,165852,2,0,B|168:208,1,85
188,56,166196,1,2,0:0:0
340,60,166369,1,0,0:0:0
264,192,166541,1,0,0:0:0
416,196,166714,1,0,0:0:0
328,288,166886,2,0,B|288:276|244:276,1,85,0|2,0:0|0:0,0:0:0
340,192,167231,2,0,B|300:180|256:180,1,85,2|0,0:0|0:0,0:0:0
244,168,167489,5,0,0:0:0
232,156,167576,2,0,B|276:232,2,85,0|2|0,0:0|0:0|0:0,0:0:0
152,276,168093,2,0,B|129:360,2,85
152,276,168610,1,2,0:0:0
256,236,168783,1,2,0:0:0
364,252,168955,1,2,0:0:0
444,328,169127,1,0,0:0:0
444,328,169472,5,0,0:0:0
364,252,169645,1,0,0:0:0
256,236,169817,1,2,0:0:0
152,276,169989,1,2,0:0:0
76,164,170162,2,2,B|108:136|156:140,1,85
272,72,170507,2,0,B|172:72,2,85,0|2|0,0:0|0:0|0:0,0:0:0
324,144,171024,5,0,0:0:0
280,268,171369,2,0,B|288:304|356:304|368:268,2,110.499994941712,0|2|0,0:0|0:0|0:0,0:0:0
176,188,172403,2,0,B|184:224|252:224|264:188,2,110.499994941712,0|2|0,0:0|0:0|0:0,0:0:0
216,136,173265,1,2,0:0:0
260,84,173438,2,0,B|252:48|184:48|172:84,2,110.499994941712
316,144,174300,5,2,0:0:0
316,144,174472,1,2,0:0:0
316,224,174645,1,2,0:0:0
316,224,174817,1,0,0:0:0
204,292,175162,2,0,B|96:248,1,110.499994941712
216,184,175852,2,0,B|104:136,2,110.499994941712,0|0|4,0:0|0:0|0:0,0:0:0
