osu file format v10

[General]
AudioFilename: Pendulum-Blood Sugar.mp3
AudioLeadIn: 0
PreviewTime: 89707
Countdown: 0
SampleSet: Soft
StackLeniency: 0.7
Mode: 0
LetterboxInBreaks: 1
EpilepsyWarning: 1

[Editor]
Bookmarks: 155502,177065,196156,242520
DistanceSpacing: 1
BeatDivisor: 4
GridSize: 4

[Metadata]
Title:Blood Sugar
TitleUnicode:Blood Sugar
Artist:Pendulum
ArtistUnicode:Pendulum
Creator:jamxx
Version:Normal
Source:
Tags:Drum and Bass DnB Hold Your Colour
BeatmapID:195014
BeatmapSetID:66827

[Difficulty]
HPDrainRate:3
CircleSize:3
OverallDifficulty:3
ApproachRate:5
SliderMultiplier:0.999999999999999
SliderTickRate:1

[Events]
//Background and Video events
0,0,"bg.jpg"
//Break Periods
2,68174,72229
2,176923,194956
//Storyboard Layer 0 (Background)
//Storyboard Layer 1 (Fail)
//Storyboard Layer 2 (Pass)
//Storyboard Layer 3 (Foreground)
//Storyboard Sound Samples
//Background Colour Transformations
3,100,163,162,255

[TimingPoints]
2520,340.909090909091,4,2,1,30,1,0
42747,-100,4,2,1,40,0,0
43429,-100,4,2,1,50,0,0
44110,-100,4,2,1,60,0,0
44451,-100,4,2,1,30,0,0
46071,-100,4,2,1,80,0,0
84593,-100,4,2,1,50,0,0
85616,-100,4,2,1,60,0,0
86980,-100,4,2,1,70,0,0
88343,-100,4,2,1,40,0,0
89110,-100,4,1,1,20,0,0
89707,-100,4,1,1,60,0,0
89792,-100,4,1,1,60,0,1
110162,-100,4,1,1,40,0,1
111525,-100,4,1,1,60,0,1
111610,-100,4,1,1,60,0,0
133343,-100,4,2,1,40,0,0
134707,-100,4,1,1,60,0,0
134792,-100,4,1,1,60,0,1
155247,-100,4,1,1,60,0,0
196156,-100,4,2,1,30,0,0
198883,-100,4,2,1,20,0,0
201610,-100,4,2,1,25,0,0
204338,-100,4,2,1,30,0,0
207065,-100,4,2,1,40,0,0
209792,-100,4,2,1,50,0,0
217889,-100,4,1,1,30,0,0
219423,-100,4,1,1,50,0,0
220701,-100,4,1,1,60,0,0
243883,-100,4,1,1,60,0,1
262889,-100,4,1,1,40,0,1
264252,-100,4,1,1,60,0,1
264338,-100,4,1,1,60,0,0
286071,-100,4,2,1,60,0,0
287434,-100,4,1,1,60,0,0
287520,-100,4,1,1,60,0,1
302520,357.142857142857,4,1,1,50,1,0
303948,379.746835443038,4,1,1,45,1,0
304707,405.405405405405,4,1,1,40,1,0
305517,434.782608695652,4,1,1,40,1,0
306386,476.190476190476,4,1,1,40,1,0
307338,517.241379310345,4,1,1,35,1,0
308372,612.244897959184,4,1,1,30,1,0
309596,625,4,1,1,60,1,0
310846,-100,4,1,1,50,0,0
312096,-100,4,1,1,40,0,0
313346,-100,4,1,1,30,0,0
313971,-100,4,1,1,20,0,0
314596,-100,4,2,1,5,0,0

[Colours]
Combo1 : 192,192,192
Combo2 : 128,128,255
Combo3 : 255,128,64
Combo4 : 0,128,255
Combo5 : 255,104,104
Combo6 : 128,128,128

[HitObjects]
256,192,42065,12,0,44451,0:0:0
256,192,46156,6,0,P|156:192|156:192|72:132,1,200,8|0,0:0|0:0,0:0:0
256,44,47520,2,0,P|356:44|356:44|440:104,1,200,0|0,0:0|0:0,0:0:0
484,192,48542,1,8,0:0:0
437,281,48883,6,0,P|356:340|356:340|256:340,1,200,8|0,0:0|0:0,0:0:0
256,140,50247,2,0,P|256:36,2,99.9999999999999
256,340,51610,6,0,P|156:340|156:340|132:240,1,200,8|0,0:0|0:0,0:0:0
256,84,52974,2,0,P|296:112|328:156,1,99.9999999999999
379,237,53656,2,0,P|331:253|284:240,1,99.9999999999999,0|8,0:0|0:0,0:0:0
196,192,54338,6,0,P|96:192|96:192|72:292,1,200,8|0,0:0|0:0,0:0:0
272,312,55701,2,0,P|312:284|344:240,1,99.9999999999999
344,144,56383,2,0,P|372:96,2,50
256,192,57065,38,0,P|56:192,1,200,8|0,0:0|0:0,0:0:0
206,60,58429,1,0,0:0:0
306,60,58770,1,0,0:0:0
256,146,59110,2,0,P|256:248,1,99.9999999999999,0|8,0:0|0:0,0:0:0
256,348,59792,6,0,P|349:317|404:236,1,200,8|0,0:0|0:0,0:0:0
364,40,61156,2,0,P|304:120|304:120|256:96|208:120|208:120|148:40,1,300,0|0,0:0|0:0,0:0:0
89,121,62520,6,0,P|80:224|124:312,1,200,8|0,0:0|0:0,0:0:0
221,308,63542,1,8,0:0:0
221,308,63883,2,0,P|179:223|188:120,1,200,8|0,0:0|0:0,0:0:0
237,33,64906,1,8,0:0:0
306,105,65247,6,0,P|409:105,1,99.9999999999999,8|8,0:0|0:0,0:0:0
455,192,65929,2,0,P|351:192,1,99.9999999999999,8|8,0:0|0:0,0:0:0
306,279,66610,2,0,P|409:279,2,99.9999999999999,8|8|8,0:0|0:0|0:0,0:0:0
206,279,67633,1,8,0:0:0
256,192,67974,21,4,0:0:0
256,92,73429,6,0,P|256:192,1,99.9999999999999,8|0,0:0|0:0,0:0:0
206,279,74110,1,0,0:0:0
306,279,74451,1,0,0:0:0
406,279,74792,2,0,P|456:192|456:92,1,200,0|0,0:0|0:0,0:0:0
356,94,75815,1,8,0:0:0
255,94,76156,6,0,P|205:181|205:281,1,200,8|0,0:0|0:0,0:0:0
304,278,77179,1,0,0:0:0
404,278,77520,2,0,P|452:264|484:224,2,99.9999999999999
352,192,78542,1,8,0:0:0
304,278,78883,6,0,P|204:278,1,99.9999999999999,8|0,0:0|0:0,0:0:0
152,192,79565,2,0,P|264:192,1,99.9999999999999
304,106,80247,2,0,P|102:106,1,200,0|0,0:0|0:0,0:0:0
52,192,81270,1,8,0:0:0
152,192,81610,6,0,P|208:280,1,99.9999999999999,8|0,0:0|0:0,0:0:0
306,276,82292,2,0,P|360:192,1,99.9999999999999,0|0,0:0|0:0,0:0:0
380,92,82974,54,0,P|316:48|316:48|284:96|284:96|272:52|272:52|224:104|160:100,1,300,0|8,0:0|0:0,0:0:0
66,100,84338,21,8,0:0:0
24,192,84679,1,0,0:0:0
66,284,85020,1,2,0:0:0
256,220,85701,38,0,P|256:120,2,99.9999999999999,0|0|2,0:0|0:0|0:0,0:0:0
446,284,87065,21,0,0:0:0
488,192,87406,1,0,0:0:0
446,100,87747,1,2,0:0:0
254,91,88429,22,2,P|170:136|163:231,1,200,0|8,0:0|0:0,0:0:0
348,151,89792,22,2,P|342:248|258:293,1,200,4|0,0:0|0:0,0:0:0
158,293,90815,1,8,0:0:0
208,206,91156,2,0,P|208:156|208:156|172:120,2,99.9999999999999,0|8|0,0:0|0:0|0:0,0:0:0
107,206,92179,1,8,0:0:0
76,112,92520,6,2,P|131:34|228:40,1,200,2|2,0:0|0:0,0:0:0
352,196,93883,2,2,P|297:274|200:268,1,200,2|2,0:0|0:0,0:0:0
256,76,95247,6,0,P|356:76,2,99.9999999999999,4|8|0,0:0|0:0|0:0,0:0:0
169,126,96270,1,8,0:0:0
256,174,96610,2,0,P|356:174|356:174|376:224|356:272,1,200
256,292,97633,1,8,0:0:0
156,272,97974,6,2,P|136:224|156:174|156:174|156:72,1,200,2|2,0:0|0:0,0:0:0
356,112,99338,2,2,P|376:160|356:210|356:210|356:312,1,200,2|2,0:0|0:0,0:0:0
156,272,100701,38,0,P|56:272,2,99.9999999999999,4|8|0,0:0|0:0|0:0,0:0:0
256,272,101724,1,8,0:0:0
356,272,102065,2,0,P|304:188|208:188,1,200
156,272,103088,1,8,0:0:0
56,272,103429,6,2,P|60:208|116:180|116:180|116:96,1,200,0|2,0:0|0:0,0:0:0
316,95,104792,2,2,P|316:179|316:179|372:207|376:271,1,200,0|2,0:0|0:0,0:0:0
176,272,106156,22,0,P|116:192|116:96,1,200,4|2,0:0|0:0,0:0:0
200,44,107179,1,8,0:0:0
200,44,107520,2,0,P|228:96|200:148|200:148|204:192|256:216,1,200,4|2,0:0|0:0,0:0:0
354,215,108542,1,8,0:0:0
454,215,108883,54,0,P|416:312|344:372,1,200,4|2,0:0|0:0,0:0:0
256,192,110247,54,0,P|172:140|172:140|172:244|172:244|88:192,1,300,4|8,0:0|0:0,0:0:0
88,92,111610,6,0,P|176:52|264:92,1,200,4|0,0:0|0:0,0:0:0
256,192,112633,1,8,0:0:0
248,292,112974,2,0,P|336:332|424:292,1,200,0|0,0:0|0:0,0:0:0
444,192,113997,1,8,0:0:0
424,92,114338,6,0,P|336:52|248:92,1,200,4|2,0:0|0:0,0:0:0
156,272,115701,2,0,P|256:272,1,99.9999999999999,2|10,0:0|0:0,0:0:0
356,272,116383,1,2,0:0:0
256,100,117065,6,0,P|152:100,2,99.9999999999999,4|8|0,0:0|0:0|0:0,0:0:0
342,150,118088,1,8,0:0:0
256,200,118429,2,0,P|156:200|156:200|156:300,1,200
256,320,119451,1,8,0:0:0
356,300,119792,6,0,P|404:204|384:116,1,200,4|2,0:0|0:0,0:0:0
316,44,120815,1,8,0:0:0
316,44,121156,2,0,P|272:88|292:156|292:156|208:156,1,200,2|2,0:0|0:0,0:0:0
112,156,122179,1,8,0:0:0
112,156,122520,38,0,P|124:252|196:324,1,200,4|0,0:0|0:0,0:0:0
256,244,123542,1,8,0:0:0
317,322,123883,2,0,P|388:252|400:156,1,200,0|0,0:0|0:0,0:0:0
299,156,124906,1,8,0:0:0
198,156,125247,6,0,P|93:156,2,99.9999999999999,4|8|2,0:0|0:0|0:0,0:0:0
306,323,126610,2,0,P|411:323,2,99.9999999999999,2|10|2,0:0|0:0|0:0,0:0:0
206,323,127633,1,8,0:0:0
256,236,127974,6,0,P|256:136|256:136|228:92|176:80,1,200,4|0,0:0|0:0,0:0:0
85,122,128997,1,8,0:0:0
166,180,129338,2,0,P|167:279|167:279|204:332|256:332,1,200,0|0,0:0|0:0,0:0:0
349,331,130360,1,8,0:0:0
436,284,130701,54,0,P|456:236|456:188,1,99.9999999999999,0|8,0:0|0:0,0:0:0
380,124,131383,2,0,P|360:172|360:220,1,99.9999999999999,0|8,0:0|0:0,0:0:0
341,317,132065,2,0,P|293:337|248:340|248:340|216:192|132:192,1,300,0|8,0:0|0:0,0:0:0
32,192,133429,69,4,0:0:0
256,192,134792,6,0,P|256:88,2,99.9999999999999,4|8|0,0:0|0:0|0:0,0:0:0
256,292,135815,1,8,0:0:0
343,242,136156,6,2,P|368:192|343:142|343:142|364:96|420:96,1,200
456,192,137179,1,8,0:0:0
432,288,137520,2,2,P|353:341|264:304,1,200
256,204,138542,1,8,0:0:0
248,104,138883,6,0,P|204:80|156:72,2,99.9999999999999,0|8|0,0:0|0:0|0:0,0:0:0
336,148,139906,1,8,0:0:0
256,204,140247,2,0,P|156:204|156:204|104:204|68:160,1,200
69,61,141270,1,8,0:0:0
168,44,141610,6,2,P|268:44|268:44|320:44|356:88,1,200
354,186,142633,1,8,0:0:0
404,272,142974,2,2,P|504:272,2,99.9999999999999,2|8|2,0:0|0:0|0:0,0:0:0
304,272,143997,1,8,0:0:0
204,272,144338,38,0,P|144:192|144:96,1,200,4|0,0:0|0:0,0:0:0
236,56,145360,1,8,0:0:0
328,96,145701,2,0,P|428:96,1,99.9999999999999,0|8,0:0|0:0,0:0:0
452,192,146383,2,0,P|352:192,1,99.9999999999999,0|8,0:0|0:0,0:0:0
256,192,147065,6,2,P|156:192|156:192|120:228|120:284,1,200
184,360,148088,1,8,0:0:0
284,360,148429,2,2,P|384:360|384:360|420:324|420:268,1,200
344,204,149452,1,8,0:0:0
256,156,149792,22,0,P|256:56,2,99.9999999999999,4|8|0,0:0|0:0|0:0,0:0:0
168,204,150815,1,8,0:0:0
120,292,151156,2,0,P|256:346|392:292,1,300,0|8,0:0|0:0,0:0:0
344,204,152520,70,0,P|392:176|440:172,2,99.9999999999999,4|8|0,0:0|0:0|0:0,0:0:0
256,252,153542,1,8,0:0:0
188,328,153883,2,0,P|134:192|188:56,1,300,0|8,0:0|0:0,0:0:0
288,56,155247,54,0,P|280:112|244:136|244:136|240:192|280:232,1,200,4|0,0:0|0:0,0:0:0
380,231,156270,1,8,0:0:0
331,318,156610,2,0,P|236:324|180:244,1,200
180,144,157633,1,8,0:0:0
180,144,157974,6,0,P|380:144,1,200,4|2,0:0|0:0,0:0:0
256,300,159338,2,0,P|156:300,2,99.9999999999999,2|10|2,0:0|0:0|0:0,0:0:0
356,300,160360,1,8,0:0:0
456,300,160701,6,0,P|452:224|372:200|372:200|300:200,1,200,4|0,0:0|0:0,0:0:0
212,200,161724,1,8,0:0:0
112,200,162065,2,0,P|92:248|92:296,2,99.9999999999999,0|8|0,0:0|0:0|0:0,0:0:0
163,114,163088,1,8,0:0:0
256,80,163429,6,0,P|352:116|352:116|404:208,1,200,4|2,0:0|0:0,0:0:0
256,340,164792,2,0,P|156:340,1,99.9999999999999,2|10,0:0|0:0,0:0:0
56,340,165474,2,0,P|40:292|40:240,1,99.9999999999999,2|8,0:0|0:0,0:0:0
128,192,166156,38,0,P|232:192,2,99.9999999999999,4|8|0,0:0|0:0|0:0,0:0:0
39,140,167179,1,8,0:0:0
128,92,167520,2,0,P|228:92|320:48,1,200
417,50,168542,1,8,0:0:0
476,132,168883,6,0,P|416:192|416:192|296:192,1,200,4|2,0:0|0:0,0:0:0
116,112,170247,1,2,0:0:0
56,192,170588,1,10,0:0:0
116,272,170929,2,0,P|152:312|192:336,1,99.9999999999999,2|8,0:0|0:0,0:0:0
256,260,171610,6,0,P|256:160|256:160|312:76,1,200,4|0,0:0|0:0,0:0:0
412,76,172633,1,8,0:0:0
462,162,172974,2,0,P|462:262|462:262|406:346|406:346|306:346,1,300,4|8,0:0|0:0,0:0:0
206,346,174338,6,0,P|98:346,2,99.9999999999999,0|8|0,0:0|0:0|0:0,0:0:0
256,260,175360,1,8,0:0:0
256,160,175701,6,0,P|256:80|256:80|192:48,2,150,0|0|4,0:0|0:0|0:0,0:0:0
256,192,196156,12,8,198883,0:0:0
256,192,201610,38,0,P|256:248,1,50,8|8,0:0|0:0,0:0:0
256,192,204338,6,0,P|256:136,1,50,8|8,0:0|0:0,0:0:0
256,192,207065,70,0,P|312:192,1,50,8|8,0:0|0:0,0:0:0
256,192,209792,70,0,P|200:192,1,50,8|8,0:0|0:0,0:0:0
56,192,210474,2,0,P|68:144|92:100,1,99.9999999999999,2|0,0:0|0:0,0:0:0
176,48,211156,2,0,P|220:56|256:104|256:104|292:56|336:48,1,200,0|2,0:0|0:0,0:0:0
419,99,212179,1,0,0:0:0
460,192,212520,6,0,P|460:248,1,50,8|8,0:0|0:0,0:0:0
340,332,213201,2,0,P|292:320|256:284,1,99.9999999999999,2|0,0:0|0:0,0:0:0
256,184,213883,2,0,P|231:91|140:48,1,200,0|2,0:0|0:0,0:0:0
52,92,214906,1,0,0:0:0
52,192,215247,6,0,P|52:248,1,50,8|8,0:0|0:0,0:0:0
172,332,215929,2,0,P|220:320|256:284,1,99.9999999999999,2|0,0:0|0:0,0:0:0
256,184,216610,2,0,P|281:91|372:48,1,200,0|2,0:0|0:0,0:0:0
256,192,217974,12,2,220020,0:0:0
256,300,220701,54,0,P|300:288|344:256,1,99.9999999999999,4|8,0:0|0:0,0:0:0
344,156,221383,2,0,P|300:168|256:200,1,99.9999999999999,0|8,0:0|0:0,0:0:0
169,250,222065,2,2,P|120:200|120:200|88:220|88:220|48:200|32:148,1,200,2|2,0:0|0:0,0:0:0
84,64,223088,1,8,0:0:0
184,64,223429,6,0,P|288:64,2,99.9999999999999,0|8|0,0:0|0:0|0:0,0:0:0
134,151,224451,1,8,0:0:0
134,251,224792,2,2,P|164:300|164:300|208:280|208:280|252:300|300:300,1,200,2|2,0:0|0:0,0:0:0
399,299,225815,1,8,0:0:0
468,228,226156,6,0,P|444:184|400:160,1,99.9999999999999,0|8,0:0|0:0,0:0:0
322,222,226838,2,0,P|279:198|255:154,1,99.9999999999999,0|8,0:0|0:0,0:0:0
256,56,227520,2,2,P|208:44|208:44|168:80|168:80|124:76|76:104,1,200,2|2,0:0|0:0,0:0:0
28,192,228542,1,8,0:0:0
76,280,228883,6,0,P|128:272|168:248,1,99.9999999999999,0|8,0:0|0:0,0:0:0
206,155,229565,1,0,0:0:0
306,155,229906,1,8,0:0:0
344,248,230247,2,2,P|384:272|436:280,1,99.9999999999999,2|8,0:0|0:0,0:0:0
420,180,230929,2,2,P|444:140|452:88,1,99.9999999999999,2|8,0:0|0:0,0:0:0
356,56,231610,38,0,P|252:56,1,99.9999999999999,4|8,0:0|0:0,0:0:0
160,88,232292,2,0,P|168:140|192:180,1,99.9999999999999,0|8,0:0|0:0,0:0:0
276,236,232974,2,2,P|256:288|256:288|212:288|212:288|192:324|124:332,1,200
40,280,233997,1,8,0:0:0
84,192,234338,6,0,P|84:140|104:96,1,99.9999999999999,0|8,0:0|0:0,0:0:0
180,164,235020,2,0,P|280:164,1,99.9999999999999,0|8,0:0|0:0,0:0:0
380,164,235701,2,2,P|416:208|416:208|372:248|372:248|372:296|336:320,1,200
256,260,236724,1,8,0:0:0
175,319,237065,6,0,P|120:320|80:304,1,99.9999999999999,0|8,0:0|0:0,0:0:0
24,220,237747,1,0,0:0:0
123,215,238088,1,8,0:0:0
69,130,238429,2,2,P|96:88|96:88|144:104|144:104|184:68|232:60,1,200
332,60,239451,1,8,0:0:0
382,146,239792,70,0,P|414:190|418:238,2,99.9999999999999,0|8|0,0:0|0:0|0:0,0:0:0
282,146,240815,1,8,0:0:0
181,146,241156,2,2,P|81:234|181:322,1,300,2|8,0:0|0:0,0:0:0
228,234,242520,53,4,0:0:0
400,72,243883,6,0,P|428:116|440:164,1,99.9999999999999,4|8,0:0|0:0,0:0:0
380,244,244565,2,0,P|352:200|340:152,1,99.9999999999999,0|8,0:0|0:0,0:0:0
256,100,245247,6,2,P|156:100|64:140,1,200
36,236,246270,1,8,0:0:0
124,284,246610,2,2,P|108:332|60:356,2,99.9999999999999,2|8|2,0:0|0:0|0:0,0:0:0
212,236,247633,1,8,0:0:0
256,148,247974,6,0,P|356:148|448:188,1,200,4|0,0:0|0:0,0:0:0
472,284,248997,1,8,0:0:0
380,324,249338,2,0,P|328:324|284:308,1,99.9999999999999,0|8,0:0|0:0,0:0:0
200,252,250020,2,0,P|163:215|143:172,1,99.9999999999999,0|8,0:0|0:0,0:0:0
143,72,250701,6,2,P|216:76|240:152|240:152|306:152,1,200
392,200,251724,1,8,0:0:0
308,252,252065,2,2,P|150:252|150:252|142:168|70:144,1,300,2|10,0:0|0:0,0:0:0
48,244,253429,38,0,P|64:292|100:324,1,99.9999999999999,4|8,0:0|0:0,0:0:0
196,348,254110,2,0,P|296:348,1,99.9999999999999,0|8,0:0|0:0,0:0:0
392,324,254792,2,0,P|440:236|436:136,1,200
388,48,255815,1,8,0:0:0
317,118,256156,6,2,P|243:192|243:192|148:192,1,200
47,192,257179,1,8,0:0:0
100,276,257520,2,2,P|188:320|288:320,1,200
374,274,258542,1,8,0:0:0
428,192,258883,6,0,P|440:139|432:88,2,99.9999999999999,4|8|0,0:0|0:0|0:0,0:0:0
327,192,259906,1,8,0:0:0
228,196,260247,2,0,P|215:248|223:299,2,99.9999999999999,0|8|0,0:0|0:0|0:0,0:0:0
274,107,261270,1,8,0:0:0
373,107,261610,2,0,P|428:188|440:292,1,200
356,340,262633,1,8,0:0:0
256,320,262974,22,0,P|200:236|200:236|264:156|264:156|180:104,1,300,0|8,0:0|0:0,0:0:0
80,104,264338,22,0,P|40:192|80:280,1,200,4|0,0:0|0:0,0:0:0
164,336,265360,1,8,0:0:0
256,292,265701,2,0,P|256:92,1,200
348,48,266724,1,8,0:0:0
432,104,267065,6,0,P|472:192|432:280,1,200,4|2,0:0|0:0,0:0:0
256,192,268429,2,0,P|152:192,1,99.9999999999999,2|10,0:0|0:0,0:0:0
56,192,269110,1,2,0:0:0
200,52,269792,6,0,P|300:48|380:108,1,200,4|0,0:0|0:0,0:0:0
428,192,270815,1,8,0:0:0
377,279,271156,2,0,P|300:336|200:332,1,200,0|0,0:0|0:0,0:0:0
124,264,272179,1,8,0:0:0
156,168,272520,6,0,P|128:124|88:96,2,99.9999999999999,4|8|2,0:0|0:0|0:0,0:0:0
356,168,273883,2,0,P|384:124|424:96,2,99.9999999999999,2|10|2,0:0|0:0|0:0,0:0:0
256,340,275247,38,0,P|256:136,1,200,4|0,0:0|0:0,0:0:0
206,53,276270,1,8,0:0:0
306,53,276610,2,0,P|348:76|380:120,1,99.9999999999999,0|8,0:0|0:0,0:0:0
476,136,277292,2,0,P|453:178|409:210,1,99.9999999999999,0|8,0:0|0:0,0:0:0
388,308,277974,38,0,P|336:288|316:244|316:244|212:244,1,200,4|2,0:0|0:0,0:0:0
20,192,279338,2,0,P|48:152|96:136,1,99.9999999999999,2|10,0:0|0:0,0:0:0
196,136,280020,1,2,0:0:0
392,104,280701,54,0,P|432:192|392:280,1,200,4|0,0:0|0:0,0:0:0
304,332,281724,1,8,0:0:0
256,244,282065,2,0,P|256:140,1,99.9999999999999,0|8,0:0|0:0,0:0:0
208,52,282747,2,0,P|152:68|152:68|128:112|128:112|72:116|72:116|56:160,1,200,0|6,0:0|0:0,0:0:0
160,320,284110,21,2,0:0:0
352,320,284792,2,0,P|328:272|300:236,1,99.9999999999999,2|8,0:0|0:0,0:0:0
256,144,285474,2,0,P|256:44,2,99.9999999999999,2|8|4,0:0|0:0|0:0,0:0:0
256,336,287520,38,0,P|348:304|400:216,1,200,4|0,0:0|0:0,0:0:0
380,120,288542,1,8,0:0:0
316,52,288883,6,2,P|268:76|240:112,1,99.9999999999999,2|10,0:0|0:0,0:0:0
236,212,289565,2,0,P|192:200|152:160,1,99.9999999999999,2|8,0:0|0:0,0:0:0
88,88,290247,2,2,P|44:128|60:196|60:196|60:280,1,200
132,348,291270,1,8,0:0:0
224,312,291610,6,0,P|248:264|256:216,1,99.9999999999999,4|8,0:0|0:0,0:0:0
206,131,292292,1,0,0:0:0
306,131,292633,1,8,0:0:0
256,44,292974,2,0,P|160:44|106:125,1,200
106,224,293997,1,8,0:0:0
144,316,294338,6,2,P|192:296|205:240|205:240|308:240,1,200
392,192,295360,1,8,0:0:0
303,144,295701,2,2,P|205:144|205:144|192:88|144:68,1,200
106,160,296724,1,8,0:0:0
148,252,297065,38,0,P|228:306|330:303,1,200,4|0,0:0|0:0,0:0:0
416,252,298088,1,8,0:0:0
466,165,298429,2,0,P|470:113|446:69,2,99.9999999999999,0|8|0,0:0|0:0|0:0,0:0:0
366,165,299451,1,8,0:0:0
265,165,299792,6,2,P|188:160|160:104|160:104|88:104,1,200
40,192,300815,1,8,0:0:0
88,280,301156,2,2,P|160:280|160:280|188:336|265:341,1,200
365,341,302179,1,8,0:0:0
440,280,302520,6,0,P|464:236|464:184,1,99.9999999999999,4|8,0:0|0:0,0:0:0
396,116,303234,2,0,P|372:160|372:212,1,99.9999999999999,0|8,0:0|0:0,0:0:0
340,300,303948,2,0,P|240:300|152:252,1,200,0|0,0:0|0:0,0:0:0
92,80,305517,22,0,P|192:80|280:128,1,200
388,276,307338,6,0,P|288:276|200:228,1,200
256,192,309596,12,0,314596,0:0:0
