osu file format v10

[General]
AudioFilename: Pendulum-Blood Sugar.mp3
AudioLeadIn: 0
PreviewTime: 89707
Countdown: 0
SampleSet: Normal
StackLeniency: 0.7
Mode: 0
LetterboxInBreaks: 1
EpilepsyWarning: 1

[Editor]
Bookmarks: 155502,177065,196156,242520
DistanceSpacing: 1.2
BeatDivisor: 4
GridSize: 4

[Metadata]
Title:Blood Sugar
TitleUnicode:Blood Sugar
Artist:Pendulum
ArtistUnicode:Pendulum
Creator:jamxx
Version:Insane
Source:
Tags:Drum and Bass DnB Hold Your Colour
BeatmapID:194647
BeatmapSetID:66827

[Difficulty]
HPDrainRate:7
CircleSize:4
OverallDifficulty:8
ApproachRate:9
SliderMultiplier:1.7
SliderTickRate:1

[Events]
//Background and Video events
0,0,"bg.jpg"
//Break Periods
2,68174,72488
2,133629,134192
2,178088,195556
2,242719,243283
2,286356,286920
//Storyboard Layer 0 (Background)
//Storyboard Layer 1 (Fail)
//Storyboard Layer 2 (Pass)
//Storyboard Layer 3 (Foreground)
//Storyboard Sound Samples
//Background Colour Transformations
3,100,163,162,255

[TimingPoints]
2520,340.909090909091,4,2,1,30,1,0
42747,-100,4,2,1,40,0,0
43429,-100,4,2,1,50,0,0
44110,-100,4,2,1,60,0,0
44451,-100,4,2,1,30,0,0
46071,-100,4,2,1,80,0,0
84593,-100,4,2,1,50,0,0
85616,-100,4,2,1,60,0,0
86980,-100,4,2,1,70,0,0
88343,-100,4,2,1,40,0,0
89110,-100,4,1,1,20,0,0
89707,-100,4,1,1,60,0,0
89792,-100,4,1,1,60,0,1
110162,-100,4,1,1,40,0,1
111525,-100,4,1,1,60,0,1
111610,-100,4,1,1,60,0,0
133343,-100,4,2,1,40,0,0
134707,-100,4,1,1,60,0,0
134792,-100,4,1,1,60,0,1
155247,-100,4,1,1,60,0,0
196156,-100,4,2,1,30,0,0
198201,-100,4,2,1,10,0,0
198883,-133.333333333333,4,2,1,20,0,0
201610,-133.333333333333,4,2,1,25,0,0
204338,-100,4,2,1,30,0,0
207065,-100,4,2,1,40,0,0
209792,-100,4,2,1,50,0,0
217889,-100,4,1,1,30,0,0
219423,-100,4,1,1,50,0,0
220701,-100,4,1,1,60,0,0
243883,-100,4,1,1,60,0,1
262889,-100,4,1,1,40,0,1
264252,-100,4,1,1,60,0,1
264338,-100,4,1,1,60,0,0
286071,-100,4,2,1,60,0,0
287434,-80,4,1,1,60,0,0
287520,-80,4,1,1,60,0,1
302520,357.142857142857,4,1,1,50,1,0
303948,379.746835443038,4,1,1,45,1,0
304707,405.405405405405,4,1,1,40,1,0
305517,434.782608695652,4,1,1,40,1,0
306386,476.190476190476,4,1,1,40,1,0
307338,517.241379310345,4,1,1,35,1,0
308372,612.244897959184,4,1,1,30,1,0
309596,625,4,1,1,60,1,0
310846,-100,4,1,1,50,0,0
312096,-100,4,1,1,40,0,0
313346,-100,4,1,1,30,0,0
313971,-100,4,1,1,20,0,0
314596,-100,4,2,1,5,0,0

[Colours]
Combo1 : 192,192,192
Combo2 : 128,128,255
Combo3 : 255,128,64
Combo4 : 0,128,255
Combo5 : 255,104,104
Combo6 : 128,128,128

[HitObjects]
256,192,42065,12,0,44451,0:0:0
256,192,46156,5,8,0:0:0
256,56,47519,6,0,P|176:84|128:152,1,170
256,328,48201,2,0,P|336:300|384:232,1,170,0|8,0:0|0:0,0:0:0
256,192,48883,5,8,0:0:0
160,32,50247,6,0,P|124:56|96:96,1,85
256,192,50588,2,0,P|292:168|316:134,1,85
208,112,50929,2,0,P|172:136|144:176,1,85
304,272,51269,2,0,P|340:248|368:208,1,85
256,192,51610,37,8,0:0:0
208,40,52974,6,0,P|152:56|116:116|116:116|68:116,1,170
304,40,53656,2,0,P|360:56|396:116|396:116|444:116,1,170,0|8,0:0|0:0,0:0:0
256,192,54338,5,8,0:0:0
172,192,55701,6,0,P|88:192,2,85
256,192,56213,1,0,0:0:0
296,116,56383,2,0,P|256:104|216:116,1,85
216,268,56724,2,0,P|256:280|296:268,1,85
256,192,57065,37,8,0:0:0
120,192,58429,6,0,P|60:192|60:192|56:136|88:88,1,170
392,192,59110,2,0,P|452:192|452:192|456:248|424:296,1,170,0|8,0:0|0:0,0:0:0
256,192,59792,5,8,0:0:0
256,22,61156,5,0,0:0:0
192,132,61326,1,0,0:0:0
320,132,61497,1,0,0:0:0
256,22,61667,2,0,P|256:194,1,170
216,278,62179,2,0,P|256:290|296:278,1,85
256,192,62519,37,8,0:0:0
171,44,63542,5,8,0:0:0
341,44,63883,1,8,0:0:0
171,340,64906,5,8,0:0:0
341,340,65247,1,8,0:0:0
256,192,65588,1,8,0:0:0
171,44,65929,1,8,0:0:0
341,44,66269,1,8,0:0:0
422,192,66610,5,8,0:0:0
422,192,66781,1,0,0:0:0
341,340,66951,1,8,0:0:0
341,340,67122,1,0,0:0:0
171,340,67292,1,8,0:0:0
171,340,67463,1,0,0:0:0
90,192,67633,1,8,0:0:0
90,192,67804,1,0,0:0:0
256,192,67974,5,4,0:0:0
256,107,73088,22,0,P|256:192,1,85,8|0,0:0|0:0,0:0:0
283,300,73429,2,0,P|356:244|366:171,1,170,8|0,0:0|0:0,0:0:0
366,44,73940,1,0,0:0:0
256,107,74110,2,0,P|172:107|172:107|142:137|94:137,1,170,0|0,0:0|0:0,0:0:0
108,52,74622,1,0,0:0:0
172,200,74792,6,0,P|205:278,1,85
256,192,75133,2,0,P|314:253,1,85
324,144,75474,2,0,P|400:182|400:182|495:182,1,170,0|8,0:0|0:0,0:0:0
256,32,76156,5,8,0:0:0
27,182,76497,2,0,P|46:218|83:238,1,85
180,232,76838,2,0,P|168:180|140:160|140:160|140:116|176:84,1,170
424,62,77520,5,0,0:0:0
492,111,77690,1,0,0:0:0
466,192,77860,1,0,0:0:0
381,192,78031,1,0,0:0:0
355,111,78201,2,0,P|436:118|466:192,1,170,0|8,0:0|0:0,0:0:0
46,192,78883,38,0,P|40:144|88:108|88:108|160:108,1,170,8|0,0:0|0:0,0:0:0
159,193,79395,1,0,0:0:0
159,108,79565,2,0,P|231:108|231:108|279:144|273:192,1,170
217,291,80076,1,0,0:0:0
103,292,80247,5,0,0:0:0
60,220,80417,1,0,0:0:0
273,191,80588,1,0,0:0:0
316,263,80758,1,0,0:0:0
217,291,80929,2,0,P|161:222|169:141,1,170,0|8,0:0|0:0,0:0:0
400,44,81610,6,0,P|456:113|448:194,1,170,8|0,0:0|0:0,0:0:0
360,140,82122,1,0,0:0:0
360,140,82292,2,0,P|336:192|360:236|360:236|324:300,1,170
100,64,82974,5,0,0:0:0
176,120,83145,1,0,0:0:0
176,264,83315,1,0,0:0:0
100,320,83485,1,0,0:0:0
90,227,83656,2,0,P|140:176|232:192,1,170,0|8,0:0|0:0,0:0:0
440,148,84338,38,0,P|448:108|436:64,1,85,8|0,0:0|0:0,0:0:0
348,36,84679,1,0,0:0:0
364,128,84849,1,8,0:0:0
320,212,85020,6,0,P|296:248|260:272,1,85,0|0,0:0|0:0,0:0:0
145,230,85360,1,8,0:0:0
224,156,85531,1,0,0:0:0
304,80,85701,6,0,P|280:40|248:16,1,85,8|0,0:0|0:0,0:0:0
104,64,86042,1,0,0:0:0
224,156,86213,1,8,0:0:0
344,248,86383,6,0,P|424:288,1,85
168,248,86724,2,0,P|88:288,1,85,8|0,0:0|0:0,0:0:0
48,192,87065,37,8,0:0:0
88,64,87235,1,0,0:0:0
156,180,87406,1,0,0:0:0
196,52,87576,1,8,0:0:0
264,168,87747,1,0,0:0:0
304,40,87917,1,0,0:0:0
372,156,88088,1,8,0:0:0
412,28,88258,1,0,0:0:0
480,144,88429,21,0,0:0:0
478,177,88514,1,0,0:0:0
469,209,88599,1,0,0:0:0
455,240,88684,1,0,0:0:0
432,265,88770,1,0,0:0:0
404,285,88855,1,0,0:0:0
374,301,88940,1,0,0:0:0
341,310,89025,1,0,0:0:0
307,310,89110,22,0,P|259:310,4,42.5
256,192,89792,22,0,P|220:108|156:68,1,170,4|8,0:0|0:0,0:0:0
140,168,90304,1,0,0:0:0
272,40,90474,2,0,P|316:32|360:32,1,85
328,132,90815,2,0,P|372:136|412:152,1,85,8|0,0:0|0:0,0:0:0
474,230,91156,5,0,0:0:0
404,304,91326,1,0,0:0:0
409,150,91497,2,0,P|424:104|440:72,1,85,8|0,0:0|0:0,0:0:0
356,32,91838,1,0,0:0:0
356,32,91923,1,0,0:0:0
356,32,92008,2,0,P|328:72|300:96,1,85,0|8,0:0|0:0,0:0:0
216,136,92349,1,0,0:0:0
300,176,92520,6,0,P|376:212,1,85
152,204,92860,2,0,P|68:204,1,85,8|0,0:0|0:0,0:0:0
102,82,93201,1,0,0:0:0
102,82,93287,1,0,0:0:0
102,82,93372,1,0,0:0:0
216,136,93542,2,0,P|240:168|256:209,1,85,8|0,0:0|0:0,0:0:0
163,304,93883,5,0,0:0:0
348,304,94054,1,0,0:0:0
163,304,94224,1,8,0:0:0
348,304,94395,1,0,0:0:0
163,304,94565,2,0,P|76:304,1,85,2|0,0:0|0:0,0:0:0
348,304,94906,2,0,P|436:304,1,85,10|2,0:0|0:0,0:0:0
256,192,95247,38,0,P|192:128|192:128|192:84|220:56,1,170,4|8,0:0|0:0,0:0:0
312,104,95758,1,0,0:0:0
256,192,95929,2,0,P|209:263,1,85
256,354,96270,2,0,P|302:282,1,85,8|0,0:0|0:0,0:0:0
376,148,96610,5,0,0:0:0
398,249,96781,1,0,0:0:0
302,282,96951,2,0,P|256:281|219:266,1,85,8|0,0:0|0:0,0:0:0
209,101,97292,1,0,0:0:0
209,101,97377,1,0,0:0:0
209,101,97463,2,0,P|256:103|293:118,1,85,0|8,0:0|0:0,0:0:0
360,192,97804,1,0,0:0:0
256,192,97974,6,0,P|172:192,2,85,0|0|8,0:0|0:0|0:0,0:0:0
360,192,98485,1,0,0:0:0
307,53,98656,1,0,0:0:0
307,53,98741,1,0,0:0:0
307,53,98826,1,0,0:0:0
256,192,98997,2,0,P|256:280,1,85,8|0,0:0|0:0,0:0:0
360,336,99338,5,2,0:0:0
152,266,99508,1,0,0:0:0
360,192,99679,1,10,0:0:0
152,118,99849,2,0,P|116:192|152:266,1,170,2|2,0:0|0:0,0:0:0
152,118,100360,1,8,0:0:0
152,266,100531,1,2,0:0:0
256,192,100701,38,0,P|312:128|392:96,1,170,4|8,0:0|0:0,0:0:0
476,96,101213,1,0,0:0:0
332,32,101383,2,0,P|288:36|248:56,1,85
72,96,101724,2,0,P|116:100|156:120,1,85,8|0,0:0|0:0,0:0:0
232,197,102065,5,0,0:0:0
152,277,102235,1,0,0:0:0
72,197,102406,1,8,0:0:0
152,117,102576,1,0,0:0:0
232,197,102747,2,0,P|312:278|312:278|367:278,1,170,0|8,0:0|0:0,0:0:0
340,180,103258,1,0,0:0:0
320,80,103429,6,0,P|375:80|375:80|455:161,1,170,0|8,0:0|0:0,0:0:0
455,332,103940,1,0,0:0:0
493,247,104110,1,0,0:0:0
493,247,104196,1,0,0:0:0
493,247,104281,1,0,0:0:0
399,247,104451,2,0,P|314:247,1,85,8|0,0:0|0:0,0:0:0
220,247,104792,5,0,0:0:0
340,108,104963,1,0,0:0:0
256,92,105133,1,8,0:0:0
208,162,105304,1,0,0:0:0
220,247,105474,2,0,P|220:333,1,85,2|0,0:0|0:0,0:0:0
340,108,105815,2,0,P|416:64,1,85,10|2,0:0|0:0,0:0:0
498,65,106156,53,2,0:0:0
14,319,106497,1,8,0:0:0
464,257,106838,21,2,0:0:0
47,126,107179,1,8,0:0:0
337,346,107520,53,2,0:0:0
174,37,107860,1,8,0:0:0
214,325,108201,21,2,0:0:0
297,58,108542,1,8,0:0:0
156,244,108883,53,2,0:0:0
355,139,109224,1,8,0:0:0
170,165,109565,21,2,0:0:0
341,218,109906,1,8,0:0:0
222,128,110247,5,2,0:0:0
211,110,110332,1,0,0:0:0
199,92,110417,1,0,0:0:0
320,158,110588,5,10,0:0:0
338,147,110673,1,0,0:0:0
356,135,110758,1,0,0:0:0
290,256,110929,69,2,0:0:0
301,274,111014,1,0,0:0:0
313,292,111099,1,0,0:0:0
192,226,111270,5,10,0:0:0
174,237,111355,1,0,0:0:0
156,249,111440,1,0,0:0:0
72,192,111610,5,4,0:0:0
72,192,111951,2,0,P|72:148|84:108,1,85,8|0,0:0|0:0,0:0:0
156,36,112292,1,0,0:0:0
182,134,112463,1,0,0:0:0
156,232,112633,2,0,P|167:277|187:309,1,85,8|0,0:0|0:0,0:0:0
280,352,112974,5,0,0:0:0
96,352,113145,1,0,0:0:0
280,352,113315,2,0,P|320:340|356:316,1,85,8|0,0:0|0:0,0:0:0
404,244,113656,2,0,P|436:280|442:316,1,85
356,316,113997,2,0,P|324:280|318:244,1,85,8|0,0:0|0:0,0:0:0
317,91,114338,5,4,0:0:0
382,168,114508,1,0,0:0:0
252,168,114679,2,0,P|166:167,1,85,8|0,0:0|0:0,0:0:0
90,102,115020,1,0,0:0:0
167,37,115190,1,0,0:0:0
167,167,115360,2,0,P|166:253,1,85,8|0,0:0|0:0,0:0:0
256,328,115701,6,0,P|300:256|300:256|344:280|388:256,1,170,2|10,0:0|0:0,0:0:0
448,180,116213,1,2,0:0:0
344,180,116383,1,0,0:0:0
344,180,116468,1,0,0:0:0
344,180,116554,2,0,P|260:180,1,85,2|8,0:0|0:0,0:0:0
156,180,116895,1,6,0:0:0
200,108,117065,38,0,P|224:72|256:44,1,85,4|0,0:0|0:0,0:0:0
112,252,117406,2,0,P|88:288|56:316,1,85,8|0,0:0|0:0,0:0:0
20,220,117747,2,0,P|80:160|160:168,1,170,0|8,0:0|0:0,0:0:0
256,192,118258,1,0,0:0:0
316,297,118429,5,0,0:0:0
196,297,118599,1,0,0:0:0
256,192,118770,2,0,P|256:104,1,85,8|0,0:0|0:0,0:0:0
316,36,119110,1,0,0:0:0
196,36,119281,1,0,0:0:0
316,36,119451,2,0,P|340:72|348:116,1,85,8|0,0:0|0:0,0:0:0
296,196,119792,6,0,P|372:208|440:152,1,170,4|8,0:0|0:0,0:0:0
256,100,120304,1,0,0:0:0
256,284,120474,1,0,0:0:0
256,284,120559,1,0,0:0:0
256,284,120645,1,0,0:0:0
128,236,120815,2,0,P|160:208|200:192,1,85,8|0,0:0|0:0,0:0:0
279,55,121156,5,2,0:0:0
358,193,121326,1,0,0:0:0
199,193,121497,1,10,0:0:0
358,101,121667,1,2,0:0:0
279,239,121838,1,0,0:0:0
199,101,122008,1,2,0:0:0
279,147,122179,1,8,0:0:0
358,193,122349,1,6,0:0:0
437,239,122520,38,0,P|394:316|329:365,1,170,4|8,0:0|0:0,0:0:0
228,364,123031,1,0,0:0:0
320,264,123201,1,0,0:0:0
184,280,123372,1,0,0:0:0
276,180,123542,2,0,P|316:156|356:152,1,85,8|0,0:0|0:0,0:0:0
456,144,123883,5,0,0:0:0
345,63,124054,1,0,0:0:0
276,180,124224,2,0,P|236:204|196:208,1,85,8|0,0:0|0:0,0:0:0
95,143,124565,1,0,0:0:0
205,63,124735,1,0,0:0:0
276,180,124906,2,0,P|316:203|356:207,1,85,8|0,0:0|0:0,0:0:0
456,144,125247,6,0,P|456:232|424:308,1,170,4|8,0:0|0:0,0:0:0
336,360,125758,1,0,0:0:0
256,296,125929,1,0,0:0:0
256,296,126014,1,0,0:0:0
256,296,126099,1,0,0:0:0
256,192,126270,2,0,P|256:104,1,85,8|0,0:0|0:0,0:0:0
344,60,126610,5,2,0:0:0
168,60,126781,1,0,0:0:0
383,145,126951,1,10,0:0:0
129,145,127122,1,2,0:0:0
383,239,127292,1,0,0:0:0
129,239,127463,1,2,0:0:0
344,324,127633,1,8,0:0:0
168,324,127804,1,6,0:0:0
344,324,127974,38,0,P|418:324|474:253,1,170,4|8,0:0|0:0,0:0:0
383,239,128485,1,0,0:0:0
290,223,128656,1,0,0:0:0
420,153,128826,1,0,0:0:0
290,223,128997,2,0,P|240:223|208:208,1,85,8|0,0:0|0:0,0:0:0
188,72,129338,6,0,P|238:72|270:87,1,85,0|0,0:0|0:0,0:0:0
397,138,129679,1,8,0:0:0
290,223,129849,1,0,0:0:0
151,223,130020,2,2,P|117:206|117:206|97:218|97:218|81:187|81:187|80:151|107:118,1,170,0|8,0:0|0:0,0:0:0
371,45,130701,5,0,0:0:0
403,307,131042,1,8,0:0:0
141,339,131383,1,0,0:0:0
109,77,131724,1,8,0:0:0
404,173,132065,53,0,0:0:0
274,340,132406,1,8,0:0:0
107,210,132747,1,0,0:0:0
237,43,133088,1,8,0:0:0
256,192,133429,53,4,0:0:0
256,192,134792,38,0,P|168:192,1,85,4|0,0:0|0:0,0:0:0
37,113,135133,1,8,0:0:0
37,267,135304,1,0,0:0:0
37,113,135474,2,0,P|70:85|112:67,1,85
256,104,135815,2,0,P|293:87|326:59,1,85,8|0,0:0|0:0,0:0:0
480,40,136156,6,0,P|480:128|444:200,1,170,0|8,0:0|0:0,0:0:0
336,312,136667,1,0,0:0:0
342,209,136838,1,0,0:0:0
437,301,137008,1,0,0:0:0
342,209,137179,2,0,P|280:150,1,85,8|0,0:0|0:0,0:0:0
144,76,137520,5,0,0:0:0
144,76,137690,2,0,P|100:68|56:72,2,85,0|8|0,0:0|0:0|0:0,0:0:0
244,56,138201,1,2,0:0:0
280,150,138372,1,0,0:0:0
280,150,138457,1,0,0:0:0
280,150,138542,2,0,P|342:209,1,85,10|2,0:0|0:0,0:0:0
372,308,138883,38,0,P|324:316|288:296|288:296|228:236,1,170,4|8,0:0|0:0,0:0:0
180,148,139395,1,0,0:0:0
127,233,139565,2,0,P|47:276,1,85
280,150,139906,2,0,P|360:107,1,85,8|0,0:0|0:0,0:0:0
479,54,140247,5,0,0:0:0
346,26,140417,1,0,0:0:0
441,123,140588,2,0,P|463:161|477:204,1,85,8|0,0:0|0:0,0:0:0
476,336,140929,1,0,0:0:0
358,269,141099,1,0,0:0:0
358,269,141184,1,0,0:0:0
358,269,141270,2,0,P|274:269,1,85,8|0,0:0|0:0,0:0:0
124,192,141610,6,0,P|296:192,1,170,0|8,0:0|0:0,0:0:0
422,192,142122,1,0,0:0:0
358,115,142292,2,0,P|274:115,1,85,0|0,0:0|0:0,0:0:0
154,269,142633,2,0,P|238:269,1,85,8|0,0:0|0:0,0:0:0
358,269,142974,5,0,0:0:0
256,192,143145,1,0,0:0:0
358,115,143315,2,0,P|340:76|304:48,1,85,8|0,0:0|0:0,0:0:0
180,49,143656,1,2,0:0:0
60,96,143826,1,0,0:0:0
60,96,143912,1,0,0:0:0
60,96,143997,2,0,P|72:144|92:172,1,85,10|2,0:0|0:0,0:0:0
184,260,144338,38,0,P|224:240|256:215|256:215|288:240|328:260,1,170,4|8,0:0|0:0,0:0:0
256,304,144849,1,0,0:0:0
256,140,145020,2,0,P|288:108|322:88,1,85
176,128,145360,2,0,P|176:82|186:44,1,85,8|0,0:0|0:0,0:0:0
108,172,145701,6,0,P|76:140|56:104,2,85,0|0|8,0:0|0:0|0:0,0:0:0
194,210,146213,1,0,0:0:0
256,140,146383,2,0,P|296:124|340:120,1,85,0|0,0:0|0:0,0:0:0
108,172,146724,2,0,P|66:176|26:192,1,85,8|0,0:0|0:0,0:0:0
194,210,147065,6,0,P|272:232|340:180,1,170,0|8,0:0|0:0,0:0:0
256,140,147576,1,0,0:0:0
173,99,147747,1,0,0:0:0
318,72,147917,1,0,0:0:0
318,72,148002,1,0,0:0:0
318,72,148088,2,0,P|360:72|408:80,1,85,8|0,0:0|0:0,0:0:0
402,305,148429,6,0,P|360:312|318:312,1,85,0|0,0:0|0:0,0:0:0
372,192,148770,2,0,P|456:192,1,85,8|0,0:0|0:0,0:0:0
284,192,149110,2,0,P|200:192,1,85,2|0,0:0|0:0,0:0:0
140,88,149451,1,10,0:0:0
140,296,149622,1,2,0:0:0
140,88,149792,38,0,P|208:40|296:40,1,170,4|8,0:0|0:0,0:0:0
372,296,150474,2,0,P|304:344|216:344,1,170,0|8,0:0|0:0,0:0:0
140,88,151156,5,0,0:0:0
372,296,151497,1,8,0:0:0
140,88,151838,1,0,0:0:0
372,296,152179,1,8,0:0:0
140,88,152520,6,0,P|102:163|114:245,1,170,4|8,0:0|0:0,0:0:0
372,296,153201,2,0,P|409:220|397:138,1,170,0|8,0:0|0:0,0:0:0
196,100,153883,53,0,0:0:0
164,252,154054,1,0,0:0:0
316,284,154224,1,8,0:0:0
348,132,154395,1,0,0:0:0
98,157,154565,21,0,0:0:0
221,346,154735,1,0,0:0:0
410,222,154906,1,8,0:0:0
286,33,155076,1,0,0:0:0
164,252,155247,54,0,P|136:284|100:304,1,85,4|0,0:0|0:0,0:0:0
256,192,155588,2,0,P|340:192,1,85,8|0,0:0|0:0,0:0:0
396,104,155929,1,0,0:0:0
396,280,156099,1,0,0:0:0
396,104,156270,2,0,P|364:68|331:45,1,85,8|0,0:0|0:0,0:0:0
232,32,156610,6,0,P|232:80|264:116|264:116|248:152|212:172,1,170,0|8,0:0|0:0,0:0:0
58,172,157122,1,0,0:0:0
135,105,157292,1,0,0:0:0
135,105,157377,1,0,0:0:0
135,105,157463,1,0,0:0:0
134,239,157633,2,0,P|157:279|191:304,1,85,8|0,0:0|0:0,0:0:0
324,302,157974,6,0,P|355:279|378:239,1,85,4|0,0:0|0:0,0:0:0
372,104,158315,1,8,0:0:0
296,216,158485,1,0,0:0:0
290,82,158656,2,0,P|256:56|216:48,1,85
378,238,158997,2,0,P|412:264|452:272,1,85,8|0,0:0|0:0,0:0:0
475,120,159338,5,2,0:0:0
378,238,159508,1,0,0:0:0
401,86,159679,1,10,0:0:0
304,204,159849,1,2,0:0:0
111,86,160020,1,0,0:0:0
208,204,160190,1,2,0:0:0
37,120,160360,1,8,0:0:0
134,238,160531,1,6,0:0:0
256,138,160701,38,0,P|320:96|404:120,1,170,4|8,0:0|0:0,0:0:0
404,274,161213,1,0,0:0:0
472,198,161383,1,0,0:0:0
472,198,161468,1,0,0:0:0
472,198,161554,1,0,0:0:0
335,198,161724,2,0,P|256:229,1,85,8|0,0:0|0:0,0:0:0
256,138,162065,6,0,P|177:169|177:169|152:208|160:252,1,170,0|8,0:0|0:0,0:0:0
256,284,162576,1,0,0:0:0
352,250,162747,2,0,P|440:236,1,85
160,250,163088,2,0,P|72:264,1,85,8|0,0:0|0:0,0:0:0
76,120,163429,6,0,P|161:134|161:134|246:134,1,170,4|8,0:0|0:0,0:0:0
398,134,163940,1,0,0:0:0
322,65,164110,1,0,0:0:0
322,65,164196,1,0,0:0:0
322,65,164281,1,0,0:0:0
322,202,164451,2,0,P|316:244|288:280,1,85,8|0,0:0|0:0,0:0:0
236,212,164792,5,2,0:0:0
392,276,164963,1,0,0:0:0
236,128,165133,1,10,0:0:0
392,192,165304,1,2,0:0:0
236,212,165474,1,0,0:0:0
392,276,165645,1,2,0:0:0
236,296,165815,1,8,0:0:0
392,360,165985,1,6,0:0:0
236,296,166156,38,0,P|168:264|160:176,1,170,4|8,0:0|0:0,0:0:0
224,56,166667,1,0,0:0:0
256,192,166838,2,0,P|288:220|328:236,1,85
460,212,167179,1,8,0:0:0
368,112,167349,1,0,0:0:0
256,192,167520,6,0,P|172:192,1,85
368,112,167860,2,0,P|456:112,1,85,8|0,0:0|0:0,0:0:0
460,212,168201,1,0,0:0:0
348,292,168372,1,0,0:0:0
256,192,168542,1,8,0:0:0
368,112,168713,1,0,0:0:0
256,192,168883,6,0,P|172:192,2,85,4|0|8,0:0|0:0|0:0,0:0:0
412,192,169395,1,0,0:0:0
334,125,169565,1,0,0:0:0
334,125,169650,1,0,0:0:0
334,125,169735,1,0,0:0:0
334,257,169906,2,0,P|308:291|269:313,1,85,8|0,0:0|0:0,0:0:0
143,303,170247,5,2,0:0:0
96,192,170417,1,0,0:0:0
143,79,170588,1,10,0:0:0
256,33,170758,1,2,0:0:0
367,79,170929,1,0,0:0:0
414,192,171099,1,2,0:0:0
367,303,171270,1,8,0:0:0
256,350,171440,1,6,0:0:0
256,192,171610,38,0,P|300:120|372:72,1,170,4|8,0:0|0:0,0:0:0
488,72,172122,1,0,0:0:0
430,173,172292,1,0,0:0:0
430,173,172377,1,0,0:0:0
430,173,172463,1,0,0:0:0
370,72,172633,2,0,P|322:56|274:56,1,85,8|0,0:0|0:0,0:0:0
256,192,172974,38,0,P|212:264|140:312,1,170,4|8,0:0|0:0,0:0:0
24,312,173485,1,0,0:0:0
82,211,173656,1,0,0:0:0
82,211,173741,1,0,0:0:0
82,211,173826,1,0,0:0:0
142,111,173997,2,0,P|190:95|238:95,1,85,8|0,0:0|0:0,0:0:0
364,83,174338,5,0,0:0:0
364,300,174679,1,8,0:0:0
147,300,175020,1,0,0:0:0
147,83,175360,1,8,0:0:0
256,192,175701,53,0,0:0:0
256,192,176213,69,0,0:0:0
256,192,176724,53,4,0:0:0
256,192,196156,12,0,198201,0:0:0
256,192,198883,6,0,P|256:256,2,63.7500024318696,8|8|2,0:0|0:0|0:0,0:0:0
256,128,199394,2,0,P|312:140|368:184,1,127.500004863739
432,184,199906,2,0,P|424:156|400:124,1,63.7500024318696,2|0,0:0|0:0,0:0:0
368,76,200247,53,0,0:0:0
368,76,200417,1,0,0:0:0
476,114,200588,1,2,0:0:0
476,114,200758,1,0,0:0:0
479,232,200929,1,0,0:0:0
479,232,201099,1,0,0:0:0
374,199,201269,2,0,P|345:187|314:192,1,63.7500024318696,2|0,0:0|0:0,0:0:0
256,192,201610,38,0,P|192:192,2,63.7500024318696,8|8|2,0:0|0:0|0:0,0:0:0
286,142,202122,2,0,P|254:87|196:61,1,127.500004863739
140,61,202633,2,0,P|77:61,1,63.7500024318696,2|0,0:0|0:0,0:0:0
35,101,202974,54,0,P|67:156|125:182,1,127.500004863739,0|2,0:0|0:0,0:0:0
187,181,203485,1,0,0:0:0
123,181,203656,2,0,P|106:242|129:301,1,127.500004863739,0|2,0:0|0:0,0:0:0
192,300,204167,1,0,0:0:0
251,300,204338,6,0,P|352:300,2,85,8|8|2,0:0|0:0|0:0,0:0:0
222,219,204849,2,0,P|222:134|263:60,1,170
395,91,205360,2,0,P|382:133|352:163,1,85,2|0,0:0|0:0,0:0:0
262,61,205701,54,0,P|176:61,1,85
395,91,206042,2,0,P|486:91,1,85,2|0,0:0|0:0,0:0:0
263,121,206383,2,0,P|176:121,1,85
395,150,206724,2,0,P|486:150,1,85,2|0,0:0|0:0,0:0:0
264,180,207065,38,0,P|177:180,2,85,8|8|2,0:0|0:0|0:0,0:0:0
395,209,207576,2,0,P|366:276|285:328,1,170
149,327,208088,2,0,P|156:284|177:247,1,85,2|0,0:0|0:0,0:0:0
256,192,208429,54,0,P|296:172|296:172|280:136|280:136|300:96|344:84,1,170,0|0,0:0|0:0,0:0:0
256,192,209110,2,0,P|296:212|296:212|280:248|280:248|300:288|344:300,1,170,0|0,0:0|0:0,0:0:0
256,192,209792,6,0,P|168:192,2,85,8|8|0,0:0|0:0|0:0,0:0:0
352,192,210304,2,0,P|316:116|236:96,2,170
420,268,211156,53,0,0:0:0
284,268,211326,1,0,0:0:0
420,268,211497,2,0,P|504:268,1,85
284,268,211838,2,0,P|199:268|199:268|164:248|140:208,1,170,2|0,0:0|0:0,0:0:0
140,105,212349,1,0,0:0:0
228,157,212519,38,0,P|329:157,2,85,8|8|0,0:0|0:0|0:0,0:0:0
140,105,213031,2,0,P|168:56|224:52|224:52|292:52,2,170
52,156,213883,53,0,0:0:0
82,271,214054,1,0,0:0:0
184,212,214224,1,0,0:0:0
198,328,214394,1,0,0:0:0
328,212,214565,1,2,0:0:0
313,328,214735,1,0,0:0:0
460,156,214906,1,0,0:0:0
430,271,215076,1,0,0:0:0
328,212,215247,6,0,P|240:212,2,85,8|8|0,0:0|0:0|0:0,0:0:0
357,97,215758,2,0,P|288:56|200:64,2,170
384,248,216610,53,0,0:0:0
384,248,216781,1,0,0:0:0
335,344,216951,1,0,0:0:0
335,344,217122,1,0,0:0:0
175,344,217292,1,2,0:0:0
175,344,217463,1,0,0:0:0
126,248,217633,1,0,0:0:0
126,248,217804,1,0,0:0:0
256,192,217974,53,4,0:0:0
256,88,218144,1,8,0:0:0
256,68,218230,1,0,0:0:0
256,48,218315,1,4,0:0:0
360,192,218485,1,8,0:0:0
380,192,218571,1,0,0:0:0
400,192,218656,1,4,0:0:0
256,296,218826,53,8,0:0:0
256,316,218912,1,0,0:0:0
256,336,218997,1,4,0:0:0
152,192,219167,1,8,0:0:0
132,192,219252,1,0,0:0:0
112,192,219338,5,4,0:0:0
94,188,219423,1,0,0:0:0
76,180,219508,1,0,0:0:0
64,165,219593,1,0,0:0:0
56,147,219679,1,0,0:0:0
52,128,219764,1,0,0:0:0
56,109,219849,1,0,0:0:0
64,91,219934,1,0,0:0:0
76,76,220019,1,0,0:0:0
94,68,220105,1,0,0:0:0
112,64,220190,1,0,0:0:0
132,64,220275,1,0,0:0:0
152,64,220360,1,8,0:0:0
256,192,220701,70,0,P|292:220|328:236,1,85,4|0,0:0|0:0,0:0:0
484,236,221042,1,8,0:0:0
406,169,221213,2,0,P|368:128|320:132|320:132|256:96,1,170
172,36,221724,1,8,0:0:0
340,36,221894,1,0,0:0:0
172,36,222065,6,0,P|136:64|116:100,1,85,2|0,0:0|0:0,0:0:0
116,236,222406,1,10,0:0:0
196,128,222576,1,2,0:0:0
312,196,222747,1,2,0:0:0
332,204,222832,1,0,0:0:0
352,208,222917,1,0,0:0:0
484,168,223088,2,0,P|460:132|420:108,1,85,10|2,0:0|0:0,0:0:0
296,72,223429,6,0,P|205:72,2,85,0|0|8,0:0|0:0|0:0,0:0:0
426,110,223940,2,0,P|388:184|312:220,1,170
200,140,224451,1,8,0:0:0
189,276,224622,1,0,0:0:0
110,340,224792,5,2,0:0:0
268,340,224963,1,0,0:0:0
110,340,225133,2,0,P|79:306|59:271,1,85,10|2,0:0|0:0,0:0:0
52,136,225474,1,2,0:0:0
56,116,225559,1,0,0:0:0
64,96,225644,1,0,0:0:0
184,144,225815,2,0,P|224:168|264:176,1,85,10|2,0:0|0:0,0:0:0
397,175,226156,38,0,P|483:175,2,85,0|0|8,0:0|0:0|0:0,0:0:0
324,104,226667,2,0,P|252:52|172:40,1,170
70,39,227179,2,0,P|80:80|108:120,1,85,8|0,0:0|0:0,0:0:0
221,175,227519,5,2,0:0:0
161,289,227690,1,0,0:0:0
44,231,227860,1,10,0:0:0
103,115,228031,1,2,0:0:0
212,46,228201,1,2,0:0:0
212,46,228287,1,0,0:0:0
212,46,228372,1,0,0:0:0
221,175,228542,2,0,P|232:216|256:252,1,85,10|2,0:0|0:0,0:0:0
351,289,228883,5,0,0:0:0
161,289,229054,1,0,0:0:0
351,289,229224,1,8,0:0:0
161,289,229394,2,0,P|84:248|44:176,1,170
28,76,229906,2,0,P|72:61|112:57,1,85,8|0,0:0|0:0,0:0:0
212,46,230247,5,2,0:0:0
300,338,230588,1,10,0:0:0
300,132,230929,2,0,P|332:104|372:88,1,85,2|0,0:0|0:0,0:0:0
212,252,231269,2,0,P|180:280|140:296,1,85,10|2,0:0|0:0,0:0:0
212,132,231610,37,4,0:0:0
300,252,231781,1,0,0:0:0
212,132,231951,1,8,0:0:0
300,252,232122,2,0,P|380:276|464:256,1,170
396,176,232633,2,0,P|436:160|464:128,1,85,8|0,0:0|0:0,0:0:0
448,28,232974,5,2,0:0:0
336,132,233144,1,0,0:0:0
208,48,233315,1,2,0:0:0
256,192,233485,1,2,0:0:0
360,40,233656,1,2,0:0:0
360,40,233741,1,0,0:0:0
360,40,233826,1,0,0:0:0
208,48,233997,2,0,P|164:56|120:56,1,85,10|2,0:0|0:0,0:0:0
28,96,234338,5,0,0:0:0
128,192,234508,1,0,0:0:0
28,288,234679,1,8,0:0:0
40,192,234849,2,0,P|108:120|176:104,1,170
212,200,235360,2,0,P|256:200|296:188,1,85,8|0,0:0|0:0,0:0:0
391,93,235701,5,2,0:0:0
487,189,235872,1,0,0:0:0
391,285,236042,1,10,0:0:0
295,189,236213,1,2,0:0:0
391,93,236383,1,2,0:0:0
391,228,236554,1,0,0:0:0
255,228,236724,1,10,0:0:0
255,93,236894,1,2,0:0:0
391,93,237065,38,0,P|476:93,2,85,0|0|8,0:0|0:0|0:0,0:0:0
255,93,237576,2,0,P|176:132|160:208,1,170
256,192,238088,1,8,0:0:0
121,57,238258,1,0,0:0:0
256,192,238429,6,0,P|280:232|312:256,1,85,2|0,0:0|0:0,0:0:0
344,176,238769,2,0,P|389:187|428:181,1,85,10|2,0:0|0:0,0:0:0
332,56,239110,1,2,0:0:0
332,56,239196,1,0,0:0:0
332,56,239281,1,0,0:0:0
256,192,239451,2,0,P|232:232|200:256,1,85,10|2,0:0|0:0,0:0:0
104,220,239792,5,0,0:0:0
256,340,239963,1,0,0:0:0
357,332,240133,1,8,0:0:0
408,244,240304,2,0,P|336:194|256:192,1,170
165,243,240815,1,8,0:0:0
256,88,240985,1,0,0:0:0
358,88,241156,5,0,0:0:0
379,88,241241,1,0,0:0:0
400,88,241326,1,0,0:0:0
154,88,241497,53,0,0:0:0
133,88,241582,1,0,0:0:0
112,88,241667,1,0,0:0:0
328,160,241838,21,0,0:0:0
343,174,241923,1,0,0:0:0
358,188,242008,1,0,0:0:0
184,160,242179,53,0,0:0:0
169,174,242264,1,0,0:0:0
154,188,242349,1,0,0:0:0
256,192,242519,37,4,0:0:0
256,192,243883,37,4,0:0:0
428,192,244054,1,0,0:0:0
342,138,244224,2,0,P|308:108|263:92,1,85,8|0,0:0|0:0,0:0:0
170,71,244565,1,0,0:0:0
170,71,244650,1,0,0:0:0
170,71,244735,1,0,0:0:0
84,192,244906,2,0,P|72:232|72:276,1,85,8|0,0:0|0:0,0:0:0
160,148,245247,6,0,P|176:192|160:232|160:232|180:264|224:284,1,170,0|8,0:0|0:0,0:0:0
256,192,245758,1,0,0:0:0
287,99,245929,2,0,P|304:60|332:28,1,85
351,172,246269,2,0,P|390:155|433:152,1,85,8|0,0:0|0:0,0:0:0
480,244,246610,5,0,0:0:0
466,60,246781,1,0,0:0:0
287,99,246951,2,0,P|240:112|200:112,1,85,8|0,0:0|0:0,0:0:0
108,76,247292,2,0,P|84:40,2,42.5,2|0|0,0:0|0:0|0:0,0:0:0
124,176,247633,2,0,P|124:264,1,85,10|2,0:0|0:0,0:0:0
196,332,247974,38,0,P|228:296|224:248|224:248|280:192,1,170,4|8,0:0|0:0,0:0:0
424,144,248485,1,0,0:0:0
230,82,248656,1,0,0:0:0
388,64,248826,1,0,0:0:0
388,224,248997,2,0,P|392:272|408:308,1,85,8|0,0:0|0:0,0:0:0
424,144,249338,6,0,P|375:140|337:150,1,85,0|0,0:0|0:0,0:0:0
196,204,249679,1,8,0:0:0
244,112,249849,1,0,0:0:0
292,242,250019,1,0,0:0:0
292,242,250105,1,0,0:0:0
292,242,250190,1,0,0:0:0
244,112,250360,2,0,P|216:80|176:60,1,85,8|0,0:0|0:0,0:0:0
28,44,250701,5,0,0:0:0
148,136,250872,1,0,0:0:0
46,146,251042,2,0,P|44:192|60:236,1,85,8|0,0:0|0:0,0:0:0
68,332,251383,1,0,0:0:0
164,192,251554,1,0,0:0:0
192,308,251724,2,0,P|238:310|282:294,1,85,8|0,0:0|0:0,0:0:0
356,168,252065,5,0,0:0:0
376,320,252235,1,0,0:0:0
256,192,252406,2,0,P|232:144|224:112,1,85,8|0,0:0|0:0,0:0:0
304,52,252747,1,2,0:0:0
128,80,252917,1,0,0:0:0
304,52,253088,1,10,0:0:0
128,80,253258,1,2,0:0:0
304,52,253429,38,0,P|376:108|400:184,1,170,4|8,0:0|0:0,0:0:0
408,284,253940,1,0,0:0:0
300,152,254110,2,0,P|320:196|320:232,1,85
236,208,254451,2,0,P|219:253|193:278,1,85,8|0,0:0|0:0,0:0:0
124,352,254792,5,0,0:0:0
92,256,254963,1,0,0:0:0
193,278,255133,2,0,P|236:292|280:292,1,85,8|0,0:0|0:0,0:0:0
396,232,255474,1,0,0:0:0
396,232,255559,1,0,0:0:0
396,232,255644,1,0,0:0:0
276,172,255815,2,0,P|240:148|212:112,1,85,8|0,0:0|0:0,0:0:0
152,36,256156,6,0,P|116:108|144:188,1,170,0|8,0:0|0:0,0:0:0
228,248,256667,1,0,0:0:0
320,288,256838,2,0,P|360:304|396:328,1,85
228,248,257179,2,0,P|256:212|296:189,1,85,8|0,0:0|0:0,0:0:0
420,152,257519,5,0,0:0:0
244,80,257690,1,0,0:0:0
432,52,257860,2,0,P|472:68|504:100,1,85,8|0,0:0|0:0,0:0:0
436,256,258201,1,2,0:0:0
436,256,258287,1,0,0:0:0
436,256,258372,1,0,0:0:0
420,152,258542,2,0,P|376:140|336:140,1,85,10|2,0:0|0:0,0:0:0
176,116,258883,38,0,P|144:192|176:268,1,170,4|0,0:0|0:0,0:0:0
256,192,259394,1,0,0:0:0
336,116,259565,2,0,P|368:192|336:268,1,170,0|8,0:0|0:0,0:0:0
256,52,260247,21,0,0:0:0
256,332,260588,1,0,0:0:0
157,93,260929,1,0,0:0:0
354,290,261269,1,0,0:0:0
116,192,261610,53,0,0:0:0
396,192,261951,1,0,0:0:0
157,290,262292,1,0,0:0:0
354,93,262633,1,0,0:0:0
154,192,262974,69,0,0:0:0
133,192,263059,1,0,0:0:0
112,192,263144,1,0,0:0:0
184,264,263315,69,0,0:0:0
169,278,263400,1,0,0:0:0
154,292,263485,1,0,0:0:0
328,264,263656,5,0,0:0:0
343,278,263741,1,0,0:0:0
358,292,263826,1,0,0:0:0
358,192,263997,69,8,0:0:0
379,192,264082,1,0,0:0:0
400,192,264167,1,0,0:0:0
256,192,264338,21,4,0:0:0
256,192,264679,2,0,P|256:148|268:108,1,85,8|0,0:0|0:0,0:0:0
416,40,265020,1,0,0:0:0
256,28,265190,1,0,0:0:0
388,120,265360,2,0,P|432:124|472:104,1,85,8|0,0:0|0:0,0:0:0
416,40,265701,6,0,P|328:60|304:128,1,170,0|8,0:0|0:0,0:0:0
348,284,266213,1,0,0:0:0
252,228,266383,2,0,P|212:216|168:212,1,85
31,275,266724,2,0,P|61:246|86:210,1,85,8|0,0:0|0:0,0:0:0
100,60,267064,6,0,P|109:100|128:140,1,85,4|0,0:0|0:0,0:0:0
252,228,267406,1,8,0:0:0
200,84,267576,1,0,0:0:0
368,196,267747,1,0,0:0:0
368,196,267832,1,0,0:0:0
368,196,267917,1,0,0:0:0
284,140,268088,2,0,P|200:164,1,85,8|0,0:0|0:0,0:0:0
68,192,268429,5,2,0:0:0
444,192,268770,2,0,P|460:232|464:276,1,85,10|2,0:0|0:0,0:0:0
352,348,269110,1,0,0:0:0
352,348,269196,1,0,0:0:0
352,348,269281,1,2,0:0:0
364,212,269451,2,0,P|366:165|388:128,1,85,8|6,0:0|0:0,0:0:0
320,40,269792,38,0,P|272:108|256:196,1,170,4|8,0:0|0:0,0:0:0
324,311,270304,1,0,0:0:0
188,311,270474,1,0,0:0:0
188,311,270559,1,0,0:0:0
188,311,270645,1,0,0:0:0
324,311,270815,2,0,P|364:296|396:268,1,85,8|0,0:0|0:0,0:0:0
452,144,271156,5,0,0:0:0
308,232,271326,1,0,0:0:0
380,76,271497,2,0,P|340:44|308:29,1,85,8|0,0:0|0:0,0:0:0
292,132,271838,2,0,P|241:137|207:149,1,85,0|0,0:0|0:0,0:0:0
104,204,272179,1,8,0:0:0
109,85,272349,1,0,0:0:0
104,204,272520,6,0,P|114:246|136:284,1,85,4|0,0:0|0:0,0:0:0
255,283,272860,2,0,P|245:241|225:205,1,85,8|0,0:0|0:0,0:0:0
173,97,273201,1,0,0:0:0
173,97,273287,1,0,0:0:0
173,97,273372,1,0,0:0:0
313,101,273542,1,8,0:0:0
365,209,273713,1,0,0:0:0
417,317,273883,6,0,P|456:296|484:264,1,85,2|0,0:0|0:0,0:0:0
313,101,274224,2,0,P|274:122|246:154,1,85,10|2,0:0|0:0,0:0:0
365,209,274565,1,0,0:0:0
404,135,274735,1,2,0:0:0
181,52,274906,1,8,0:0:0
141,125,275076,1,6,0:0:0
181,199,275247,38,0,P|214:276|181:351,1,170,4|8,0:0|0:0,0:0:0
89,275,275758,1,0,0:0:0
46,127,275929,1,0,0:0:0
181,199,276099,1,0,0:0:0
138,51,276270,2,0,P|180:36|220:36,1,85,8|0,0:0|0:0,0:0:0
368,68,276610,5,0,0:0:0
384,188,276781,1,0,0:0:0
304,100,276951,2,0,P|280:140|276:180,1,85,8|0,0:0|0:0,0:0:0
205,74,277292,1,0,0:0:0
124,192,277463,1,0,0:0:0
138,51,277633,2,0,P|92:62|61:87,1,85,8|0,0:0|0:0,0:0:0
124,192,277974,6,0,P|296:192,1,170,4|8,0:0|0:0,0:0:0
344,84,278485,1,0,0:0:0
344,300,278656,1,0,0:0:0
344,300,278741,1,0,0:0:0
344,300,278826,1,0,0:0:0
344,84,278997,2,0,P|308:60|268:52,1,85,8|0,0:0|0:0,0:0:0
148,51,279338,5,2,0:0:0
256,180,279508,1,0,0:0:0
144,136,279679,2,0,P|104:120|60:124,1,85,10|2,0:0|0:0,0:0:0
88,224,280020,1,0,0:0:0
88,224,280105,1,0,0:0:0
88,224,280190,1,2,0:0:0
256,180,280360,2,4,P|296:168|340:168,1,85,8|6,0:0|0:0,0:0:0
428,120,280701,38,0,P|364:56|284:40,1,170,4|8,0:0|0:0,0:0:0
136,68,281213,1,0,0:0:0
224,120,281383,1,0,0:0:0
224,120,281468,1,0,0:0:0
224,120,281554,1,0,0:0:0
270,210,281724,2,0,P|270:254|255:294,1,85,8|0,0:0|0:0,0:0:0
156,308,282065,5,0,0:0:0
356,308,282235,1,0,0:0:0
156,308,282406,2,0,P|120:288|92:252,1,85,8|0,0:0|0:0,0:0:0
76,152,282747,2,2,P|104:128|104:128|120:164|120:164|136:136|136:136|168:116|168:80,1,170,0|8,0:0|0:0,0:0:0
364,83,283429,21,0,0:0:0
364,300,283770,1,8,0:0:0
147,300,284110,1,0,0:0:0
147,83,284451,1,8,0:0:0
310,137,284792,53,0,0:0:0
310,247,285133,1,8,0:0:0
202,247,285474,1,0,0:0:0
202,137,285815,1,8,0:0:0
256,192,286156,37,4,0:0:0
256,192,287520,37,4,0:0:0
424,192,287690,1,0,0:0:0
256,192,287860,2,0,P|212:164|180:120,1,106.25,8|0,0:0|0:0,0:0:0
280,40,288201,1,0,0:0:0
280,40,288287,1,0,0:0:0
280,40,288372,1,0,0:0:0
80,40,288542,2,0,P|56:88|48:140,1,106.25,8|0,0:0|0:0,0:0:0
64,268,288883,5,0,0:0:0
180,122,289054,1,0,0:0:0
180,272,289224,2,0,P|232:248|280:244,1,106.25,8|0,0:0|0:0,0:0:0
428,252,289565,1,0,0:0:0
452,40,289736,1,0,0:0:0
284,168,289906,2,0,P|264:114|233:77,1,106.25,8|0,0:0|0:0,0:0:0
115,77,290247,5,0,0:0:0
350,77,290417,1,0,0:0:0
115,77,290588,1,8,0:0:0
350,77,290758,1,0,0:0:0
408,192,290929,1,2,0:0:0
350,307,291099,1,0,0:0:0
350,307,291184,1,0,0:0:0
350,307,291270,2,0,P|296:304|248:284,1,106.25,10|2,0:0|0:0,0:0:0
104,192,291610,37,4,0:0:0
408,192,291951,2,0,P|400:140|372:92,1,106.25,8|0,0:0|0:0,0:0:0
256,44,292292,1,0,0:0:0
316,168,292463,1,0,0:0:0
196,168,292633,2,0,P|148:160|96:136,1,106.25,8|0,0:0|0:0,0:0:0
144,40,292974,5,0,0:0:0
48,232,293144,1,0,0:0:0
144,316,293315,2,0,P|192:348|242:359,1,106.25,8|0,0:0|0:0,0:0:0
236,232,293656,1,0,0:0:0
236,232,293741,1,0,0:0:0
236,232,293826,1,0,0:0:0
236,104,293997,2,0,P|288:88|340:88,1,106.25,8|0,0:0|0:0,0:0:0
468,104,294338,6,0,P|456:168|408:208|408:208|316:208,1,212.5,0|8,0:0|0:0,0:0:0
160,208,294849,1,0,0:0:0
236,104,295020,1,0,0:0:0
236,312,295190,1,0,0:0:0
236,104,295360,2,0,P|280:76|332:64,1,106.25,8|0,0:0|0:0,0:0:0
468,104,295701,5,0,0:0:0
386,252,295871,1,0,0:0:0
226,192,296042,1,8,0:0:0
308,44,296212,1,0,0:0:0
348,147,296383,1,2,0:0:0
226,192,296554,1,0,0:0:0
226,192,296639,1,0,0:0:0
226,192,296724,2,0,P|119:192,1,106.25,10|2,0:0|0:0,0:0:0
40,76,297065,37,4,0:0:0
40,308,297235,1,0,0:0:0
120,88,297406,1,8,0:0:0
120,296,297576,1,0,0:0:0
226,192,297747,2,0,P|256:148|300:120,1,106.25
424,56,298088,1,8,0:0:0
336,228,298258,1,0,0:0:0
220,76,298429,5,0,0:0:0
220,76,298599,1,0,0:0:0
68,192,298770,1,8,0:0:0
68,192,298940,1,0,0:0:0
220,308,299110,1,0,0:0:0
220,308,299196,1,0,0:0:0
220,308,299281,1,0,0:0:0
68,192,299451,2,0,P|76:140|104:88,1,106.25,8|0,0:0|0:0,0:0:0
256,40,299792,6,0,P|248:92|220:144,1,106.25,0|0,0:0|0:0,0:0:0
132,280,300133,1,8,0:0:0
380,280,300304,1,0,0:0:0
156,198,300474,1,0,0:0:0
156,198,300559,1,0,0:0:0
156,198,300645,1,0,0:0:0
355,198,300815,2,0,P|408:184|448:152,1,106.25,8|0,0:0|0:0,0:0:0
355,46,301156,5,0,0:0:0
202,45,301326,1,0,0:0:0
202,198,301497,1,8,0:0:0
355,198,301667,1,0,0:0:0
276,124,301838,1,2,0:0:0
276,124,301923,1,0,0:0:0
276,124,302008,1,0,0:0:0
202,198,302179,2,0,P|152:216|100:216,1,106.25,10|2,0:0|0:0,0:0:0
140,128,302520,6,0,P|192:60|272:28,1,170,4|8,0:0|0:0,0:0:0
372,256,303234,2,0,P|320:324|240:356,1,170,0|8,0:0|0:0,0:0:0
256,192,303948,6,0,P|320:132|400:120,1,170,4|8,0:0|0:0,0:0:0
256,192,304707,2,0,P|172:192,2,85,0|0|8,0:0|0:0|0:0,0:0:0
400,120,305517,70,0,P|343:55|266:30,1,170,4|8,0:0|0:0,0:0:0
400,120,306386,2,0,P|400:208,2,85,0|0|8,0:0|0:0|0:0,0:0:0
112,264,307338,6,0,P|169:329|248:352,1,170,4|8,0:0|0:0,0:0:0
112,264,308372,2,0,P|112:180,2,85,0|0|8,0:0|0:0|0:0,0:0:0
256,192,309596,12,0,314596,0:0:0
