osu file format v9

[General]
AudioFilename: Pendulum - Blood Sugar.mp3
AudioLeadIn: 0
PreviewTime: 132545
Countdown: 1
SampleSet: Normal
StackLeniency: 0.7
Mode: 0
LetterboxInBreaks: 1

[Editor]
Bookmarks: 78842,166898,186261,208075,241639,263458,309822
DistanceSpacing: 1
BeatDivisor: 4
GridSize: 8

[Metadata]
Title:Blood Sugar
Artist:Pendulum
Creator:Zapy
Version:Normal
Source:
Tags:

[Difficulty]
HPDrainRate:4
CircleSize:3
OverallDifficulty:4
ApproachRate:7
SliderMultiplier:1.6
SliderTickRate:1

[Events]
//Background and Video events
0,0,"blood.jpg"
//Break Periods
2,110926,112213
2,113654,114941
2,116382,117668
2,119109,120395
2,121836,123122
2,124562,125850
//Storyboard Layer 0 (Background)
//Storyboard Layer 1 (Fail)
//Storyboard Layer 2 (Pass)
//Storyboard Layer 3 (Foreground)
//Storyboard Sound Samples
//Background Colour Transformations
3,100,163,162,255

[TimingPoints]
72545.683576927,340.909090909091,4,1,0,65,1,0
88568,-100,4,2,0,5,0,0
88909,-100,4,1,0,65,0,1
88909,-100,4,1,0,65,0,1
110728,-100,4,1,0,50,0,0
208909,-200,4,1,0,50,0,0
219818,-100,4,1,0,65,0,1
241639,-100,4,1,0,65,0,0
243000,-100,4,1,0,65,0,1
263454,-100,4,1,0,65,0,0

[Colours]
Combo1 : 240,227,66
Combo2 : 240,0,6
Combo3 : 215,77,30

[HitObjects]
184,112,67091,2,4,B|120:192|184:272,1,160
336,256,67772,2,4,B|390:188|326:108,1,160
256,256,68454,2,0,B|256:80,2,160
256,256,69477,1,0
104,312,69818,1,0
408,312,70500,1,0
152,128,71182,1,0
256,248,71522,1,0
360,128,71863,1,0
176,120,72545,6,4,B|256:56|336:120,1,160
320,272,73226,2,4,B|252:326|172:262,1,160
32,192,73909,2,0,B|200:192,2,160
352,192,75272,2,0,B|456:192,2,80
192,192,75954,1,0
104,256,76636,2,0,B|120:304|184:296,1,80
408,256,77147,2,0,B|392:304|328:296,1,80
256,160,77659,5,0
256,160,78000,2,4,B|256:224|256:224|288:224|336:192|336:144,1,160
256,160,78682,2,4,B|256:96|256:96|224:96|176:128|176:176,1,160
24,192,79363,1,0
128,312,79704,1,0
232,192,80045,1,0
128,312,80386,1,0
128,312,80727,2,0,B|320:312,2,160
128,72,82091,2,0,B|320:72,2,160
24,192,83113,1,0
184,192,83454,1,0
256,192,83625,12,0,88568
304,104,88909,6,0,B|352:144|352:144|352:192|352:192|408:240,2,160,0|8|0
256,256,89932,1,8
392,336,90272,1,0
464,191,90613,1,8
328,112,90954,1,0
328,112,91125,2,0,B|224:112,1,80,0|8
136,224,91636,6,0,B|88:264|88:264|88:312|88:312|32:360,2,160,0|8|0
256,328,92659,2,0,B|256:240,1,80,8|0
256,56,93170,2,0,B|256:144,1,80,0|8
408,192,93682,2,0,B|296:192,2,80,0|0|8
256,248,94363,5,0
256,88,94704,1,8
176,232,95045,1,0
336,232,95386,1,8
256,88,95727,2,0,B|256:256,2,160,0|8|0
136,192,96750,1,8
136,192,96920,1,0
72,240,97091,6,0,B|112:288|170:261,2,80,0|0|8
72,142,97602,2,0,B|99:105|142:114,1,80
224,192,98113,2,0,B|312:192,1,80,8|0
344,120,98454,2,0,B|402:135|402:260|336:256,3,160,0|8|0|8
208,192,99818,5,0
256,40,100159,1,8
304,192,100500,1,0
256,344,100841,1,8
304,192,101182,2,0,B|392:192,2,80,0|0|8
256,288,101693,2,0,B|168:288,1,80
208,192,102204,1,8
208,192,102375,1,8
208,192,102545,6,0,B|120:192,2,80,0|0|8
256,96,103057,2,0,B|344:96,1,80
304,192,103568,1,8
304,192,103739,1,8
304,192,103909,6,0,B|392:192,2,80,0|0|8
224,192,104420,2,0,B|128:192,1,80
64,192,104761,1,0
64,192,104932,1,8
351,82,105272,6,0,B|192:96,1,160,0|8
296,192,105954,2,0,B|464:192,1,160,0|8
351,301,106636,2,0,B|192:288,1,160,0|8
64,192,107318,1,0
224,192,107659,1,8
360,112,108000,1,0
200,112,108341,1,8
200,272,108682,1,0
360,280,109022,1,8
376,120,109363,6,0,B|376:32,1,80
296,16,109704,2,0,B|208:16,1,80,8|0
136,40,110045,2,0,B|136:128,1,80
176,192,110386,2,0,B|368:192,1,160,8|4
256,112,113113,5,0
256,272,113454,1,4
256,272,115841,5,0
256,112,116182,1,4
176,192,118568,5,0
336,192,118909,1,4
336,192,121295,5,0
176,192,121636,1,4
40,88,124022,6,0,B|224:88,1,160,0|4
472,296,126750,6,0,B|288:296,1,160,0|4
472,88,128113,6,0,B|288:88,1,160,0|4
40,296,129477,6,0,B|224:296,1,160,0|4
256,192,130159,1,0
256,32,130500,1,4
392,112,130841,1,0
392,272,131182,1,4
256,352,131522,1,0
120,272,131863,1,4
120,112,132204,1,0
256,192,132545,12,0,133909
56,72,134250,6,0,B|104:136|104:136|192:136,1,160
320,216,134932,2,0,B|368:152|368:152|456:152,1,160,0|0
432,312,135613,1,0
432,312,135954,2,0,B|384:360|384:360|288:360,1,160
256,192,136636,1,0
256,192,136977,1,0
256,192,137318,2,0,B|152:192,2,80
384,96,138000,6,0,B|256:0,1,160
128,96,138682,2,0,B|256:0,1,160
256,160,139363,1,0
256,320,139704,2,0,B|256:232,1,80
416,160,140216,2,0,B|328:160,1,80
256,160,140727,5,0
256,320,141068,2,0,B|256:232,1,80
96,160,141579,2,0,B|184:160,1,80
256,160,142091,5,0
256,320,142432,2,0,B|256:224,1,80
256,0,142943,2,0,B|256:96,1,80
416,72,143454,6,0,B|280:120|432:192,1,160
308,46,144136,2,0,B|256:160|203:45,1,160
96,72,144818,2,0,B|232:120|80:192,2,160
112,175,145841,1,0
48,288,146182,6,0,B|216:288,1,160
256,136,146863,1,0
256,296,147204,1,0
464,288,147545,2,0,B|296:288,1,160
256,136,148227,2,0,B|256:232,2,80
336,280,148909,6,0,B|160:280,1,160
176,120,149591,2,0,B|352:120,1,160
480,192,150272,1,0
336,192,150613,1,0
176,192,150954,1,0
32,192,151295,1,0
176,280,151636,6,0,B|352:280,1,160
336,120,152318,2,0,B|160:120,1,160
96,192,153000,2,0,B|184:192,1,80
176,192,153341,2,0,B|280:192,1,80
256,192,153682,2,0,B|344:192,1,80
336,192,154022,2,0,B|432:192,1,80
