osu file format v9

[General]
AudioFilename: Pendulum - Blood Sugar.mp3
AudioLeadIn: 0
PreviewTime: 132545
Countdown: 1
SampleSet: Normal
StackLeniency: 0.7
Mode: 0
LetterboxInBreaks: 1

[Editor]
Bookmarks: 78842,166898,186261,208075,241639,263458,309822
DistanceSpacing: 1.2
BeatDivisor: 4
GridSize: 4

[Metadata]
Title:Blood Sugar
Artist:Pendulum
Creator:Zapy
Version:Insane
Source:
Tags:

[Difficulty]
HPDrainRate:5
CircleSize:4
OverallDifficulty:4
ApproachRate:9
SliderMultiplier:1.8
SliderTickRate:1

[Events]
//Background and Video events
0,0,"blood.jpg"
//Break Periods
2,83654,85582
2,110928,120696
2,132575,133303
2,177204,197400
2,198373,200129
2,201100,202857
2,203827,205584
2,206555,208311
//Storyboard Layer 0 (Background)
//Storyboard Layer 1 (Fail)
//Storyboard Layer 2 (Pass)
//Storyboard Layer 3 (Foreground)
//Storyboard Sound Samples
//Background Colour Transformations
3,100,163,162,255

[TimingPoints]
72545.683576927,340.909090909091,4,1,0,65,1,0
88483,-100,4,2,0,5,0,0
88909,-100,4,1,0,65,0,1
100892,-100,4,1,0,65,0,1
110728,-100,4,1,0,65,0,0
129478,-80,4,1,0,65,0,0
130501,-66.6666666666667,4,1,0,65,0,0
131182,-57.1428571428571,4,1,0,65,0,0
131864,-50,4,1,0,65,0,0
133903,-100,4,1,0,65,0,1
144781,-100,4,1,0,65,0,1
154195,-100,4,1,0,65,0,0
198002,-100,4,1,0,50,0,0
209082,-200,4,1,0,50,0,0
219821,-100,4,1,0,65,0,1
219821,-100,4,1,0,65,0,1
241639,-100,4,1,0,65,0,0
243003,-100,4,1,0,65,0,1
263458,-100,4,1,0,65,0,0
286640,-100,4,1,0,65,0,1
308800,-100,4,2,0,5,0,0

[Colours]
Combo1 : 240,227,66
Combo2 : 240,0,6
Combo3 : 215,77,30

[HitObjects]
256,332,61295,5,6
256,44,61636,1,6
396,332,62659,1,6
116,52,63000,1,6
116,332,64022,1,6
396,52,64363,1,6
48,132,64704,1,6
464,252,65045,1,6
464,132,65386,1,6
88,280,65726,5,6
156,220,65897,1,0
424,280,66067,1,6
356,220,66237,1,0
252,368,66408,1,6
256,216,66578,1,0
208,292,66749,1,2
304,292,66919,1,2
312,136,67090,6,4,B|352:116|352:116|384:148|384:148|416:116|416:116|456:136,1,180
200,248,67772,2,4,B|160:268|160:268|128:236|128:236|96:268|96:268|56:248,1,180
320,256,68453,1,0
192,128,68624,1,0
372,80,68794,1,0
140,304,68965,1,0
256,192,69135,1,0
256,320,69476,5,8
256,64,69647,1,8
332,140,69817,6,0,B|332:100|332:100|344:80|384:84|384:84|384:116|416:124|452:104,1,180
256,192,70328,1,0
180,244,70500,2,0,B|180:284|180:284|168:304|128:300|128:300|128:268|96:260|60:280,1,180,0|8
464,192,71010,1,8
204,192,71181,1,0
328,192,71351,1,0
92,192,71522,2,0,B|4:192,2,90
116,324,72033,1,0
396,324,72203,1,8
56,44,72544,6,4,B|112:108|112:108|160:16|224:104,1,180
56,340,73227,2,4,B|112:276|112:276|160:368|224:280,1,180
256,192,73908,1,0
44,192,74079,1,0
148,288,74249,1,0
148,96,74419,1,0
44,192,74590,2,0,B|184:192,2,90,0|0|8
348,192,75272,5,0
468,26,75614,2,0,B|468:116,1,90
372,64,75955,1,0
320,192,76125,1,0
372,320,76296,1,8
140,320,76466,1,8
192,192,76637,1,0
140,64,76807,1,0
372,64,76978,1,0
140,320,77148,1,0
296,284,77318,2,0,B|160:252,1,90
216,100,77659,2,0,B|352:132,1,90,8|0
372,64,78000,5,4
140,320,78340,1,4
140,64,78681,1,4
372,320,79022,1,4
312,124,79363,1,0
200,260,79533,1,0
200,124,79704,1,0
312,260,79874,1,0
256,92,80045,2,0,B|256:284,1,180,0|8
256,356,80556,1,8
352,192,80727,6,0,B|460:192,2,90
256,192,81238,1,0
76,192,81408,2,0,B|280:192,1,180,0|8
256,192,81920,1,8
172,288,82090,2,0,B|128:312|128:312|100:364,1,90
112,192,82431,2,0,B|4:192,1,90
172,96,82773,2,0,B|128:72|128:72|100:20,2,90
424,196,83454,1,4
256,192,86182,12,0,88568
368,192,88909,6,0,B|488:192,1,90
412,100,89250,1,8
368,192,89420,1,0
412,284,89591,1,0
412,100,89761,1,0
308,304,89932,1,8
308,80,90102,1,0
204,144,90272,2,0,B|112:132,1,90
204,240,90613,2,0,B|112:252,1,90,8|0
392,256,90954,1,0
304,144,91125,1,0
392,128,91295,1,8
304,240,91466,1,8
340,332,91636,6,0,B|396:360|464:324,1,90
427,45,91977,2,0,B|384:32|340:52,1,90,8|0
456,192,92318,1,0
256,192,92489,1,0
360,276,92659,1,8
152,108,92830,1,0
152,276,93000,2,0,B|152:372,1,90
152,108,93341,2,0,B|152:12,1,90,8|0
56,192,93682,1,0
360,108,93852,1,8
360,276,94023,1,8
360,276,94108,1,0
360,276,94193,1,0
360,276,94278,1,8
360,276,94364,6,0,B|328:308|304:352,1,90
152,108,94705,2,0,B|184:72|208:32,1,90,8|0
360,108,95046,1,0
152,276,95216,1,0
416,192,95386,2,0,B|512:192,1,90,8|0
464,100,95727,1,0
464,284,95898,1,0
404,28,96068,1,8
404,356,96239,1,0
464,104,96409,2,0,B|444:194|444:194|464:292,1,180,0|8
404,356,96921,1,8
176,264,97091,6,0,B|192:308|192:308|168:356,2,90,0|0|8
256,192,97602,1,0
335,119,97773,2,0,B|320:76|320:76|340:37,1,90
420,76,98114,1,8
92,76,98284,1,0
420,308,98455,5,0
420,76,98625,1,0
92,308,98796,1,8
256,76,98966,1,0
204,312,99307,6,0,B|256:308|320:316,2,90,0|8|0
320,140,99818,6,0,B|368:216|368:216|460:260,1,180,0|8
256,76,100330,1,0
192,140,100500,2,0,B|144:216|144:216|62:254,1,180,0|8
256,76,101012,1,0
180,260,101182,1,0
452,132,101353,1,0
332,260,101523,1,8
60,132,101694,1,0
168,32,101864,2,0,B|256:60|256:60|364:32,1,180,0|8
436,28,102375,1,8
76,28,102546,6,0,B|76:144,1,90
76,356,102887,2,8,B|76:240,1,90,8|0
164,308,103228,1,0
76,116,103398,1,0
76,268,103569,1,8
164,76,103739,1,0
460,80,103910,2,0,B|416:92|364:80,1,90
460,304,104250,2,0,B|416:292|364:304,1,90,8|0
256,192,104591,1,0
284,296,104762,1,8
228,88,104932,1,8
332,112,105103,1,0
364,120,105188,1,8
396,128,105273,6,0,B|440:144|500:152,1,90
116,128,105614,2,0,B|72:144|12:152,1,90,8|0
112,232,105955,2,0,B|160:236|216:256,1,90
400,232,106296,2,0,B|352:236|296:256,1,90,8|0
376,336,106637,1,2
136,48,106977,1,2
468,260,107318,1,2
44,124,107659,1,2
340,144,108000,6,0,B|356:100|392:68,1,90
172,144,108340,2,0,B|156:100|120:68,1,90,8|0
256,80,108682,1,0
256,304,108852,1,0
256,80,109023,2,0,B|256:170,1,90,8|0
172,240,109364,1,0
152,256,109449,1,0
136,280,109535,1,0
340,144,109705,1,0
360,128,109790,1,0
376,104,109876,1,0
340,240,110046,1,0
360,256,110131,1,0
376,280,110217,1,0
136,104,110387,1,8
256,328,110728,1,4
256,284,121296,5,0
164,192,121637,2,0,B|112:160|112:160|88:108|96:56|120:20,1,180,0|8
256,156,122148,1,0
348,192,122318,2,0,B|400:160|400:160|424:108|416:56|392:20,1,180,0|8
256,228,122830,1,0
328,96,123000,2,0,B|372:124|440:140,1,90,0|0
184,96,123341,2,0,B|144:120|72:140,1,90,8|0
408,216,123682,1,0
256,36,123853,1,0
104,216,124023,1,8
256,348,124193,5,8
256,348,124279,1,0
256,348,124364,2,0,B|296:296|352:304,1,90
436,320,124705,1,8
436,64,124875,1,0
176,266,125046,2,0,B|132:272|104:316,1,90,0|0
76,64,125387,1,8
436,320,125557,1,0
76,64,125728,2,0,B|152:80|184:72,1,90,10|0
444,192,126069,2,0,B|376:192|336:192,1,90,10|0
76,320,126410,2,0,B|152:304|184:312,1,90,10|0
272,332,126751,1,10
72,192,126921,1,8
256,52,127091,6,0,B|336:96|336:96|452:72,1,180,2|8
440,180,127603,1,0
256,52,127773,2,0,B|176:96|176:96|60:72,2,180,0|10|2
72,180,128626,1,0
168,284,128796,2,0,B|256:268|256:268|380:284,1,180,8|0
256,364,129307,1,0
372,184,129478,6,0,B|255:161|132:184,2,224.999996647239,10|2|10
256,364,130330,1,0
391,95,130501,2,0,B|260:68|123:93,1,269.999991953373,2|10
256,364,131012,1,0
56,32,131182,2,0,B|29:95|41:187,1,157.499992959202,2|0
456,352,131523,2,0,B|482:288|470:196,1,157.499992959202,10|0
60,332,131864,2,0,B|152:352|240:328,1,180,2|0
452,52,132205,2,0,B|360:32|272:56,1,180,10|0
296,256,133903,6,0,B|296:348,1,90
216,128,134244,2,0,B|216:36,1,90,8|0
128,84,134585,1,0
128,300,134755,1,0
300,84,134926,1,8
128,300,135096,1,8
300,84,135267,6,0,B|368:96|416:80,2,90,0|0|8
480,80,135778,1,0
136,156,135949,2,0,B|88:164|44:156,1,90
96,256,136289,1,8
424,332,136460,1,8
88,332,136630,1,0
416,256,136801,1,0
256,40,136971,2,0,B|204:128,1,90,8|0
256,344,137312,1,0
152,36,137483,1,8
464,84,137653,1,8
440,92,137738,1,0
416,100,137824,1,0
392,108,137909,1,8
368,120,137994,6,0,B|316:136|272:176,1,90
376,228,138335,1,8
96,312,138505,1,0
144,120,138676,2,0,B|196:136|240:176,1,90
136,228,139017,1,8
416,312,139187,1,0
416,72,139358,1,0
96,72,139528,1,0
464,52,139699,1,8
48,52,139869,1,0
388,108,140040,2,0,B|316:40|276:160|204:72,1,180,0|8
221,89,140551,1,8
224,192,140721,6,0,B|124:192,2,90,0|0|8
48,192,141233,1,0
221,294,141403,2,0,B|276:224|316:344|388:276,1,180,0|8
383,279,141921,1,8
420,180,142092,2,0,B|440:112|472:84,1,90
124,120,142433,2,0,B|108:68|72:24,2,90,8|0|0
204,32,142945,1,0
92,324,143115,1,8
383,279,143455,6,0,B|432:272|472:280,1,90
200,288,143796,1,8
288,200,143966,1,0
168,180,144137,2,0,B|128:152|104:96,1,90
44,32,144478,1,8
288,200,144648,1,0
256,60,144819,1,0
256,60,144989,1,0
372,92,145159,1,8
336,320,145330,1,0
132,200,145500,2,0,B|188:164|248:248|324:184,1,180,0|8
24,192,146012,1,8
80,104,146182,5,0
336,60,146353,1,0
176,324,146523,1,8
80,280,146694,1,0
272,264,146864,2,0,B|283:207|219:159|211:95,1,180,0|8
272,264,147375,1,0
368,188,147546,6,0,B|416:152|476:144,1,90
452,56,147887,1,8
96,216,148057,1,0
256,48,148228,1,0
388,320,148398,1,8
464,244,148569,1,8
352,220,148739,1,0
324,208,148824,1,8
296,196,148910,1,0
376,112,149080,5,0
376,112,149250,2,0,B|424:120|488:112,1,90,8|0
256,272,149591,1,0
256,112,149762,1,0
136,272,149940,2,0,B|88:264|24:272,1,90,8|0
148,168,150280,2,0,B|116:120|72:88,1,90,2|0
256,272,150621,2,0,B|264:328|292:364,1,90,10|0
230,26,150962,2,2,B|248:48|256:112,1,90,2|0
368,140,151303,1,10
148,168,151474,1,8
416,308,151644,5,0
424,220,151815,1,0
256,64,151985,2,0,B|264:100|264:100|248:108|248:108|256:128|256:128|256:160,1,90,8|0
82,72,152326,2,0,B|96:68|172:72,1,90
171,312,152667,2,0,B|96:316|82:311,1,90,8|0
100,192,153008,1,2
100,192,153172,1,2
260,336,153343,1,10
260,336,153513,1,2
412,192,153684,1,2
100,192,153854,1,2
368,64,154025,1,10
144,64,154195,1,2
256,276,154365,6,0,B|288:328|368:348|440:312,1,180,4|8
144,192,154877,1,0
256,276,155047,2,0,B|224:328|144:348|72:312,1,180,0|8
368,192,155559,1,0
368,76,155729,2,0,B|416:64|464:44,1,90
144,192,156070,2,0,B|44:192,1,90,8|0
368,308,156411,2,0,B|416:320|464:340,1,90
256,320,156752,1,8
256,64,156922,1,8
344,108,157093,6,0,B|312:176|400:192|416:304,1,180,4|8
72,124,157604,1,0
168,108,157775,2,0,B|200:176|112:192|96:304,1,180,0|8
440,124,158285,1,0
344,108,158456,2,0,B|292:108|240:96,1,90
168,276,158797,2,0,B|220:276|272:288,1,90,8|0
112,144,159137,1,0
112,144,159223,1,0
400,240,159393,1,0
400,240,159478,1,8
404,36,159649,1,0
404,36,159734,1,8
404,36,159819,6,0,B|364:88|352:120,1,90,4|0
296,220,160160,1,8
256,88,160331,1,0
368,324,160501,2,0,B|392:264|404:232,1,90
216,220,160842,1,8
256,88,161013,1,0
144,324,161183,2,0,B|120:272|108:232,1,90
384,60,161524,2,0,B|412:112|420:152,1,90,8|0
192,140,161865,1,0
320,244,162035,1,0
180,40,162206,1,8
332,344,162376,1,8
272,8,162547,1,4
256,192,162632,12,0,164933
412,72,165274,5,4
256,192,165359,12,0,167660
72,324,168001,5,4
256,192,168087,12,0,170388
412,304,170729,5,4
256,192,170814,12,0,171752
100,68,172092,5,4
256,192,172178,12,0,173115
412,304,173456,5,4
100,68,173797,1,0
100,304,174138,1,4
412,68,174479,1,0
256,36,174820,5,4
72,332,175274,1,4
440,332,175843,1,4
256,132,198000,5,0
256,248,198173,1,0
160,132,200729,5,0
352,132,200900,1,0
256,44,203457,5,0
256,308,203627,1,0
96,192,206184,5,0
416,192,206355,1,0
416,192,208911,5,0
96,192,209082,2,0,B|128:168|160:208|200:180,2,90
124,276,209934,2,0,B|148:320,1,45
200,256,210275,1,0
312,256,210446,1,0
256,160,210616,1,0
256,352,210786,1,0
416,192,210957,2,0,B|384:168|352:208|312:180,1,90
328,188,211468,1,0
360,48,211639,5,0
360,336,211809,2,0,B|360:232,2,90
256,192,212661,2,0,B|256:244,1,45
160,192,213002,1,0
160,192,213173,1,0
352,192,213343,2,0,B|412:192,1,45
204,96,213684,2,0,B|172:72|136:112|104:80,1,90
116,89,214196,1,0
48,36,214366,5,0
464,36,214536,2,0,B|388:96,3,90
210,132,215730,2,0,B|300:132,1,90
256,224,216241,1,0
256,44,216412,2,0,B|256:140,1,90
256,224,216923,1,0
360,192,217093,5,0
416,288,217264,2,0,B|436:324,2,22.5
416,96,217605,1,0
416,96,217690,1,0
416,96,217775,1,0
256,224,217946,2,0,B|236:188,2,22.5
96,272,218287,6,0,B|76:308,1,22.5
68,308,218457,1,0
44,312,218542,1,0
24,304,218627,1,0
12,284,218713,1,0
12,260,218798,1,0
96,112,218968,6,0,B|76:76,1,22.5
68,76,219138,1,0
44,72,219223,1,0
24,80,219308,1,0
12,124,219479,1,0
160,136,219821,6,0,B|144:152|184:192|216:192|216:192|184:192|144:232|156:247,1,180,0|8
408,48,220332,2,0,B|332:101|332:101|256:48,1,180
400,160,220843,1,8
112,224,221014,1,0
104,336,221182,2,0,B|180:283|180:283|256:336,1,180,0|8
364,300,221696,1,0
188,80,221866,1,0
316,192,222037,1,0
196,192,222207,1,8
324,76,222378,1,0
88,276,222548,6,0,B|136:272|192:276,2,90,0|0|8
88,276,223059,1,0
88,276,223400,1,0
88,276,223571,1,8
88,108,223741,1,0
180,64,223912,2,0,B|372:72,1,180,0|8
84,192,224423,1,0
332,320,224593,2,0,B|152:312,1,180,0|8
428,192,225105,1,0
332,144,225275,6,0,B|300:108|288:52|328:16|384:12,1,180,0|8
132,12,225787,2,8,B|184:16|224:52|212:108|180:144,1,180,0|0
424,96,226298,1,8
88,96,226469,1,0
116,212,226639,2,0,B|113:256|104:304,1,90
396,212,226980,2,0,B|399:256|408:304,1,90,8|0
344,348,227321,1,0
184,140,227491,1,0
328,140,227662,1,8
168,348,227832,1,0
66,86,228003,6,0,B|104:260,1,180,0|8
344,40,228514,2,0,B|164:40,1,180,0|8
408,260,229025,1,0
445,88,229196,1,8
476,344,229366,5,0
36,40,229707,1,0
476,40,230048,1,0
36,344,230389,1,0
104,260,230560,1,8
213,278,230730,6,0,B|256:268|256:268|308:280,1,90
256,372,231071,1,8
388,192,231241,1,0
388,192,231582,1,0
124,192,231753,1,8
256,372,231923,1,0
232,56,232094,2,0,B|328:64|428:56,1,180,0|8
128,44,232605,1,0
280,328,232775,2,0,B|184:320|84:328,1,180,0|8
56,244,233287,1,0
92,144,233457,6,0,B|148:172|184:176,1,90
420,240,233798,2,0,B|364:212|328:208,1,90,8|0
384,112,234139,1,0
128,272,234310,1,0
172,64,234480,1,8
340,320,234651,1,0
340,212,234821,2,0,B|344:136|360:108,2,90,0|0|8
256,280,235332,1,0
158,123,235503,2,0,B|168:136|172:212,2,90,0|0|8
256,144,236014,1,0
336,68,236185,6,0,B|448:80|444:220,1,180,0|8
176,316,236696,2,0,B|64:304|68:164,1,180,0|0
76,56,237207,1,8
436,328,237378,1,0
76,56,237548,2,0,B|180:64|264:52,1,180,0|8
456,144,238060,1,0
436,56,238230,2,0,B|332:64|248:52,1,180,0|8
56,144,238741,1,0
348,144,238912,6,0,B|156:144,1,180,0|8
56,316,239423,2,0,B|72:272|132:260|176:304|168:360,1,180,0|8
432,336,239935,2,0,B|420:288|416:244,1,90,0|8
388,72,240276,1,0
400,48,240361,1,0
408,20,240446,1,0
136,140,240617,1,0
108,136,240702,1,0
84,128,240787,1,0
332,288,240957,1,0
344,312,241043,1,0
360,336,241128,1,0
288,176,241298,1,8
288,176,241639,5,4
288,176,243003,2,0,B|336:184|408:176,1,90
472,176,243344,1,8
408,88,243514,1,0
408,276,243685,1,0
408,276,243770,1,0
408,276,243855,1,0
104,108,244026,2,0,B|184:100|283:108,1,180,8|0
176,192,244537,1,0
144,280,244708,2,0,B|132:328|112:368,1,90,8|0
72,212,245048,1,0
72,212,245219,1,0
320,340,245389,1,8
256,32,245557,1,0
356,96,245730,2,0,B|332:144|328:220,1,90
448,148,246071,2,0,B|468:100|472:32,1,90,8|0
356,96,246412,1,0
256,32,246583,1,8
128,192,246753,1,8
120,216,246838,1,0
112,240,246923,1,0
104,264,247009,1,8
96,288,247094,6,0,B|80:340|80:376,1,90
192,332,247435,1,8
80,64,247605,1,0
256,152,247776,2,0,B|256:244,1,90
320,52,248117,1,8
432,320,248287,1,0
344,192,248458,2,0,B|352:120|376:88,1,90
168,192,248798,2,0,B|160:264|136:296,1,90,8|0
64,216,249139,1,0
448,216,249480,1,8
448,108,249651,1,8
440,316,249821,6,0,B|400:304|328:312,1,90
200,208,250162,1,8
312,208,250333,1,0
72,316,250503,2,0,B|112:304|184:312,2,90,0|0|8
256,120,251014,1,0
144,112,251185,5,0
256,28,251355,1,0
60,56,251526,1,8
452,56,251696,1,0
368,112,251867,2,0,B|320:148|388:184|392:264|312:296,1,180,0|8
280,216,252378,1,8
184,244,252549,2,0,B|136:264|88:308,2,90,0|0|8
107,92,253060,1,0
328,244,253230,2,0,B|376:264|424:308,2,90,0|0|8
256,324,253742,1,0
404,92,253912,5,0
452,192,254083,1,0
404,292,254253,1,8
504,192,254424,1,0
408,24,254594,1,0
408,24,254679,1,0
408,24,254765,1,0
408,360,254935,2,0,B|308:352|216:360,1,180,8|0
124,360,255446,5,0
408,244,255617,2,0,B|484:272|508:316,1,90,8|0
408,140,255958,2,0,B|484:112|508:68,1,90
188,116,256299,1,8
308,248,256469,1,0
188,268,256640,1,0
312,144,256810,1,0
120,192,256980,2,0,B|24:192,2,90,8|0|0
148,192,257407,1,0
176,192,257492,1,0
436,192,257662,2,0,B|256:192,1,180,8|0
256,100,258174,5,0
256,192,258344,1,8
256,100,258515,1,0
328,320,258685,1,0
256,100,258856,1,0
184,320,259026,1,8
328,320,259196,1,0
360,148,259367,2,0,B|424:112|464:96,1,90
152,236,259708,2,0,B|88:272|48:288,1,90,8|0
152,148,260049,1,0
112,126,260134,1,0
72,106,260219,1,0
360,236,260390,2,0,B|424:272|464:288,1,90,8|0
328,320,260731,6,0,B|344:364,2,45
256,44,261071,2,0,B|252:116|256:152,1,90,8|0
444,108,261412,2,0,B|408:144,2,45
72,108,261753,1,8
72,276,261924,1,0
152,304,262094,5,0
196,288,262179,1,0
164,256,262265,1,0
211,45,262432,1,0
202,92,262517,1,0
246,80,262603,1,0
404,226,262772,1,0
369,195,262857,1,0
357,239,262943,1,0
256,192,263117,1,8
256,192,263458,6,0,B|360:340,1,180,0|8
416,192,263969,1,0
344,124,264140,2,0,B|384:80|464:96,1,90
168,260,264481,2,8,B|128:304|48:288,1,90
96,192,264822,5,0
96,192,265162,1,8
416,192,265333,1,0
96,192,265503,2,0,B|24:192,2,45
96,292,265844,1,8
416,92,266015,1,8
332,28,266185,5,0
332,28,266526,1,8
256,336,266697,1,0
180,28,266867,1,0
180,28,266952,1,0
180,28,267037,1,0
256,100,267208,1,8
256,188,267378,1,8
40,28,267549,5,0
472,28,267890,1,8
40,356,268231,1,0
472,356,268572,1,8
472,192,268742,1,8
400,244,268913,6,0,B|356:272|336:308,1,90
112,244,269253,2,0,B|156:272|176:308,1,90,8|0
88,328,269594,1,0
424,328,269765,1,0
136,156,269935,1,8
376,156,270106,1,8
112,244,270276,6,0,B|56:220|40:152,1,90
400,140,270617,2,0,B|456:164|472:232,1,90,8|0
136,156,270958,1,0
120,112,271043,1,0
136,68,271128,1,0
376,68,271299,2,0,B|408:116|368:168,1,90,8|8
204,112,271640,5,0
308,112,271810,1,0
256,36,271981,1,8
256,348,272151,1,0
256,184,272322,2,0,B|256:232,2,45
376,264,272663,1,8
136,264,272833,1,0
136,264,273174,1,0
136,264,273515,1,0
376,264,273685,1,0
256,336,274026,1,8
256,48,274367,5,0
320,112,274538,1,0
396,160,274708,2,0,B|452:192|508:188,1,90,8|0
432,264,275049,1,0
476,88,275219,1,0
304,236,275390,2,0,B|252:268|184:280,1,90,8|0
208,148,275731,6,0,B|260:116|328:104,1,90
384,88,276072,1,8
128,88,276242,1,0
128,296,276413,1,0
384,296,276583,1,0
384,88,276754,1,8
128,88,276924,1,0
40,152,277094,6,0,B|40:240,2,90,0|0|8
256,316,277606,1,0
472,152,277776,2,0,B|472:240,2,90,0|0|8
256,316,278288,1,0
256,32,278458,5,0
56,332,278799,1,8
456,332,279140,1,0
256,32,279481,1,8
256,120,279651,1,8
256,300,279822,6,0,B|256:112,1,180
412,124,280333,1,8
102,124,280504,2,0,B|12:124,1,90
320,124,280845,1,8
192,260,281015,1,0
320,260,281185,6,0,B|536:260,1,180,0|8
100,260,281697,1,0
100,260,282038,1,0
412,124,282208,1,0
116,48,282379,1,8
312,264,282549,6,0,B|340:332|372:348,1,90
200,120,282890,2,0,B|172:52|140:36,1,90,8|0
324,68,283231,2,0,B|384:36|448:36,1,90
188,316,283572,2,0,B|128:348|64:348,1,90,8|0
96,192,283913,1,0
416,192,284083,1,0
96,192,284254,1,8
412,44,284424,1,0
96,192,284595,1,0
412,340,284765,1,0
256,192,284936,1,8
256,192,285106,1,8
168,296,285276,6,2,B|248:332|352:292,1,180
344,88,285958,2,2,B|264:52|160:92,1,180
128,192,286640,6,0,B|36:192,1,90
256,64,286981,1,8
256,320,287151,1,0
384,192,287322,2,0,B|476:192,2,90,0|0|8
256,192,287833,1,8
352,104,288004,2,0,B|392:64|444:48,2,90,0|0|8
412,292,288515,1,0
100,292,288686,2,0,B|180:240|180:240|264:308,2,180,0|8|0
100,292,289538,1,0
256,64,289708,1,8
256,64,289879,1,0
440,192,290049,2,0,B|360:240|360:240|276:184,1,180,0|8
152,132,290561,1,8
152,132,290731,6,0,B|104:136|44:132,1,90
360,252,291072,2,0,B|408:248|468:252,1,90,8|0
152,252,291413,2,0,B|104:248|44:252,1,90
360,132,291754,1,8
152,252,291924,1,0
360,132,292095,2,8,B|392:76|432:60,2,90,0|0|8
456,160,292606,1,0
419,318,292777,2,0,B|392:308|360:252,1,90
284,312,293118,1,8
228,72,293288,1,8
132,120,293458,6,0,B|76:148|76:148|76:272,1,180,0|8
56,48,293970,1,0
196,200,294140,2,0,B|232:232|256:272,1,90
316,184,294481,2,0,B|284:152|256:112,1,90,8|0
320,44,294822,1,0
320,44,294993,1,0
144,296,295163,1,8
384,288,295333,1,0
152,84,295504,1,0
404,104,295674,1,8
252,192,295845,1,8
280,192,295930,1,0
308,192,296015,1,0
336,192,296101,1,8
364,192,296186,6,0,B|480:192,2,90,0|0|8
152,84,296868,2,0,B|36:84,2,90,0|0|8
252,192,297379,1,0
360,300,297549,2,0,B|372:360|492:360|504:296,1,180,0|8
432,192,298061,1,0
360,84,298227,2,0,B|372:24|492:24|504:88,2,180,0|8|0
432,192,299079,1,0
272,120,299250,6,0,B|200:116|176:64,1,90,8|0
240,264,299591,2,0,B|312:268|336:320,2,90,0|0|8
136,296,300102,1,0
168,192,300272,1,0
132,88,300443,1,0
240,120,300613,1,8
136,296,300784,1,0
240,264,300954,1,0
132,88,301125,1,8
168,192,301295,1,0
168,192,301380,1,0
168,192,301466,1,8
132,88,301636,5,0
380,88,301811,1,0
425,259,301981,2,0,B|384:240|336:260,1,90,8|0
380,332,302322,1,0
132,332,302493,1,0
256,192,302663,1,8
256,312,302834,6,0,B|256:148,1,120
132,88,303459,1,0
184,232,303856,2,0,B|300:208|248:316|364:300,1,180
376,84,304595,1,0
256,312,305050,1,0
376,84,305504,1,0
84,76,305959,1,0
376,300,306413,1,0
84,308,306981,1,0
256,48,307493,1,0
256,336,308061,1,0
256,192,308800,12,0,313913
