osu file format v9

[General]
AudioFilename: Pendulum - Blood Sugar.mp3
AudioLeadIn: 0
PreviewTime: 132545
Countdown: 1
SampleSet: Normal
StackLeniency: 0.7
Mode: 0
LetterboxInBreaks: 1

[Editor]
Bookmarks: 78842,166898,186261,208075,241639,263458,309822
DistanceSpacing: 1.2
BeatDivisor: 4
GridSize: 8

[Metadata]
Title:Blood Sugar
Artist:Pendulum
Creator:Zapy
Version:Hard
Source:
Tags:

[Difficulty]
HPDrainRate:5
CircleSize:4
OverallDifficulty:4
ApproachRate:8
SliderMultiplier:1.6
SliderTickRate:1

[Events]
//Background and Video events
0,0,"blood.jpg"
//Break Periods
2,110927,120886
2,154563,156000
2,157291,158727
2,160018,161454
2,162745,163159
2,176041,197250
2,198370,199977
2,201097,202704
2,203825,205432
2,206552,208159
//Storyboard Layer 0 (Background)
//Storyboard Layer 1 (Fail)
//Storyboard Layer 2 (Pass)
//Storyboard Layer 3 (Foreground)
//Storyboard Sound Samples
//Background Colour Transformations
3,100,163,162,255

[TimingPoints]
72545.683576927,340.909090909091,4,1,0,65,1,0
88568,-100,4,2,0,5,0,0
88909,-100,4,1,0,65,0,1
88909,-100,4,1,0,65,0,1
110728,-100,4,1,0,50,0,0
208909,-200,4,1,0,50,0,0
219818,-100,4,1,0,65,0,1
241639,-100,4,1,0,65,0,0
243000,-100,4,1,0,65,0,1
263454,-100,4,1,0,65,0,0

[Colours]
Combo1 : 240,227,66
Combo2 : 240,0,6
Combo3 : 215,77,30

[HitObjects]
256,192,61636,1,6
408,72,62659,1,6
256,192,63000,1,6
104,72,64022,1,6
256,192,64363,1,6
104,312,64704,1,6
256,192,65045,1,6
408,312,65386,1,6
256,192,65727,5,6
352,192,65897,1,6
256,192,66068,1,6
256,96,66238,1,6
256,192,66409,1,6
160,192,66579,1,6
256,288,66750,1,6
352,192,66920,1,6
256,192,67091,6,4,B|328:160|328:160|328:72,1,160
256,192,67772,2,4,B|184:224|184:224|184:312,1,160
376,328,68454,2,0,B|376:224,1,80
440,96,68795,2,0,B|440:176,1,80
496,256,69136,1,0
144,96,69818,6,0,B|320:96,1,160
376,160,70329,1,0
288,192,70500,2,0,B|224:192|224:192|208:216|208:216|128:216,1,160
288,336,71182,1,0
384,336,71352,1,0
448,264,71522,1,0
384,336,71693,1,0
448,264,71863,2,0,B|448:96,1,160
256,64,72545,6,4,B|184:64|184:64|184:96|184:96|128:96,1,160
256,320,73227,2,4,B|328:320|328:320|328:288|328:288|384:288,1,160
216,192,73909,1,0
312,192,74079,1,0
256,112,74250,1,0
352,112,74420,1,0
256,112,74591,2,0,B|72:112,1,160
116,305,75272,6,0,B|132:353|252:353|276:281,1,160
256,208,75784,1,0
398,305,75954,2,0,B|382:353|262:353|238:281,1,160
376,176,76636,2,0,B|336:88,1,80
169,103,76977,2,0,B|136:176,2,80
80,320,78000,6,4,B|144:272|144:272|216:320,2,160
224,192,79022,1,4
352,48,79363,2,0,B|416:64|440:104|440:104|440:184,1,160
344,144,79875,1,0
344,144,80045,2,0,B|344:304,1,160
168,144,80727,6,0,B|168:304,1,160
256,264,81238,1,0
256,168,81409,2,0,B|256:8,1,160
80,80,82091,1,0
32,168,82261,1,0
136,168,82432,1,0
80,80,82602,1,0
80,176,82772,2,0,B|80:222|80:222|129:273|129:273|128:352,1,160
256,192,83454,12,0,88568
256,96,88909,6,0,B|288:128|288:128|360:128,1,80
336,32,89250,1,8
408,88,89420,2,0,B|408:176,1,80
336,232,89761,1,0
248,192,89932,2,0,B|224:232|256:296,1,80,8|0
336,232,90272,2,0,B|360:192|328:128,1,80
320,328,90613,2,0,B|408:328,1,80,8|0
336,232,90954,1,0
248,192,91125,1,0
336,152,91295,2,0,B|336:56,1,80,8|0
248,104,91636,6,0,B|187:97|140:142|152:224,1,160,0|8
248,192,92147,1,0
248,104,92318,2,0,B|232:40|136:24|88:72,1,160,0|8
160,136,92829,1,0
160,232,93000,2,0,B|160:328,2,80,0|0|8
256,256,93511,1,0
344,288,93682,2,0,B|344:208|344:208|304:176|304:176|304:112,1,160,0|8
344,64,94193,1,8
456,48,94363,6,0,B|432:80|432:80|432:160|432:160|456:192,1,160,0|8
456,336,95045,2,0,B|432:304|432:304|432:224|432:224|456:192,1,160,0|8
264,192,95727,2,0,B|168:192,1,80
120,120,96068,1,8
56,192,96238,1,0
120,264,96409,2,0,B|120:360,1,80
120,264,96750,1,8
304,312,97091,6,0,B|336:312|336:312|352:296|352:296|392:296,2,80,0|0|8
240,248,97602,1,0
320,216,97772,2,0,B|352:176|352:176|488:176,1,160,0|8
408,96,98284,1,0
320,56,98454,5,0
208,64,98625,1,0
112,144,98795,1,8
112,240,98966,2,0,B|112:304|112:304|136:328|136:328|136:392,1,160
40,360,99477,1,8
112,240,99818,6,0,B|208:240,1,80
256,168,100159,1,8
400,240,100329,2,0,B|304:240,1,80
256,312,100670,1,0
256,168,100841,2,0,B|256:80,1,80,8|0
336,32,101182,1,0
240,32,101352,1,0
336,32,101522,1,8
432,32,101693,1,0
384,112,101863,2,0,B|384:168|384:168|408:192|408:192|408:272,1,160,0|8
496,224,102375,1,8
320,240,102545,6,0,B|320:336,1,80
408,264,102886,2,0,B|408:176,1,80,8|0
320,240,103227,2,0,B|320:80,1,160,0|8
240,136,103738,1,0
320,240,103909,2,0,B|248:280|248:280|160:224,1,160,0|8
241,177,104420,2,0,B|176:136|176:136|104:176,1,160,0|8
24,232,104932,1,0
24,232,105017,1,0
24,232,105102,1,8
112,272,105272,6,0,B|200:272,1,80
336,360,105613,2,0,B|256:360,1,80,8|0
160,360,105954,1,0
360,216,106295,1,8
240,32,106636,1,0
112,176,106977,1,8
296,232,107318,1,0
360,48,107659,1,8
168,24,108000,1,0
88,200,108341,1,8
248,96,108682,2,0,B|208:136|208:136|208:200|208:200|176:240,1,160,0|8
368,288,109363,6,0,B|416:288,2,40
368,192,109704,2,0,B|416:192,2,40
368,96,110045,2,0,B|408:96,2,40
280,144,110386,1,8
280,240,110727,1,4
104,96,121636,6,0,B|160:96|160:96|184:120|184:120|256:120,1,160,0|8
232,24,122147,1,0
176,112,122318,2,0,B|208:184|208:184|176:272,1,160,0|8
120,184,122829,1,0
160,320,123000,2,0,B|192:232,1,80
232,160,123341,2,0,B|261:252,1,80,8|0
352,320,123682,2,0,B|323:239,1,80
280,160,124022,2,0,B|253:243,1,80,8|8
400,264,124363,6,0,B|400:208|400:208|368:184|368:184|368:104,1,160,0|8
464,128,124875,1,0
376,192,125045,2,0,B|280:192|280:192|224:136,1,160,0|8
320,104,125557,1,0
235,147,125727,2,0,B|179:83,1,80
239,31,126068,2,0,B|175:95,1,80,8|0
125,32,126409,2,0,B|188:94,1,80
125,145,126750,2,8,B|181:89,1,80
56,96,127091,5,0
256,184,127432,1,8
256,280,127602,1,0
456,96,127943,1,0
456,96,128113,1,8
256,184,128454,1,0
256,64,128795,1,8
256,320,129136,1,2
256,184,129477,1,0
56,48,129818,6,0,B|96:72|96:72|96:128,1,80
152,184,130159,2,0,B|184:160|184:160|184:112,1,80,8|0
56,192,130500,2,0,B|56:232|56:232|96:264,1,80
110,344,130841,2,0,B|144:344|144:344|168:304,1,80,8|0
256,336,131182,1,0
384,192,131522,1,8
256,48,131863,1,0
128,192,132204,1,0
256,192,132545,12,0,133909
256,48,134250,5,8
328,112,134420,1,0
328,112,134761,1,0
328,208,134932,2,0,B|272:208|272:208|240:168|240:168|160:168,1,160,8|0
88,168,135443,1,0
144,248,135613,2,0,B|144:344,1,80,8|0
368,328,136125,2,0,B|368:248,1,80,0|8
448,192,136466,1,0
368,144,136636,2,0,B|368:96|368:96|400:72,1,80
448,192,136977,2,0,B|448:240|448:240|416:264,1,80,8|0
368,144,137318,2,0,B|296:144|296:144|288:136|288:136|184:136,2,160,0|8|0
256,304,138341,5,8
104,192,138682,1,0
256,72,139022,1,8
184,144,139363,1,0
184,240,139534,1,0
280,240,139704,1,8
280,144,139875,1,0
200,192,140045,2,0,B|272:192|272:192|280:184|280:184|360:184,2,160,0|8|0
104,200,140897,1,0
176,264,141068,2,0,B|200:296|200:296|168:320,1,80,8|0
80,288,141409,1,0
104,200,141579,1,0
88,104,141750,1,8
176,120,142091,6,0,B|200:88|200:88|168:63,1,80
256,152,142432,2,0,B|232:184|232:184|256:224,1,80,8|0
336,264,142772,1,0
400,192,142943,1,0
336,120,143113,1,8
272,192,143284,1,8
240,280,143454,6,0,B|200:320|200:320|160:320|160:320|112:376,1,160,0|8
56,296,143966,1,0
120,224,144136,2,0,B|160:224|160:224|216:176|216:176|216:112,1,160,0|8
216,129,144647,1,0
120,136,144818,2,0,B|32:136,1,80
120,136,145159,2,0,B|120:48,1,80,8|0
120,136,145500,1,0
392,136,145841,1,8
312,312,146182,6,0,B|264:264|264:264|264:160,2,160,0|8|0
352,224,147034,1,0
352,224,147204,2,0,B|176:224,1,160,8|0
96,224,147716,1,0
40,144,147886,1,8
40,48,148057,1,0
136,48,148227,1,0
136,144,148397,1,0
216,96,148568,1,8
216,96,148653,1,0
216,96,148738,1,8
312,96,148909,6,0,B|400:96,2,80,0|0|8
176,288,149591,2,0,B|80:288,1,80
144,208,149932,1,8
144,208,150102,1,8
240,232,150272,2,0,B|272:272|272:272|336:272|336:272|368:312,1,160,0|8
272,152,150954,2,0,B|240:112|240:112|176:112|176:112|144:72,1,160,0|8
272,16,151466,1,8
272,152,151636,6,0,B|304:112|304:112|368:112|368:112|400:72,1,160,0|8
240,232,152318,2,0,B|208:272|208:272|144:272|144:272|112:312,1,160,0|8
72,224,153000,6,0,B|128:144,1,80
88,64,153341,2,0,B|32:144,1,80,8|0
120,184,153682,2,0,B|176:104,1,80
72,112,154022,2,0,B|16:192,1,80,8|0
72,264,154363,5,4
256,288,156750,5,0
256,96,157091,1,4
80,112,159477,5,0
200,264,159818,1,4
432,112,162204,5,0
312,264,162545,1,4
256,192,163909,12,4,164932
136,272,165272,1,0
136,112,165613,2,0,B|224:112,1,80,8|0
272,192,165954,1,0
216,112,166125,1,0
272,192,166295,2,0,B|368:192,1,80,8|8
416,264,166636,1,4
232,312,166977,2,0,B|144:312,1,80,8|0
96,232,167318,1,0
152,312,167488,1,0
208,232,167659,1,8
152,152,167829,1,8
208,232,168000,1,4
352,112,168341,6,0,B|400:112|400:112|432:80,1,80,8|0
352,24,168682,1,0
256,24,168852,1,0
160,24,169022,1,8
160,24,169193,1,8
80,80,169363,6,0,B|48:104|48:104|48:152,1,80,4|0
104,224,169704,2,0,B|136:192|136:192|136:144,1,80,8|0
32,272,170045,2,0,B|32:312|32:312|72:352,1,80
160,336,170386,1,8
160,336,170557,1,8
256,336,170727,6,0,B|256:280|256:280|232:256|232:256|232:184,1,160,4|8
304,120,171238,1,0
304,120,171409,2,0,B|304:224|304:224|336:256|336:256|336:304,1,160,0|8
376,176,171920,1,0
376,176,172091,2,0,B|376:88|376:88|328:40|328:40|288:40,3,160,4|8|0|8
208,192,173454,5,0
256,8,173795,1,12
304,192,174136,1,0
256,8,174477,1,12
96,112,174818,5,4
256,352,175329,1,4
416,112,175841,1,4
256,192,198000,5,0
256,192,198170,1,0
256,104,200727,5,0
256,104,200897,1,0
256,24,203454,5,0
256,24,203625,1,0
256,192,206182,5,0
256,192,206352,1,0
256,288,208909,5,0
256,288,209079,2,0,B|304:288|304:288|328:264,2,80
256,240,209932,1,0
256,192,210102,1,0
216,216,210272,2,0,B|160:216,1,40
160,168,210613,2,0,B|208:168,1,40
184,120,210954,2,0,B|96:120,1,80
56,120,211466,1,0
88,240,211636,5,0
88,240,211807,2,0,B|112:264|112:264|112:288|112:288|136:312,3,80
176,304,213000,2,0,B|224:304,1,40
288,264,213341,2,0,B|248:264,1,40
224,224,213682,1,0
192,184,213852,1,0
224,144,214022,1,0
256,184,214193,1,0
304,184,214363,6,0,B|360:184,1,40
392,96,214875,1,0
312,40,215216,1,0
392,96,215557,1,0
392,96,215727,2,0,B|392:144,1,40
392,184,216068,2,0,B|392:240,1,40
352,256,216409,1,0
352,256,216494,1,0
352,256,216579,1,0
312,288,216750,1,0
264,288,216920,1,0
216,288,217091,5,0
216,288,217261,2,0,B|184:288,2,20
216,240,217602,2,0,B|192:240,2,20
216,192,217943,2,0,B|192:192,2,20
216,144,218284,1,0
216,144,218369,1,0
216,144,218454,2,0,B|216:112,4,20
296,144,218966,1,0
296,144,219051,1,0
296,144,219136,2,0,B|296:112,2,20
256,200,219477,1,0
256,200,219818,6,0,B|256:256|256:256|280:280|280:280|280:352,1,160,0|8
360,296,220329,2,0,B|360:256|360:256|328:224|328:224|328:144|328:144,1,160
416,96,220841,1,8
416,192,221011,1,0
328,152,221182,2,0,B|224:152,1,80
296,64,221522,1,8
200,64,221693,1,0
168,152,221863,2,0,B|248:152,1,80
288,240,222204,1,8
192,240,222375,1,0
192,240,222545,6,0,B|128:240|128:240|104:264|104:264|32:264,1,160,0|8
96,344,223057,2,0,B|256:344,1,160,0|8
400,272,223568,2,0,B|320:272,1,80,0|8
360,184,223909,1,0
360,184,224079,1,0
288,120,224250,2,0,B|288:32,1,80,8|0
200,88,224591,1,0
200,88,224761,1,0
136,160,224932,2,0,B|136:248,1,80,8|0
200,312,225272,6,0,B|368:312,1,160,0|8
456,312,225784,1,0
456,312,226125,1,0
456,312,226295,2,0,B|456:232,1,80,8|0
368,192,226636,2,0,B|272:192,1,80
256,104,226977,2,0,B|256:16,1,80,8|0
168,64,227318,2,0,B|80:64,1,80
128,152,227659,2,0,B|128:240,1,80,8|0
200,296,228000,5,0
200,296,228341,2,0,B|280:296,1,80,8|0
344,224,228682,1,0
344,128,228852,2,0,B|384:128|384:128|416:160,1,80,0|8
344,224,229193,2,0,B|296:224|296:224|264:192,1,80
256,104,229534,1,0
192,168,229704,2,0,B|128:232,1,80,8|0
88,144,230045,1,0
88,48,230216,1,0
184,48,230386,1,8
88,48,230557,1,8
88,144,230727,6,0,B|59:175|59:175|91:207,1,80
157,313,231068,2,0,B|186:282|186:282|160:256,1,80,8|0
237,142,231409,2,0,B|266:173|266:173|240:200,1,80
320,256,231750,2,0,B|351:285|351:285|377:258,1,80,8|0
352,168,232091,6,0,B|352:120|352:120|376:96|376:96|416:96|416:96|440:120|440:120|440:152,1,160,0|8
440,224,232602,1,0
440,320,232772,2,0,B|440:324|440:324|416:348|416:348|376:348|376:348|352:324|352:324|352:276,1,160,0|8
440,224,233284,1,0
351,276,233454,6,0,B|247:276,1,80
176,280,233795,1,8
216,192,233966,2,0,B|112:192,1,80
40,192,234307,1,0
80,280,234477,2,0,B|80:368,1,80,8|0
176,360,234818,2,0,B|216:320|216:320|216:272|216:272|256:232,1,160,0|8
312,304,235329,1,0
408,304,235500,2,0,B|408:224,1,80
408,304,235841,2,0,B|408:400,1,80,8|0
312,304,236182,6,0,B|312:232|312:232|288:208|288:208|288:152,1,160,0|8
384,160,236693,2,0,B|384:80,1,80
480,80,237034,1,0
384,0,237204,2,0,B|384:80,1,80,8|0
296,40,237545,1,0
200,40,237716,1,0
132,107,237886,1,8
132,203,238057,1,0
227,203,238227,2,0,B|291:147|291:147|355:211,1,160,0|8
412,268,238738,1,0
332,322,238909,6,0,B|268:378,1,80
248,280,239250,2,0,B|328:216,1,80,8|0
288,136,239591,2,0,B|208:200,1,80
216,88,239932,2,0,B|288:32,1,80,8|0
368,72,240272,6,0,B|416:72,2,40
392,168,240613,2,0,B|392:232,2,40
296,176,240954,2,0,B|240:176,2,40
280,80,241295,1,8
280,80,241636,6,2,B|208:32|120:80,1,160
232,304,242318,2,2,B|304:352|392:304,1,160
280,80,243000,6,0,B|240:80|240:80|216:104|216:104|176:104,1,80
120,72,243341,1,8
120,72,243511,1,0
40,128,243682,2,0,B|8:152|8:152|8:192,1,80
72,264,244022,2,0,B|120:264|120:264|144:296|144:296|216:296,1,160,8|0
192,200,244534,1,0
216,296,244704,2,0,B|296:296,1,80,8|0
368,360,245045,2,0,B|424:296|424:296|384:224,1,160,0|8
124,230,245727,6,0,B|88:296|88:296|144:360,1,160,0|8
216,296,246238,1,8
256,208,246409,2,0,B|256:160,2,40
296,296,246750,1,8
296,296,247091,6,0,B|336:256|336:256|336:208,1,80
408,168,247432,2,0,B|408:248,1,80,8|0
488,192,247772,1,0
488,192,247943,1,0
488,96,248113,2,0,B|488:56|488:56|456:32,1,80,8|0
360,32,248454,2,0,B|256:32,2,80,0|0|8
320,120,248966,1,0
320,120,249136,2,0,B|144:120,1,160,0|8
49,190,249818,6,0,B|78:162|78:162|104:192,1,80,0|0
254,190,250159,2,0,B|225:162|225:162|200:192,1,80,8|0
121,281,250500,2,0,B|150:309|150:309|176:280,1,80,0|0
256,336,250841,1,8
256,336,251011,1,0
462,190,251182,2,0,B|433:162|433:162|408:192,1,80,0|0
257,190,251522,2,0,B|286:162|286:162|312:192,1,80,8|0
390,281,251863,2,0,B|361:309|361:309|336:280,1,80,0|0
256,336,252204,1,8
256,192,252545,6,0,B|256:136|256:136|272:120|272:120|272:40,1,160,0|8
352,96,253057,2,0,B|352:192,1,80
440,136,253397,1,0
440,136,253568,1,8
256,56,253909,6,0,B|184:120,1,80
120,168,254250,2,0,B|184:240,1,80,8|0
104,296,254591,2,0,B|72:328,2,40
32,232,254932,1,8
224,232,255272,6,0,B|408:232,1,160,0|8
448,160,255784,1,0
384,88,255954,2,0,B|224:88,1,160,0|8
160,160,256466,1,0
256,160,256636,1,0
352,160,256807,1,0
256,160,256977,1,8
352,160,257147,1,0
448,160,257318,2,0,B|488:160,2,40
352,160,257659,1,8
224,304,258000,6,0,B|168:304|168:304|152:288|152:288|72:288,1,160,0|8
72,96,258682,2,0,B|153:96|153:96|169:80|169:80|225:80,1,160,0|8
256,160,259363,2,0,B|320:8,1,160,0|8
256,232,260045,2,0,B|192:80,1,160,0|8
256,232,260727,2,0,B|192:384,1,160,0|8
256,160,261409,2,8,B|320:312,1,160,0|8
400,136,262091,6,0,B|440:136,2,40
328,72,262432,2,0,B|328:32,2,40
256,136,262772,2,0,B|216:136,2,40
328,200,263113,1,8
328,200,263454,1,4
