osu file format v14

[General]
AudioFilename: Pendulum - Blood Sugar .mp3
AudioLeadIn: 0
PreviewTime: 88820
Countdown: 0
SampleSet: Soft
StackLeniency: 0.7
Mode: 3
LetterboxInBreaks: 0
SpecialStyle: 0
WidescreenStoryboard: 0

[Editor]
DistanceSpacing: 0.8
BeatDivisor: 4
GridSize: 16
TimelineZoom: 1.8

[Metadata]
Title:Blood Sugar
TitleUnicode:Blood Sugar
Artist:Pendulum
ArtistUnicode:Pendulum
Creator:Marirose
Version:4K Sanguine
Source:
Tags:Axle Grinder Pirate Station IV Hold Your Colour The Greatest Switch 2014 drum and bass dnb biemote shionelove tasuke912
BeatmapID:754399
BeatmapSetID:326337

[Difficulty]
HPDrainRate:8
CircleSize:4
OverallDifficulty:8
ApproachRate:5
SliderMultiplier:1.4
SliderTickRate:1

[Events]
//Background and Video events
0,0,"solo BG.jpg",0,0
//Break Periods
//Storyboard Layer 0 (Background)
//Storyboard Layer 1 (Fail)
//Storyboard Layer 2 (Pass)
//Storyboard Layer 3 (Foreground)
//Storyboard Sound Samples

[TimingPoints]
1548,340.909090909091,4,2,1,20,1,0
88820,-100,4,2,1,30,0,1
110638,-100,4,2,1,30,0,0
133820,-100,4,2,1,30,0,1
154275,-100,4,2,1,30,0,0
219729,-100,4,2,1,30,0,1
241548,-100,4,2,1,30,0,0
242911,-100,4,2,1,30,0,1
263366,-100,4,2,1,30,0,0
281775,-133.333333333333,4,2,1,30,0,0
282116,-100,4,2,1,30,0,0
286548,-100,4,2,1,30,0,1
301548,344.827586206897,4,2,1,30,1,1
301892,350.877192982456,4,2,1,30,1,1
302242,357.142857142857,4,2,1,30,1,1
302599,363.636363636364,4,2,1,30,1,1
302962,370.37037037037,4,2,1,30,1,1
303332,382.165605095541,4,2,1,30,1,1
303714,413.793103448276,4,2,1,30,1,1
304541,422.535211267606,4,2,1,30,1,1
304963,441.176470588235,4,2,1,30,1,1
305404,461.538461538462,4,2,1,30,1,1
305865,480,4,2,1,30,1,1
306345,521.739130434783,4,2,1,30,1,1
306866,540.540540540541,4,2,1,30,1,1
307406,588.235294117647,4,2,1,30,1,1
307994,631.578947368421,4,2,1,30,1,1
313678,-100,4,2,1,30,0,0

[HitObjects]
320,192,1292,128,0,1548:0:0:0:0:
448,192,1548,128,0,4275:0:0:0:0:
64,192,1548,1,0,0:0:0:0:
64,192,2911,1,0,0:0:0:0:
64,192,3082,1,0,0:0:0:0:
64,192,4275,1,0,0:0:0:0:
64,192,4445,1,0,0:0:0:0:
64,192,5638,1,0,0:0:0:0:
64,192,5809,1,0,0:0:0:0:
64,192,7002,1,0,0:0:0:0:
64,192,7173,1,0,0:0:0:0:
448,192,8366,1,0,0:0:0:0:
448,192,8536,1,0,0:0:0:0:
448,192,9729,1,0,0:0:0:0:
448,192,9900,1,0,0:0:0:0:
448,192,11093,1,0,0:0:0:0:
448,192,11263,1,0,0:0:0:0:
448,192,12457,1,0,0:0:0:0:
448,192,12627,1,0,0:0:0:0:
192,192,13820,1,0,0:0:0:0:
192,192,13991,1,0,0:0:0:0:
192,192,15184,1,0,0:0:0:0:
192,192,15354,1,0,0:0:0:0:
192,192,16548,1,0,0:0:0:0:
192,192,16718,1,0,0:0:0:0:
192,192,17911,1,0,0:0:0:0:
192,192,18082,1,0,0:0:0:0:
320,192,19275,1,0,0:0:0:0:
320,192,19445,1,0,0:0:0:0:
320,192,20638,1,0,0:0:0:0:
320,192,20809,1,0,0:0:0:0:
320,192,22002,1,0,0:0:0:0:
320,192,22173,1,0,0:0:0:0:
320,192,23366,1,0,0:0:0:0:
320,192,23536,1,0,0:0:0:0:
64,192,24729,1,0,0:0:0:0:
64,192,24900,1,0,0:0:0:0:
64,192,26093,1,0,0:0:0:0:
64,192,26263,1,0,0:0:0:0:
64,192,27457,1,0,0:0:0:0:
64,192,27627,1,0,0:0:0:0:
64,192,28820,1,0,0:0:0:0:
64,192,28991,1,0,0:0:0:0:
448,192,30184,1,0,0:0:0:0:
448,192,30354,1,0,0:0:0:0:
448,192,31548,1,0,0:0:0:0:
448,192,31718,1,0,0:0:0:0:
448,192,32911,1,0,0:0:0:0:
448,192,33082,1,0,0:0:0:0:
192,192,33934,128,0,34275:0:0:0:0:
448,192,34275,1,0,0:0:0:0:
64,192,34275,1,0,0:0:0:0:
64,192,36789,1,0,0:0:0:0:
192,192,36917,1,0,0:0:0:0:
320,192,37045,1,0,0:0:0:0:
448,192,37173,1,0,0:0:0:0:
320,192,39900,1,0,0:0:0:0:
448,192,40028,1,0,0:0:0:0:
320,192,40155,1,0,0:0:0:0:
192,192,40283,1,0,0:0:0:0:
64,192,40411,1,0,0:0:0:0:
448,192,40837,128,0,43138:0:0:0:0:
320,192,40837,128,0,43138:0:0:0:0:
64,192,43479,1,0,0:0:0:0:
192,192,43536,1,0,0:0:0:0:
320,192,43593,1,0,0:0:0:0:
448,192,43650,1,0,0:0:0:0:
320,192,43707,1,0,0:0:0:0:
192,192,43763,1,0,0:0:0:0:
64,192,43820,1,0,0:0:0:0:
64,192,44502,128,0,45184:0:0:0:0:
192,192,45184,1,6,0:0:0:0:
448,192,45184,128,6,47570:0:0:0:0:
320,192,45184,1,6,0:0:0:0:
320,192,45525,1,0,0:0:0:0:
320,192,45866,1,0,0:0:0:0:
320,192,46207,1,0,0:0:0:0:
320,192,46548,1,0,0:0:0:0:
320,192,46888,1,0,0:0:0:0:
320,192,47229,1,0,0:0:0:0:
320,192,47570,128,0,47911:0:0:0:0:
192,192,47570,1,2,0:0:0:0:
448,192,47911,128,0,49445:0:0:0:0:
64,192,47911,1,2,0:0:0:0:
192,192,47911,1,2,0:0:0:0:
192,192,48252,1,0,0:0:0:0:
192,192,48593,1,0,0:0:0:0:
192,192,48934,1,0,0:0:0:0:
192,192,49275,1,0,0:0:0:0:
64,192,49445,1,2,0:0:0:0:
64,192,49616,1,2,0:0:0:0:
320,192,49616,1,0,0:0:0:0:
64,192,49786,128,2,50042:0:0:0:0:
448,192,49957,1,0,0:0:0:0:
64,192,50127,1,2,0:0:0:0:
320,192,50298,1,0,0:0:0:0:
64,192,50298,128,2,50638:0:0:0:0:
448,192,50638,128,0,53025:0:0:0:0:
192,192,50638,1,2,0:0:0:0:
320,192,50638,1,2,0:0:0:0:
320,192,50979,1,0,0:0:0:0:
320,192,51320,1,0,0:0:0:0:
320,192,51661,1,0,0:0:0:0:
320,192,52002,1,0,0:0:0:0:
320,192,52343,1,0,0:0:0:0:
320,192,52684,1,0,0:0:0:0:
320,192,53025,128,2,53366:0:0:0:0:
192,192,53025,1,2,0:0:0:0:
448,192,53366,128,0,54729:0:0:0:0:
192,192,53366,1,2,0:0:0:0:
64,192,53366,1,2,0:0:0:0:
192,192,53707,1,0,0:0:0:0:
192,192,54048,1,0,0:0:0:0:
192,192,54388,1,0,0:0:0:0:
192,192,54729,1,0,0:0:0:0:
64,192,54900,128,0,55070:0:0:0:0:
320,192,55070,1,0,0:0:0:0:
64,192,55241,128,0,55411:0:0:0:0:
192,192,55411,128,0,55752:0:0:0:0:
448,192,55411,1,0,0:0:0:0:
320,192,55752,128,0,56093:0:0:0:0:
64,192,55752,1,0,0:0:0:0:
448,192,56093,128,0,58479:0:0:0:0:
192,192,56093,1,2,0:0:0:0:
64,192,56093,1,2,0:0:0:0:
64,192,56434,1,0,0:0:0:0:
64,192,56775,1,0,0:0:0:0:
64,192,57116,1,0,0:0:0:0:
64,192,57457,1,0,0:0:0:0:
64,192,57798,1,0,0:0:0:0:
64,192,58138,1,0,0:0:0:0:
192,192,58479,128,2,58820:0:0:0:0:
64,192,58479,1,2,0:0:0:0:
320,192,58820,1,2,0:0:0:0:
448,192,58820,128,0,60354:0:0:0:0:
64,192,58820,1,2,0:0:0:0:
320,192,59161,1,0,0:0:0:0:
320,192,59502,1,0,0:0:0:0:
320,192,59843,1,0,0:0:0:0:
320,192,60184,1,0,0:0:0:0:
64,192,60184,1,0,0:0:0:0:
192,192,60354,1,0,0:0:0:0:
64,192,60525,1,0,0:0:0:0:
448,192,60525,1,0,0:0:0:0:
448,192,60695,1,0,0:0:0:0:
64,192,60866,1,0,0:0:0:0:
192,192,60951,1,0,0:0:0:0:
320,192,61036,1,0,0:0:0:0:
448,192,61207,1,0,0:0:0:0:
192,192,61207,1,0,0:0:0:0:
64,192,61292,1,0,0:0:0:0:
192,192,61377,1,0,0:0:0:0:
320,192,61462,1,0,0:0:0:0:
448,192,61548,1,2,0:0:0:0:
64,192,61548,1,2,0:0:0:0:
192,192,61548,1,0,0:0:0:0:
448,192,61888,1,0,0:0:0:0:
448,192,62229,1,0,0:0:0:0:
320,192,62570,1,2,0:0:0:0:
192,192,62570,1,2,0:0:0:0:
64,192,62570,1,0,0:0:0:0:
448,192,62911,1,0,0:0:0:0:
320,192,62911,1,2,0:0:0:0:
192,192,62911,1,2,0:0:0:0:
64,192,63252,1,0,0:0:0:0:
64,192,63593,1,0,0:0:0:0:
448,192,63934,1,0,0:0:0:0:
320,192,63934,1,2,0:0:0:0:
192,192,63934,1,2,0:0:0:0:
320,192,64275,1,2,0:0:0:0:
192,192,64275,1,2,0:0:0:0:
64,192,64275,1,0,0:0:0:0:
448,192,64616,1,0,0:0:0:0:
320,192,64616,1,2,0:0:0:0:
192,192,64616,1,2,0:0:0:0:
320,192,64957,1,2,0:0:0:0:
192,192,64957,1,2,0:0:0:0:
64,192,64957,1,0,0:0:0:0:
448,192,65298,1,0,0:0:0:0:
320,192,65298,1,2,0:0:0:0:
192,192,65298,1,2,0:0:0:0:
320,192,65638,1,2,0:0:0:0:
192,192,65638,1,2,0:0:0:0:
64,192,65638,1,0,0:0:0:0:
448,192,65809,1,2,0:0:0:0:
320,192,65809,1,2,0:0:0:0:
192,192,65979,1,2,0:0:0:0:
64,192,65979,1,2,0:0:0:0:
320,192,66150,1,2,0:0:0:0:
448,192,66150,1,2,0:0:0:0:
192,192,66320,1,2,0:0:0:0:
64,192,66320,1,2,0:0:0:0:
448,192,66491,1,2,0:0:0:0:
320,192,66491,1,2,0:0:0:0:
192,192,66661,1,2,0:0:0:0:
64,192,66661,1,2,0:0:0:0:
320,192,66832,1,2,0:0:0:0:
448,192,66832,1,2,0:0:0:0:
64,192,67002,128,0,67684:0:0:0:0:
192,192,67002,128,0,67343:0:0:0:0:
320,192,67002,1,2,0:0:0:0:
448,192,67002,1,2,0:0:0:0:
320,192,67343,128,0,67513:0:0:0:0:
448,192,67684,128,0,68025:0:0:0:0:
192,192,68025,128,0,68195:0:0:0:0:
192,192,68366,1,0,0:0:0:0:
192,192,68536,1,0,0:0:0:0:
320,192,68707,1,0,0:0:0:0:
64,192,68877,1,0,0:0:0:0:
192,192,69048,128,0,69388:0:0:0:0:
320,192,69388,1,2,0:0:0:0:
64,192,69388,1,2,0:0:0:0:
64,192,69729,128,0,70411:0:0:0:0:
448,192,69729,1,2,0:0:0:0:
320,192,69729,128,2,70070:0:0:0:0:
192,192,70070,1,0,0:0:0:0:
320,192,70241,1,0,0:0:0:0:
448,192,70411,128,0,70752:0:0:0:0:
192,192,70752,1,0,0:0:0:0:
320,192,71093,1,0,0:0:0:0:
320,192,71263,1,0,0:0:0:0:
448,192,71434,1,0,0:0:0:0:
192,192,71604,1,0,0:0:0:0:
448,192,71775,128,0,72116:0:0:0:0:
192,192,72116,1,2,0:0:0:0:
64,192,72116,1,2,0:0:0:0:
64,192,72457,128,0,73138:0:0:0:0:
320,192,72457,128,2,72798:0:0:0:0:
448,192,72457,1,2,0:0:0:0:
448,192,72798,128,0,72968:0:0:0:0:
320,192,73138,128,0,73479:0:0:0:0:
192,192,73479,128,0,73650:0:0:0:0:
192,192,73820,1,0,0:0:0:0:
192,192,73991,1,0,0:0:0:0:
320,192,74161,1,0,0:0:0:0:
64,192,74332,1,0,0:0:0:0:
192,192,74502,128,0,74843:0:0:0:0:
448,192,74843,1,2,0:0:0:0:
320,192,74843,1,2,0:0:0:0:
64,192,75184,128,0,75866:0:0:0:0:
320,192,75184,128,2,75525:0:0:0:0:
192,192,75184,1,2,0:0:0:0:
448,192,75525,1,0,0:0:0:0:
192,192,75695,1,0,0:0:0:0:
448,192,75866,128,0,76207:0:0:0:0:
320,192,76207,1,0,0:0:0:0:
448,192,76548,1,0,0:0:0:0:
448,192,76718,1,0,0:0:0:0:
192,192,76888,1,0,0:0:0:0:
320,192,77059,1,0,0:0:0:0:
448,192,77229,128,0,77570:0:0:0:0:
192,192,77570,1,2,0:0:0:0:
64,192,77570,1,2,0:0:0:0:
64,192,77911,128,2,78593:0:0:0:0:
320,192,77911,128,0,78252:0:0:0:0:
192,192,77911,1,2,0:0:0:0:
448,192,78252,128,0,78423:0:0:0:0:
320,192,78593,128,0,78934:0:0:0:0:
192,192,78934,128,0,79104:0:0:0:0:
192,192,79275,1,0,0:0:0:0:
192,192,79445,1,0,0:0:0:0:
448,192,79616,1,0,0:0:0:0:
64,192,79786,1,0,0:0:0:0:
192,192,79957,128,0,80298:0:0:0:0:
320,192,80298,1,2,0:0:0:0:
64,192,80298,1,2,0:0:0:0:
64,192,80638,128,0,81320:0:0:0:0:
320,192,80638,128,2,80979:0:0:0:0:
448,192,80638,1,2,0:0:0:0:
448,192,80979,1,0,0:0:0:0:
192,192,81150,1,0,0:0:0:0:
448,192,81320,128,0,81661:0:0:0:0:
64,192,81661,1,0,0:0:0:0:
192,192,82002,128,0,82343:0:0:0:0:
320,192,82002,1,0,0:0:0:0:
320,192,82173,1,0,0:0:0:0:
64,192,82343,128,0,82684:0:0:0:0:
448,192,82343,1,0,0:0:0:0:
320,192,82513,1,0,0:0:0:0:
448,192,82684,128,0,83025:0:0:0:0:
192,192,82684,128,0,83025:0:0:0:0:
320,192,83025,1,2,0:0:0:0:
64,192,83025,128,0,83366:0:0:0:0:
192,192,83366,1,0,0:0:0:0:
320,192,83366,1,2,0:0:0:0:
448,192,83366,1,2,0:0:0:0:
448,192,83536,1,0,0:0:0:0:
448,192,83707,1,0,0:0:0:0:
448,192,83877,1,0,0:0:0:0:
320,192,84048,1,0,0:0:0:0:
64,192,84048,1,0,0:0:0:0:
64,192,84218,1,0,0:0:0:0:
64,192,84388,1,0,0:0:0:0:
64,192,84559,1,0,0:0:0:0:
192,192,84729,1,0,0:0:0:0:
448,192,84729,1,0,0:0:0:0:
448,192,84900,1,0,0:0:0:0:
448,192,85070,1,0,0:0:0:0:
448,192,85241,1,0,0:0:0:0:
64,192,85411,1,0,0:0:0:0:
320,192,85411,1,0,0:0:0:0:
64,192,85582,1,0,0:0:0:0:
64,192,85752,1,0,0:0:0:0:
64,192,85923,1,0,0:0:0:0:
448,192,86093,1,0,0:0:0:0:
192,192,86093,1,0,0:0:0:0:
448,192,86263,1,0,0:0:0:0:
448,192,86434,1,0,0:0:0:0:
320,192,86434,1,0,0:0:0:0:
192,192,86434,1,0,0:0:0:0:
64,192,86604,1,0,0:0:0:0:
192,192,86604,1,0,0:0:0:0:
448,192,86775,1,0,0:0:0:0:
448,192,86945,1,0,0:0:0:0:
320,192,87116,1,0,0:0:0:0:
192,192,87116,1,0,0:0:0:0:
64,192,87116,1,0,0:0:0:0:
320,192,87286,1,0,0:0:0:0:
448,192,87286,1,0,0:0:0:0:
64,192,87457,1,0,0:0:0:0:
64,192,87627,1,0,0:0:0:0:
448,192,87798,1,0,0:0:0:0:
320,192,87798,1,0,0:0:0:0:
192,192,87798,1,0,0:0:0:0:
64,192,87968,1,0,0:0:0:0:
320,192,87968,1,0,0:0:0:0:
448,192,88138,1,0,0:0:0:0:
448,192,88309,1,0,0:0:0:0:
320,192,88479,1,0,0:0:0:0:
192,192,88479,1,0,0:0:0:0:
64,192,88479,1,0,0:0:0:0:
64,192,88650,1,0,0:0:0:0:
448,192,88650,1,0,0:0:0:0:
192,192,88707,1,0,0:0:0:0:
320,192,88763,1,0,0:0:0:0:
448,192,88820,128,0,89161:0:0:0:0:
64,192,88820,1,2,0:0:0:0:
192,192,88820,1,4,0:0:0:0:
320,192,88991,1,0,0:0:0:0:
320,192,89161,128,0,89332:0:0:0:0:
192,192,89161,1,8,0:0:0:0:
64,192,89161,1,8,0:0:0:0:
192,192,89332,1,0,0:0:0:0:
64,192,89502,128,0,89843:0:0:0:0:
320,192,89502,1,0,0:0:0:0:
448,192,89673,1,2,0:0:0:0:
192,192,89673,1,2,0:0:0:0:
192,192,89843,128,0,90013:0:0:0:0:
448,192,89843,1,8,0:0:0:0:
320,192,89843,1,8,0:0:0:0:
192,192,90184,1,2,0:0:0:0:
448,192,90184,1,2,0:0:0:0:
192,192,90354,1,0,0:0:0:0:
320,192,90525,1,8,0:0:0:0:
64,192,90525,1,8,0:0:0:0:
448,192,90525,128,0,90695:0:0:0:0:
192,192,90695,128,0,90866:0:0:0:0:
64,192,90695,1,0,0:0:0:0:
320,192,90866,128,0,91207:0:0:0:0:
448,192,90866,1,0,0:0:0:0:
192,192,91036,1,2,0:0:0:0:
64,192,91036,1,2,0:0:0:0:
192,192,91207,128,8,91548:0:0:0:0:
64,192,91207,128,8,91548:0:0:0:0:
448,192,91207,1,0,0:0:0:0:
320,192,91548,128,0,91888:0:0:0:0:
448,192,91548,128,0,92911:0:0:0:0:
192,192,91888,1,8,0:0:0:0:
64,192,91888,1,8,0:0:0:0:
320,192,92059,1,0,0:0:0:0:
64,192,92229,128,0,92570:0:0:0:0:
192,192,92400,1,2,0:0:0:0:
192,192,92570,1,8,0:0:0:0:
320,192,92570,1,8,0:0:0:0:
320,192,92911,1,2,0:0:0:0:
64,192,92911,128,0,94275:0:0:0:0:
192,192,92911,1,2,0:0:0:0:
320,192,93082,1,0,0:0:0:0:
192,192,93252,1,8,0:0:0:0:
448,192,93252,1,8,0:0:0:0:
320,192,93423,1,0,0:0:0:0:
192,192,93593,128,0,93934:0:0:0:0:
320,192,93763,1,2,0:0:0:0:
448,192,93763,1,2,0:0:0:0:
320,192,93934,128,8,94275:0:0:0:0:
448,192,93934,128,8,94275:0:0:0:0:
192,192,94275,128,2,94616:0:0:0:0:
64,192,94445,1,0,0:0:0:0:
64,192,94616,128,0,94786:0:0:0:0:
448,192,94616,1,8,0:0:0:0:
320,192,94616,1,8,0:0:0:0:
192,192,94786,1,0,0:0:0:0:
320,192,94957,128,0,95298:0:0:0:0:
448,192,94957,1,0,0:0:0:0:
192,192,95127,1,2,0:0:0:0:
64,192,95127,1,2,0:0:0:0:
192,192,95298,128,0,95468:0:0:0:0:
448,192,95298,1,8,0:0:0:0:
64,192,95298,1,8,0:0:0:0:
64,192,95638,1,2,0:0:0:0:
320,192,95638,1,2,0:0:0:0:
64,192,95809,1,0,0:0:0:0:
192,192,95979,128,0,96150:0:0:0:0:
448,192,95979,1,8,0:0:0:0:
320,192,95979,1,8,0:0:0:0:
64,192,96150,128,0,96320:0:0:0:0:
320,192,96150,1,0,0:0:0:0:
320,192,96320,128,0,96661:0:0:0:0:
192,192,96320,1,0,0:0:0:0:
192,192,96491,1,2,0:0:0:0:
448,192,96491,1,2,0:0:0:0:
448,192,96661,128,8,97002:0:0:0:0:
192,192,96661,128,8,97002:0:0:0:0:
64,192,96661,1,0,0:0:0:0:
64,192,97002,128,0,97343:0:0:0:0:
320,192,97002,1,2,0:0:0:0:
192,192,97173,1,0,0:0:0:0:
448,192,97343,1,8,0:0:0:0:
320,192,97343,1,8,0:0:0:0:
64,192,97513,1,0,0:0:0:0:
192,192,97684,128,0,98025:0:0:0:0:
320,192,97854,1,8,0:0:0:0:
64,192,97854,1,2,0:0:0:0:
64,192,98025,1,8,0:0:0:0:
448,192,98025,1,8,0:0:0:0:
448,192,98366,128,2,98451:0:0:0:0:
64,192,98366,128,2,98451:0:0:0:0:
448,192,98536,128,0,98621:0:0:0:0:
64,192,98536,128,0,98621:0:0:0:0:
320,192,98707,128,8,98792:0:0:0:0:
192,192,98707,128,8,98792:0:0:0:0:
448,192,98707,1,0,0:0:0:0:
320,192,98877,128,0,99133:0:0:0:0:
192,192,98877,128,0,99133:0:0:0:0:
320,192,99218,128,2,99303:0:0:0:0:
192,192,99218,128,2,99303:0:0:0:0:
192,192,99388,128,8,99644:0:0:0:0:
320,192,99388,128,8,99644:0:0:0:0:
64,192,99388,1,0,0:0:0:0:
448,192,99729,1,2,0:0:0:0:
320,192,99729,1,2,0:0:0:0:
64,192,99729,128,0,100070:0:0:0:0:
192,192,99900,1,0,0:0:0:0:
448,192,100070,1,8,0:0:0:0:
192,192,100070,1,8,0:0:0:0:
320,192,100070,128,0,100241:0:0:0:0:
64,192,100241,1,0,0:0:0:0:
192,192,100411,128,0,100752:0:0:0:0:
320,192,100411,1,0,0:0:0:0:
64,192,100582,1,2,0:0:0:0:
448,192,100582,1,2,0:0:0:0:
448,192,100752,128,0,100923:0:0:0:0:
320,192,100752,1,8,0:0:0:0:
64,192,100752,1,8,0:0:0:0:
320,192,101093,1,2,0:0:0:0:
448,192,101093,1,2,0:0:0:0:
448,192,101263,1,0,0:0:0:0:
320,192,101434,128,0,101604:0:0:0:0:
192,192,101434,1,8,0:0:0:0:
64,192,101434,1,8,0:0:0:0:
64,192,101604,128,0,101775:0:0:0:0:
192,192,101604,1,0,0:0:0:0:
192,192,101775,128,0,102116:0:0:0:0:
320,192,101775,1,0,0:0:0:0:
64,192,101945,1,2,0:0:0:0:
320,192,101945,1,2,0:0:0:0:
64,192,102116,128,8,102457:0:0:0:0:
320,192,102116,128,8,102457:0:0:0:0:
448,192,102116,1,0,0:0:0:0:
192,192,102457,128,2,102798:0:0:0:0:
448,192,102457,128,2,103820:0:0:0:0:
64,192,102798,1,8,0:0:0:0:
320,192,102798,1,8,0:0:0:0:
192,192,102968,1,0,0:0:0:0:
320,192,103138,128,0,103479:0:0:0:0:
64,192,103309,1,2,0:0:0:0:
192,192,103479,1,8,0:0:0:0:
64,192,103479,1,8,0:0:0:0:
320,192,103820,1,2,0:0:0:0:
64,192,103820,128,0,105184:0:0:0:0:
192,192,103820,1,2,0:0:0:0:
320,192,103991,1,0,0:0:0:0:
448,192,104161,1,8,0:0:0:0:
192,192,104161,1,8,0:0:0:0:
448,192,104332,1,0,0:0:0:0:
320,192,104502,128,0,104843:0:0:0:0:
192,192,104673,1,2,0:0:0:0:
448,192,104673,1,2,0:0:0:0:
448,192,104843,128,8,105184:0:0:0:0:
192,192,104843,128,8,105184:0:0:0:0:
320,192,105184,128,2,105525:0:0:0:0:
448,192,105354,1,0,0:0:0:0:
448,192,105525,128,0,105866:0:0:0:0:
192,192,105525,1,8,0:0:0:0:
64,192,105525,1,8,0:0:0:0:
320,192,105695,1,0,0:0:0:0:
192,192,105866,128,0,106207:0:0:0:0:
64,192,105866,1,0,0:0:0:0:
320,192,106036,1,2,0:0:0:0:
64,192,106036,1,2,0:0:0:0:
320,192,106207,128,0,106548:0:0:0:0:
64,192,106207,1,8,0:0:0:0:
448,192,106207,1,8,0:0:0:0:
64,192,106548,128,0,106888:0:0:0:0:
192,192,106548,1,2,0:0:0:0:
448,192,106548,1,2,0:0:0:0:
192,192,106718,1,0,0:0:0:0:
192,192,106888,128,0,107229:0:0:0:0:
320,192,106888,1,8,0:0:0:0:
448,192,106888,1,8,0:0:0:0:
320,192,107059,1,0,0:0:0:0:
448,192,107229,128,0,107570:0:0:0:0:
64,192,107229,1,0,0:0:0:0:
320,192,107400,1,2,0:0:0:0:
192,192,107400,1,2,0:0:0:0:
320,192,107570,128,0,107911:0:0:0:0:
192,192,107570,1,8,0:0:0:0:
64,192,107570,1,8,0:0:0:0:
448,192,107741,1,0,0:0:0:0:
192,192,107911,128,0,108252:0:0:0:0:
64,192,107911,1,2,0:0:0:0:
448,192,107911,1,2,0:0:0:0:
64,192,108082,1,0,0:0:0:0:
64,192,108252,128,0,108508:0:0:0:0:
320,192,108252,1,8,0:0:0:0:
448,192,108252,1,8,0:0:0:0:
192,192,108423,1,0,0:0:0:0:
64,192,108593,128,0,108849:0:0:0:0:
320,192,108593,1,0,0:0:0:0:
448,192,108763,1,2,0:0:0:0:
192,192,108763,1,2,0:0:0:0:
64,192,108934,128,0,109190:0:0:0:0:
320,192,108934,1,8,0:0:0:0:
448,192,108934,1,8,0:0:0:0:
192,192,109275,1,2,0:0:0:0:
320,192,109275,1,0,0:0:0:0:
448,192,109360,1,0,0:0:0:0:
64,192,109360,1,2,0:0:0:0:
320,192,109616,1,2,0:0:0:0:
192,192,109616,1,0,0:0:0:0:
64,192,109701,1,0,0:0:0:0:
448,192,109701,1,2,0:0:0:0:
448,192,109957,1,0,0:0:0:0:
64,192,109957,1,2,0:0:0:0:
192,192,110042,1,2,0:0:0:0:
320,192,110042,1,0,0:0:0:0:
64,192,110127,1,2,0:0:0:0:
448,192,110127,1,0,0:0:0:0:
448,192,110298,1,0,0:0:0:0:
320,192,110298,1,8,0:0:0:0:
192,192,110298,1,8,0:0:0:0:
320,192,110638,1,2,0:0:0:0:
192,192,110638,1,0,0:0:0:0:
64,192,110638,128,0,113366:0:0:0:0:
448,192,110638,1,2,0:0:0:0:
448,192,110979,1,8,0:0:0:0:
320,192,110979,1,8,0:0:0:0:
192,192,111491,1,2,0:0:0:0:
448,192,111491,1,2,0:0:0:0:
448,192,111661,1,8,0:0:0:0:
320,192,111661,1,8,0:0:0:0:
192,192,112002,128,2,113366:0:0:0:0:
320,192,112002,1,2,0:0:0:0:
448,192,112343,1,8,0:0:0:0:
320,192,112343,1,8,0:0:0:0:
448,192,112854,1,2,0:0:0:0:
320,192,113025,128,8,113366:0:0:0:0:
448,192,113025,1,8,0:0:0:0:
448,192,113366,128,0,116093:0:0:0:0:
192,192,113707,1,8,0:0:0:0:
64,192,113707,1,8,0:0:0:0:
320,192,114218,1,2,0:0:0:0:
64,192,114218,1,2,0:0:0:0:
192,192,114388,1,8,0:0:0:0:
64,192,114388,1,8,0:0:0:0:
64,192,114729,128,2,115411:0:0:0:0:
192,192,114729,1,2,0:0:0:0:
320,192,115070,1,8,0:0:0:0:
192,192,115070,128,8,115411:0:0:0:0:
320,192,115411,128,0,115752:0:0:0:0:
192,192,115582,1,2,0:0:0:0:
192,192,115752,128,8,116093:0:0:0:0:
64,192,115752,1,8,0:0:0:0:
64,192,116093,128,2,117457:0:0:0:0:
320,192,116093,1,2,0:0:0:0:
448,192,116434,1,8,0:0:0:0:
192,192,116434,1,8,0:0:0:0:
320,192,116945,1,2,0:0:0:0:
448,192,116945,1,2,0:0:0:0:
448,192,117116,1,8,0:0:0:0:
192,192,117116,1,8,0:0:0:0:
320,192,117286,128,0,117457:0:0:0:0:
448,192,117457,128,2,118820:0:0:0:0:
192,192,117457,1,2,0:0:0:0:
320,192,117798,1,8,0:0:0:0:
64,192,117798,1,8,0:0:0:0:
192,192,118309,1,2,0:0:0:0:
64,192,118309,1,2,0:0:0:0:
64,192,118479,1,8,0:0:0:0:
320,192,118479,1,8,0:0:0:0:
192,192,118479,128,0,118820:0:0:0:0:
64,192,118820,128,2,120184:0:0:0:0:
320,192,118820,1,2,0:0:0:0:
448,192,119161,1,8,0:0:0:0:
192,192,119161,1,8,0:0:0:0:
320,192,119673,1,2,0:0:0:0:
448,192,119673,1,2,0:0:0:0:
192,192,119843,1,0,0:0:0:0:
320,192,119843,128,8,119928:0:0:0:0:
448,192,119843,128,8,119928:0:0:0:0:
320,192,120013,128,0,120099:0:0:0:0:
448,192,120013,128,0,120099:0:0:0:0:
448,192,120184,1,2,0:0:0:0:
192,192,120184,1,2,0:0:0:0:
448,192,120354,128,2,120525:0:0:0:0:
320,192,120354,1,2,0:0:0:0:
192,192,120440,1,0,0:0:0:0:
320,192,120525,1,8,0:0:0:0:
64,192,120525,1,8,0:0:0:0:
448,192,120695,128,0,120866:0:0:0:0:
320,192,120695,1,0,0:0:0:0:
192,192,120780,1,0,0:0:0:0:
64,192,120866,128,2,121036:0:0:0:0:
320,192,120866,1,2,0:0:0:0:
192,192,121036,128,8,121207:0:0:0:0:
320,192,121036,1,8,0:0:0:0:
448,192,121207,128,0,121377:0:0:0:0:
64,192,121207,1,2,0:0:0:0:
320,192,121207,1,2,0:0:0:0:
320,192,121377,128,0,121548:0:0:0:0:
448,192,121548,128,0,122911:0:0:0:0:
192,192,121548,1,2,0:0:0:0:
64,192,121548,1,2,0:0:0:0:
320,192,121888,1,8,0:0:0:0:
64,192,121888,1,8,0:0:0:0:
192,192,122400,1,2,0:0:0:0:
64,192,122400,1,2,0:0:0:0:
64,192,122570,1,8,0:0:0:0:
320,192,122570,1,8,0:0:0:0:
320,192,122741,128,0,122911:0:0:0:0:
192,192,122911,128,2,124275:0:0:0:0:
64,192,122911,1,2,0:0:0:0:
448,192,123252,1,8,0:0:0:0:
64,192,123252,1,8,0:0:0:0:
320,192,123593,128,0,124275:0:0:0:0:
448,192,123763,1,2,0:0:0:0:
448,192,123934,128,8,124275:0:0:0:0:
64,192,123934,1,8,0:0:0:0:
64,192,124275,128,2,125638:0:0:0:0:
448,192,124616,1,8,0:0:0:0:
192,192,124616,1,8,0:0:0:0:
448,192,125127,1,2,0:0:0:0:
320,192,125127,1,2,0:0:0:0:
192,192,125298,1,8,0:0:0:0:
448,192,125298,1,8,0:0:0:0:
192,192,125468,128,0,125638:0:0:0:0:
320,192,125638,1,2,0:0:0:0:
448,192,125638,128,2,127002:0:0:0:0:
192,192,125979,1,8,0:0:0:0:
64,192,125979,1,8,0:0:0:0:
320,192,126491,1,2,0:0:0:0:
64,192,126491,1,2,0:0:0:0:
64,192,126661,128,0,127002:0:0:0:0:
192,192,126661,1,8,0:0:0:0:
320,192,126661,1,8,0:0:0:0:
192,192,127002,1,2,0:0:0:0:
320,192,127002,1,2,0:0:0:0:
448,192,127343,1,8,0:0:0:0:
64,192,127343,1,8,0:0:0:0:
320,192,127854,1,2,0:0:0:0:
192,192,127854,1,2,0:0:0:0:
64,192,128025,1,8,0:0:0:0:
448,192,128025,1,8,0:0:0:0:
448,192,128366,1,0,0:0:0:0:
192,192,128366,1,2,0:0:0:0:
320,192,128366,1,2,0:0:0:0:
192,192,128707,1,8,0:0:0:0:
64,192,128707,1,8,0:0:0:0:
320,192,129048,128,0,129388:0:0:0:0:
448,192,129388,1,8,0:0:0:0:
192,192,129388,1,8,0:0:0:0:
448,192,129729,1,0,0:0:0:0:
320,192,129729,1,2,0:0:0:0:
192,192,129729,1,2,0:0:0:0:
320,192,130070,1,8,0:0:0:0:
192,192,130070,1,8,0:0:0:0:
64,192,130070,1,0,0:0:0:0:
448,192,130411,1,0,0:0:0:0:
320,192,130411,1,0,0:0:0:0:
192,192,130582,1,2,0:0:0:0:
448,192,130582,1,2,0:0:0:0:
448,192,130752,1,0,0:0:0:0:
320,192,130752,1,8,0:0:0:0:
64,192,130752,1,8,0:0:0:0:
192,192,131093,1,2,0:0:0:0:
64,192,131093,1,0,0:0:0:0:
448,192,131093,1,2,0:0:0:0:
448,192,131434,1,0,0:0:0:0:
320,192,131434,1,8,0:0:0:0:
192,192,131434,1,8,0:0:0:0:
64,192,131775,1,0,0:0:0:0:
448,192,131775,1,0,0:0:0:0:
64,192,131945,1,2,0:0:0:0:
320,192,131945,1,2,0:0:0:0:
64,192,132116,1,0,0:0:0:0:
192,192,132116,1,8,0:0:0:0:
448,192,132116,1,8,0:0:0:0:
448,192,132457,128,0,132798:0:0:0:0:
192,192,132798,1,0,0:0:0:0:
320,192,132968,1,0,0:0:0:0:
64,192,133138,1,0,0:0:0:0:
192,192,133138,128,0,133479:0:0:0:0:
64,192,133309,1,0,0:0:0:0:
448,192,133479,1,0,0:0:0:0:
320,192,133479,1,0,0:0:0:0:
448,192,133820,1,2,0:0:0:0:
320,192,133820,1,0,0:0:0:0:
192,192,133820,1,0,0:0:0:0:
64,192,133820,1,2,0:0:0:0:
320,192,133991,1,0,0:0:0:0:
64,192,133991,1,0,0:0:0:0:
448,192,134161,1,8,0:0:0:0:
192,192,134161,1,8,0:0:0:0:
64,192,134161,1,0,0:0:0:0:
192,192,134332,1,0,0:0:0:0:
448,192,134332,1,0,0:0:0:0:
320,192,134502,128,0,134843:0:0:0:0:
64,192,134502,1,0,0:0:0:0:
192,192,134673,1,0,0:0:0:0:
448,192,134673,1,0,0:0:0:0:
64,192,134843,1,8,0:0:0:0:
192,192,134843,1,8,0:0:0:0:
448,192,135013,1,0,0:0:0:0:
448,192,135184,128,0,135525:0:0:0:0:
64,192,135184,1,2,0:0:0:0:
320,192,135184,1,2,0:0:0:0:
192,192,135354,1,0,0:0:0:0:
320,192,135525,1,8,0:0:0:0:
192,192,135525,1,8,0:0:0:0:
64,192,135695,1,0,0:0:0:0:
320,192,135695,1,0,0:0:0:0:
192,192,135866,128,0,136207:0:0:0:0:
448,192,135866,1,0,0:0:0:0:
320,192,136036,1,2,0:0:0:0:
64,192,136036,1,2,0:0:0:0:
64,192,136207,1,8,0:0:0:0:
448,192,136207,1,8,0:0:0:0:
320,192,136377,1,0,0:0:0:0:
448,192,136548,1,2,0:0:0:0:
64,192,136548,1,2,0:0:0:0:
448,192,136718,1,0,0:0:0:0:
64,192,136718,1,0,0:0:0:0:
448,192,136888,1,0,0:0:0:0:
320,192,136888,1,8,0:0:0:0:
192,192,136888,1,8,0:0:0:0:
320,192,137059,1,0,0:0:0:0:
64,192,137059,1,0,0:0:0:0:
192,192,137229,128,0,137570:0:0:0:0:
448,192,137229,1,0,0:0:0:0:
64,192,137400,1,2,0:0:0:0:
320,192,137400,1,2,0:0:0:0:
448,192,137570,1,8,0:0:0:0:
320,192,137570,1,8,0:0:0:0:
192,192,137741,1,0,0:0:0:0:
64,192,137911,1,2,0:0:0:0:
320,192,137911,1,2,0:0:0:0:
448,192,137911,128,0,138252:0:0:0:0:
320,192,138082,1,0,0:0:0:0:
192,192,138252,1,8,0:0:0:0:
64,192,138252,1,8,0:0:0:0:
192,192,138423,1,0,0:0:0:0:
320,192,138593,128,0,138934:0:0:0:0:
64,192,138593,1,0,0:0:0:0:
192,192,138763,1,2,0:0:0:0:
448,192,138763,1,2,0:0:0:0:
192,192,138934,1,8,0:0:0:0:
64,192,138934,1,8,0:0:0:0:
320,192,139104,1,0,0:0:0:0:
448,192,139275,1,2,0:0:0:0:
192,192,139275,1,2,0:0:0:0:
64,192,139275,1,0,0:0:0:0:
192,192,139445,1,0,0:0:0:0:
64,192,139445,1,0,0:0:0:0:
448,192,139616,1,0,0:0:0:0:
320,192,139616,1,8,0:0:0:0:
192,192,139616,1,8,0:0:0:0:
448,192,139786,1,0,0:0:0:0:
192,192,139786,1,0,0:0:0:0:
64,192,139957,128,0,140298:0:0:0:0:
320,192,139957,1,0,0:0:0:0:
192,192,140127,1,2,0:0:0:0:
448,192,140127,1,2,0:0:0:0:
448,192,140298,1,8,0:0:0:0:
320,192,140298,1,8,0:0:0:0:
192,192,140468,1,0,0:0:0:0:
320,192,140638,128,0,140979:0:0:0:0:
64,192,140638,1,2,0:0:0:0:
448,192,140638,1,2,0:0:0:0:
192,192,140809,1,0,0:0:0:0:
448,192,140979,1,8,0:0:0:0:
192,192,140979,1,8,0:0:0:0:
320,192,141150,1,0,0:0:0:0:
64,192,141150,1,0,0:0:0:0:
448,192,141320,128,0,141661:0:0:0:0:
192,192,141320,1,0,0:0:0:0:
320,192,141491,1,2,0:0:0:0:
64,192,141491,1,2,0:0:0:0:
192,192,141661,1,8,0:0:0:0:
64,192,141661,1,8,0:0:0:0:
320,192,141832,1,0,0:0:0:0:
448,192,142002,1,2,0:0:0:0:
192,192,142002,1,2,0:0:0:0:
64,192,142002,1,0,0:0:0:0:
448,192,142173,1,0,0:0:0:0:
192,192,142173,1,0,0:0:0:0:
448,192,142343,1,8,0:0:0:0:
320,192,142343,1,8,0:0:0:0:
64,192,142343,1,0,0:0:0:0:
192,192,142513,1,0,0:0:0:0:
64,192,142513,1,0,0:0:0:0:
320,192,142684,128,0,143025:0:0:0:0:
448,192,142684,1,0,0:0:0:0:
192,192,142854,1,2,0:0:0:0:
64,192,142854,1,2,0:0:0:0:
64,192,143025,1,8,0:0:0:0:
448,192,143025,1,8,0:0:0:0:
320,192,143195,1,0,0:0:0:0:
192,192,143366,128,0,143707:0:0:0:0:
448,192,143366,1,2,0:0:0:0:
64,192,143366,1,2,0:0:0:0:
320,192,143536,1,0,0:0:0:0:
320,192,143707,1,8,0:0:0:0:
64,192,143707,1,8,0:0:0:0:
192,192,143877,1,0,0:0:0:0:
448,192,144048,128,0,144388:0:0:0:0:
320,192,144048,1,0,0:0:0:0:
192,192,144218,1,2,0:0:0:0:
64,192,144218,1,2,0:0:0:0:
64,192,144388,1,8,0:0:0:0:
320,192,144388,1,8,0:0:0:0:
192,192,144559,1,0,0:0:0:0:
448,192,144729,1,0,0:0:0:0:
320,192,144729,1,2,0:0:0:0:
64,192,144729,1,2,0:0:0:0:
320,192,144900,1,0,0:0:0:0:
64,192,144900,1,0,0:0:0:0:
448,192,145070,1,8,0:0:0:0:
192,192,145070,1,8,0:0:0:0:
64,192,145070,1,0,0:0:0:0:
448,192,145241,1,0,0:0:0:0:
320,192,145241,1,0,0:0:0:0:
64,192,145411,128,0,145752:0:0:0:0:
192,192,145411,1,0,0:0:0:0:
320,192,145582,1,2,0:0:0:0:
448,192,145582,1,2,0:0:0:0:
320,192,145752,1,8,0:0:0:0:
192,192,145752,1,8,0:0:0:0:
448,192,145923,1,0,0:0:0:0:
192,192,146093,128,2,146434:0:0:0:0:
64,192,146093,1,2,0:0:0:0:
448,192,146263,1,0,0:0:0:0:
320,192,146434,1,8,0:0:0:0:
64,192,146434,1,8,0:0:0:0:
192,192,146604,1,0,0:0:0:0:
448,192,146604,1,0,0:0:0:0:
448,192,146775,128,0,147116:0:0:0:0:
320,192,146775,1,0,0:0:0:0:
192,192,146945,1,2,0:0:0:0:
64,192,146945,1,2,0:0:0:0:
320,192,147116,1,8,0:0:0:0:
64,192,147116,1,8,0:0:0:0:
192,192,147286,1,0,0:0:0:0:
448,192,147457,1,0,0:0:0:0:
320,192,147457,1,2,0:0:0:0:
64,192,147457,1,2,0:0:0:0:
64,192,147627,1,0,0:0:0:0:
448,192,147627,1,0,0:0:0:0:
320,192,147798,1,8,0:0:0:0:
192,192,147798,1,8,0:0:0:0:
64,192,147798,1,0,0:0:0:0:
192,192,147968,1,0,0:0:0:0:
448,192,147968,1,0,0:0:0:0:
64,192,148138,128,0,148479:0:0:0:0:
320,192,148138,1,0,0:0:0:0:
192,192,148309,1,2,0:0:0:0:
448,192,148309,1,2,0:0:0:0:
320,192,148479,1,8,0:0:0:0:
192,192,148479,1,8,0:0:0:0:
448,192,148650,1,0,0:0:0:0:
320,192,148820,128,0,149161:0:0:0:0:
192,192,148820,1,2,0:0:0:0:
64,192,148820,1,2,0:0:0:0:
448,192,148991,1,0,0:0:0:0:
64,192,149161,1,8,0:0:0:0:
448,192,149161,1,8,0:0:0:0:
192,192,149332,1,0,0:0:0:0:
64,192,149502,128,0,149843:0:0:0:0:
320,192,149502,1,0,0:0:0:0:
192,192,149673,1,2,0:0:0:0:
448,192,149673,1,2,0:0:0:0:
320,192,149843,1,8,0:0:0:0:
192,192,149843,1,8,0:0:0:0:
448,192,150013,1,0,0:0:0:0:
320,192,150184,128,0,150354:0:0:0:0:
64,192,150184,1,2,0:0:0:0:
192,192,150184,1,2,0:0:0:0:
448,192,150354,1,0,0:0:0:0:
64,192,150525,1,8,0:0:0:0:
448,192,150525,1,8,0:0:0:0:
320,192,150525,128,0,150695:0:0:0:0:
192,192,150695,1,0,0:0:0:0:
320,192,150866,128,0,151036:0:0:0:0:
64,192,150866,1,0,0:0:0:0:
448,192,151036,1,2,0:0:0:0:
192,192,151036,1,2,0:0:0:0:
448,192,151207,1,8,0:0:0:0:
64,192,151207,1,8,0:0:0:0:
320,192,151207,128,0,151377:0:0:0:0:
192,192,151377,1,0,0:0:0:0:
64,192,151548,1,2,0:0:0:0:
320,192,151548,1,2,0:0:0:0:
448,192,151548,128,0,151888:0:0:0:0:
192,192,151718,1,0,0:0:0:0:
320,192,151888,1,8,0:0:0:0:
192,192,151888,1,8,0:0:0:0:
64,192,152059,1,0,0:0:0:0:
320,192,152229,128,0,152570:0:0:0:0:
448,192,152229,1,0,0:0:0:0:
64,192,152400,1,2,0:0:0:0:
448,192,152400,1,2,0:0:0:0:
192,192,152570,1,8,0:0:0:0:
64,192,152570,1,8,0:0:0:0:
448,192,152741,1,0,0:0:0:0:
448,192,152911,1,2,0:0:0:0:
192,192,152911,1,2,0:0:0:0:
320,192,152911,1,0,0:0:0:0:
320,192,153082,1,0,0:0:0:0:
192,192,153082,1,0,0:0:0:0:
448,192,153252,1,0,0:0:0:0:
320,192,153252,1,8,0:0:0:0:
64,192,153252,1,8,0:0:0:0:
320,192,153423,1,0,0:0:0:0:
192,192,153423,1,0,0:0:0:0:
320,192,153593,1,0,0:0:0:0:
64,192,153593,1,0,0:0:0:0:
320,192,153763,1,2,0:0:0:0:
192,192,153763,1,2,0:0:0:0:
448,192,153763,1,0,0:0:0:0:
320,192,153934,1,8,0:0:0:0:
192,192,153934,1,8,0:0:0:0:
64,192,153934,1,0,0:0:0:0:
320,192,154104,1,0,0:0:0:0:
192,192,154104,1,0,0:0:0:0:
448,192,154275,128,0,154871:0:0:0:0:
64,192,154275,1,2,0:0:0:0:
192,192,154275,1,2,0:0:0:0:
64,192,154616,1,8,0:0:0:0:
320,192,154616,1,8,0:0:0:0:
64,192,154957,128,0,155553:0:0:0:0:
192,192,155127,1,2,0:0:0:0:
320,192,155127,1,2,0:0:0:0:
448,192,155298,1,8,0:0:0:0:
192,192,155298,1,8,0:0:0:0:
192,192,155638,128,0,156235:0:0:0:0:
320,192,155638,1,2,0:0:0:0:
448,192,155638,1,2,0:0:0:0:
448,192,155979,1,8,0:0:0:0:
64,192,155979,1,8,0:0:0:0:
448,192,156320,128,0,156576:0:0:0:0:
192,192,156491,1,2,0:0:0:0:
320,192,156491,1,2,0:0:0:0:
320,192,156661,1,8,0:0:0:0:
64,192,156661,1,8,0:0:0:0:
192,192,156661,128,0,156917:0:0:0:0:
320,192,157002,128,0,157599:0:0:0:0:
448,192,157002,1,0,0:0:0:0:
64,192,157002,1,2,0:0:0:0:
64,192,157343,1,8,0:0:0:0:
192,192,157343,1,8,0:0:0:0:
448,192,157684,128,0,157940:0:0:0:0:
320,192,157854,1,2,0:0:0:0:
64,192,157854,1,2,0:0:0:0:
64,192,158025,128,0,158280:0:0:0:0:
192,192,158025,1,8,0:0:0:0:
320,192,158025,1,8,0:0:0:0:
192,192,158366,128,0,158962:0:0:0:0:
448,192,158366,1,2,0:0:0:0:
320,192,158366,1,2,0:0:0:0:
448,192,158707,1,8,0:0:0:0:
64,192,158707,1,8,0:0:0:0:
64,192,159048,128,0,159303:0:0:0:0:
448,192,159218,1,2,0:0:0:0:
192,192,159218,1,2,0:0:0:0:
448,192,159388,128,0,159644:0:0:0:0:
320,192,159388,1,8,0:0:0:0:
192,192,159388,1,8,0:0:0:0:
64,192,159729,128,0,160326:0:0:0:0:
320,192,159729,1,2,0:0:0:0:
192,192,159729,1,2,0:0:0:0:
448,192,160070,1,8,0:0:0:0:
192,192,160070,1,8,0:0:0:0:
192,192,160411,1,0,0:0:0:0:
320,192,160411,1,0,0:0:0:0:
448,192,160411,128,0,161008:0:0:0:0:
192,192,160582,1,2,0:0:0:0:
64,192,160582,1,2,0:0:0:0:
320,192,160752,1,8,0:0:0:0:
64,192,160752,1,8,0:0:0:0:
320,192,161093,1,2,0:0:0:0:
64,192,161093,1,2,0:0:0:0:
192,192,161093,128,0,161690:0:0:0:0:
448,192,161434,1,8,0:0:0:0:
320,192,161434,1,8,0:0:0:0:
320,192,161775,128,0,162030:0:0:0:0:
192,192,161945,1,2,0:0:0:0:
448,192,161945,1,2,0:0:0:0:
192,192,162116,1,8,0:0:0:0:
64,192,162116,1,8,0:0:0:0:
448,192,162116,128,0,162371:0:0:0:0:
320,192,162457,128,0,163053:0:0:0:0:
192,192,162457,1,2,0:0:0:0:
64,192,162457,1,2,0:0:0:0:
448,192,162798,1,8,0:0:0:0:
192,192,162798,1,8,0:0:0:0:
320,192,163138,128,0,163735:0:0:0:0:
192,192,163309,1,2,0:0:0:0:
64,192,163309,1,2,0:0:0:0:
192,192,163479,1,8,0:0:0:0:
448,192,163479,1,8,0:0:0:0:
64,192,163820,1,2,0:0:0:0:
448,192,163820,1,2,0:0:0:0:
320,192,163991,128,0,164161:0:0:0:0:
192,192,164161,1,8,0:0:0:0:
64,192,164161,1,8,0:0:0:0:
448,192,164332,128,0,164417:0:0:0:0:
64,192,164502,128,0,164587:0:0:0:0:
448,192,164673,128,0,164758:0:0:0:0:
192,192,164673,1,2,0:0:0:0:
320,192,164673,1,2,0:0:0:0:
64,192,164843,128,0,164928:0:0:0:0:
448,192,164843,1,8,0:0:0:0:
320,192,164843,1,8,0:0:0:0:
192,192,165013,128,0,165099:0:0:0:0:
64,192,165184,128,0,165780:0:0:0:0:
320,192,165184,1,2,0:0:0:0:
448,192,165184,1,2,0:0:0:0:
448,192,165525,1,8,0:0:0:0:
192,192,165525,1,8,0:0:0:0:
192,192,165866,128,0,166121:0:0:0:0:
64,192,166036,1,2,0:0:0:0:
320,192,166036,1,2,0:0:0:0:
320,192,166207,128,0,166462:0:0:0:0:
192,192,166207,1,8,0:0:0:0:
448,192,166207,1,8,0:0:0:0:
448,192,166548,128,0,167144:0:0:0:0:
192,192,166548,1,2,0:0:0:0:
64,192,166548,1,2,0:0:0:0:
320,192,166888,1,8,0:0:0:0:
64,192,166888,1,8,0:0:0:0:
64,192,167229,128,0,167485:0:0:0:0:
192,192,167400,1,2,0:0:0:0:
320,192,167400,1,2,0:0:0:0:
192,192,167570,128,0,167826:0:0:0:0:
320,192,167570,1,8,0:0:0:0:
448,192,167570,1,8,0:0:0:0:
320,192,167911,128,0,168508:0:0:0:0:
64,192,167911,1,2,0:0:0:0:
448,192,167911,1,2,0:0:0:0:
64,192,168252,1,8,0:0:0:0:
192,192,168252,1,8,0:0:0:0:
64,192,168593,128,0,168849:0:0:0:0:
320,192,168763,1,2,0:0:0:0:
448,192,168763,1,2,0:0:0:0:
320,192,168934,128,0,169190:0:0:0:0:
448,192,168934,1,8,0:0:0:0:
192,192,168934,1,8,0:0:0:0:
448,192,169275,128,2,169871:0:0:0:0:
192,192,169616,1,8,0:0:0:0:
64,192,169616,1,8,0:0:0:0:
192,192,169957,128,0,170212:0:0:0:0:
64,192,170127,1,2,0:0:0:0:
320,192,170127,1,2,0:0:0:0:
320,192,170298,128,0,170553:0:0:0:0:
192,192,170298,1,8,0:0:0:0:
448,192,170298,1,8,0:0:0:0:
64,192,170638,128,0,171235:0:0:0:0:
448,192,170638,1,2,0:0:0:0:
192,192,170638,1,2,0:0:0:0:
192,192,170979,1,8,0:0:0:0:
320,192,170979,1,8,0:0:0:0:
192,192,171320,128,0,171576:0:0:0:0:
320,192,171491,1,2,0:0:0:0:
448,192,171491,1,2,0:0:0:0:
320,192,171661,128,0,171917:0:0:0:0:
64,192,171661,1,8,0:0:0:0:
448,192,171661,1,8,0:0:0:0:
448,192,172002,128,0,172599:0:0:0:0:
192,192,172002,1,2,0:0:0:0:
64,192,172002,1,2,0:0:0:0:
320,192,172343,1,8,0:0:0:0:
64,192,172343,1,8,0:0:0:0:
64,192,172684,128,0,172940:0:0:0:0:
192,192,172854,1,2,0:0:0:0:
448,192,172854,1,2,0:0:0:0:
448,192,173025,128,0,173280:0:0:0:0:
320,192,173025,1,8,0:0:0:0:
192,192,173025,1,8,0:0:0:0:
64,192,173366,128,2,173621:0:0:0:0:
448,192,173707,128,0,173962:0:0:0:0:
320,192,173707,1,8,0:0:0:0:
192,192,173707,1,8,0:0:0:0:
64,192,174048,128,0,174303:0:0:0:0:
192,192,174218,1,2,0:0:0:0:
448,192,174218,1,2,0:0:0:0:
192,192,174388,128,0,174644:0:0:0:0:
448,192,174388,1,8,0:0:0:0:
320,192,174388,1,8,0:0:0:0:
320,192,174729,128,0,175155:0:0:0:0:
448,192,174729,128,0,175155:0:0:0:0:
192,192,174729,1,2,0:0:0:0:
64,192,174729,1,2,0:0:0:0:
192,192,175241,1,2,0:0:0:0:
64,192,175241,1,2,0:0:0:0:
320,192,175241,128,0,175667:0:0:0:0:
448,192,175241,128,0,175667:0:0:0:0:
448,192,175752,128,4,176434:0:0:0:0:
320,192,175752,128,2,176263:0:0:0:0:
192,192,175752,128,6,176093:0:0:0:0:
320,192,177116,1,0,0:0:0:0:
64,192,177286,1,0,0:0:0:0:
448,192,177457,1,0,0:0:0:0:
320,192,177627,1,0,0:0:0:0:
192,192,177798,1,0,0:0:0:0:
448,192,178138,1,0,0:0:0:0:
320,192,178309,1,0,0:0:0:0:
192,192,178479,1,0,0:0:0:0:
448,192,178650,128,0,178820:0:0:0:0:
64,192,178820,1,0,0:0:0:0:
64,192,178991,1,0,0:0:0:0:
320,192,179161,1,0,0:0:0:0:
64,192,179502,1,0,0:0:0:0:
64,192,179673,1,0,0:0:0:0:
192,192,179843,1,0,0:0:0:0:
448,192,180013,1,0,0:0:0:0:
64,192,180184,1,0,0:0:0:0:
192,192,180354,1,0,0:0:0:0:
320,192,180525,1,0,0:0:0:0:
64,192,180866,1,0,0:0:0:0:
192,192,181036,1,0,0:0:0:0:
320,192,181207,1,0,0:0:0:0:
64,192,181377,128,0,181548:0:0:0:0:
448,192,181548,1,0,0:0:0:0:
448,192,181718,1,0,0:0:0:0:
192,192,181888,1,0,0:0:0:0:
448,192,182229,1,0,0:0:0:0:
448,192,182400,1,0,0:0:0:0:
64,192,182400,128,0,182911:0:0:0:0:
320,192,182570,1,0,0:0:0:0:
192,192,182741,1,0,0:0:0:0:
448,192,182911,1,0,0:0:0:0:
320,192,183082,1,0,0:0:0:0:
192,192,183252,1,0,0:0:0:0:
448,192,183593,1,0,0:0:0:0:
320,192,183763,1,0,0:0:0:0:
192,192,183934,1,0,0:0:0:0:
448,192,184104,128,0,184275:0:0:0:0:
64,192,184275,1,0,0:0:0:0:
64,192,184445,1,0,0:0:0:0:
320,192,184616,1,0,0:0:0:0:
64,192,184957,1,0,0:0:0:0:
64,192,185127,1,0,0:0:0:0:
192,192,185298,1,0,0:0:0:0:
448,192,185468,1,0,0:0:0:0:
64,192,185638,1,0,0:0:0:0:
192,192,185809,1,0,0:0:0:0:
320,192,185979,1,0,0:0:0:0:
64,192,186320,1,0,0:0:0:0:
192,192,186491,1,0,0:0:0:0:
320,192,186661,1,0,0:0:0:0:
64,192,186832,128,0,187002:0:0:0:0:
448,192,187002,1,0,0:0:0:0:
448,192,187173,1,0,0:0:0:0:
192,192,187343,1,0,0:0:0:0:
448,192,187684,1,0,0:0:0:0:
448,192,187854,1,0,0:0:0:0:
64,192,188025,1,0,0:0:0:0:
192,192,188195,1,0,0:0:0:0:
448,192,188366,1,0,0:0:0:0:
320,192,188536,1,0,0:0:0:0:
192,192,188707,1,0,0:0:0:0:
448,192,189048,1,0,0:0:0:0:
320,192,189218,1,0,0:0:0:0:
192,192,189388,1,0,0:0:0:0:
448,192,189559,128,0,189729:0:0:0:0:
64,192,189729,1,0,0:0:0:0:
64,192,189900,1,0,0:0:0:0:
320,192,190070,1,0,0:0:0:0:
64,192,190411,1,0,0:0:0:0:
64,192,190582,1,0,0:0:0:0:
448,192,190752,128,0,191093:0:0:0:0:
192,192,190752,1,0,0:0:0:0:
320,192,190923,1,0,0:0:0:0:
64,192,191093,1,0,0:0:0:0:
192,192,191263,1,0,0:0:0:0:
320,192,191434,1,0,0:0:0:0:
64,192,191775,1,0,0:0:0:0:
192,192,191945,1,0,0:0:0:0:
320,192,192116,1,0,0:0:0:0:
64,192,192286,128,0,192457:0:0:0:0:
448,192,192457,1,0,0:0:0:0:
448,192,192627,1,0,0:0:0:0:
192,192,192798,1,0,0:0:0:0:
448,192,193138,1,0,0:0:0:0:
448,192,193309,1,0,0:0:0:0:
64,192,193479,1,0,0:0:0:0:
192,192,193650,1,0,0:0:0:0:
448,192,193820,1,0,0:0:0:0:
320,192,193991,1,0,0:0:0:0:
192,192,194161,1,0,0:0:0:0:
448,192,194502,1,0,0:0:0:0:
320,192,194673,1,0,0:0:0:0:
192,192,194843,1,0,0:0:0:0:
448,192,195013,128,0,195184:0:0:0:0:
64,192,195184,1,0,0:0:0:0:
64,192,195354,1,0,0:0:0:0:
320,192,195525,1,0,0:0:0:0:
64,192,195866,1,0,0:0:0:0:
64,192,196036,5,0,0:0:0:0:
320,192,196207,1,0,0:0:0:0:
192,192,196377,1,0,0:0:0:0:
448,192,196548,1,0,0:0:0:0:
64,192,196718,1,0,0:0:0:0:
320,192,196888,1,0,0:0:0:0:
192,192,197229,128,0,197911:0:0:0:0:
448,192,197229,1,0,0:0:0:0:
64,192,197400,1,0,0:0:0:0:
320,192,197570,128,0,197911:0:0:0:0:
448,192,197911,1,0,0:0:0:0:
64,192,197911,1,2,0:0:0:0:
64,192,198082,1,0,0:0:0:0:
448,192,198082,1,2,0:0:0:0:
64,192,200638,1,0,0:0:0:0:
448,192,200638,1,2,0:0:0:0:
64,192,200809,1,0,0:0:0:0:
448,192,200809,1,2,0:0:0:0:
64,192,203366,1,2,0:0:0:0:
448,192,203366,1,0,0:0:0:0:
64,192,203536,1,2,0:0:0:0:
448,192,203536,1,0,0:0:0:0:
320,192,203877,128,0,204218:0:0:0:0:
192,192,204218,128,0,204559:0:0:0:0:
320,192,204559,1,0,0:0:0:0:
320,192,204729,1,0,0:0:0:0:
320,192,204900,1,0,0:0:0:0:
64,192,205070,1,0,0:0:0:0:
448,192,205241,1,0,0:0:0:0:
192,192,205411,128,0,205752:0:0:0:0:
320,192,205752,1,0,0:0:0:0:
192,192,205923,1,0,0:0:0:0:
448,192,206093,1,2,0:0:0:0:
64,192,206093,1,0,0:0:0:0:
64,192,206263,1,0,0:0:0:0:
448,192,206263,1,2,0:0:0:0:
320,192,206604,128,0,206860:0:0:0:0:
320,192,206945,128,0,207116:0:0:0:0:
192,192,207116,128,0,207286:0:0:0:0:
448,192,207286,128,0,207457:0:0:0:0:
64,192,207457,128,0,207684:0:0:0:0:
320,192,207684,128,0,207854:0:0:0:0:
192,192,207854,128,0,208138:0:0:0:0:
64,192,208138,128,0,208479:0:0:0:0:
448,192,208479,128,0,208820:0:0:0:0:
320,192,208820,1,4,0:0:0:0:
192,192,208820,1,0,0:0:0:0:
64,192,208820,1,2,0:0:0:0:
64,192,208991,1,2,0:0:0:0:
320,192,208991,1,4,0:0:0:0:
448,192,209502,1,0,0:0:0:0:
448,192,210866,1,0,0:0:0:0:
320,192,211548,1,0,0:0:0:0:
192,192,211548,1,2,0:0:0:0:
64,192,211548,1,0,0:0:0:0:
448,192,211548,1,4,0:0:0:0:
448,192,211718,1,4,0:0:0:0:
192,192,211718,1,2,0:0:0:0:
64,192,212229,1,0,0:0:0:0:
64,192,213593,1,0,0:0:0:0:
448,192,214275,1,0,0:0:0:0:
320,192,214275,1,4,0:0:0:0:
192,192,214275,1,0,0:0:0:0:
64,192,214275,1,2,0:0:0:0:
64,192,214445,1,2,0:0:0:0:
320,192,214445,1,4,0:0:0:0:
448,192,214616,1,0,0:0:0:0:
64,192,214701,1,0,0:0:0:0:
448,192,214786,1,0,0:0:0:0:
320,192,214786,1,0,0:0:0:0:
64,192,214871,1,0,0:0:0:0:
192,192,214957,1,0,0:0:0:0:
64,192,215042,1,0,0:0:0:0:
448,192,215127,1,0,0:0:0:0:
320,192,215127,1,0,0:0:0:0:
64,192,215212,1,0,0:0:0:0:
320,192,215298,1,0,0:0:0:0:
192,192,215383,1,0,0:0:0:0:
320,192,215468,1,0,0:0:0:0:
192,192,215553,1,0,0:0:0:0:
448,192,215638,1,0,0:0:0:0:
64,192,215638,1,0,0:0:0:0:
320,192,215724,1,0,0:0:0:0:
448,192,215809,1,0,0:0:0:0:
64,192,215809,1,0,0:0:0:0:
320,192,215894,1,0,0:0:0:0:
192,192,215979,1,0,0:0:0:0:
64,192,215979,1,0,0:0:0:0:
448,192,216065,1,0,0:0:0:0:
320,192,216150,1,0,0:0:0:0:
64,192,216150,1,0,0:0:0:0:
192,192,216235,1,0,0:0:0:0:
320,192,216320,1,0,0:0:0:0:
448,192,216320,1,0,0:0:0:0:
64,192,216405,1,0,0:0:0:0:
448,192,216491,1,0,0:0:0:0:
64,192,216576,1,0,0:0:0:0:
320,192,216661,1,0,0:0:0:0:
192,192,216661,1,0,0:0:0:0:
448,192,216746,1,0,0:0:0:0:
320,192,216832,1,0,0:0:0:0:
64,192,216832,1,0,0:0:0:0:
192,192,216917,1,0,0:0:0:0:
448,192,217002,1,0,0:0:0:0:
64,192,217002,1,4,0:0:0:0:
320,192,217002,1,2,0:0:0:0:
192,192,217173,1,0,0:0:0:0:
64,192,217173,1,8,0:0:0:0:
64,192,217258,1,8,0:0:0:0:
192,192,217258,1,0,0:0:0:0:
448,192,217343,1,0,0:0:0:0:
320,192,217343,1,2,0:0:0:0:
64,192,217513,1,8,0:0:0:0:
192,192,217513,1,0,0:0:0:0:
64,192,217599,1,8,0:0:0:0:
192,192,217599,1,0,0:0:0:0:
320,192,217684,1,2,0:0:0:0:
448,192,217684,1,0,0:0:0:0:
192,192,217854,1,0,0:0:0:0:
64,192,217854,1,8,0:0:0:0:
64,192,217940,1,8,0:0:0:0:
192,192,217940,1,0,0:0:0:0:
320,192,218025,1,2,0:0:0:0:
448,192,218025,1,0,0:0:0:0:
192,192,218195,1,0,0:0:0:0:
64,192,218195,1,8,0:0:0:0:
192,192,218280,1,0,0:0:0:0:
64,192,218280,1,8,0:0:0:0:
448,192,218366,1,0,0:0:0:0:
320,192,218366,1,2,0:0:0:0:
64,192,218451,1,2,0:0:0:0:
192,192,218451,1,0,0:0:0:0:
448,192,218536,1,8,0:0:0:0:
320,192,218621,1,8,0:0:0:0:
192,192,218707,1,8,0:0:0:0:
64,192,218792,1,8,0:0:0:0:
448,192,218877,1,0,0:0:0:0:
320,192,218877,1,8,0:0:0:0:
192,192,218962,1,8,0:0:0:0:
64,192,218962,1,0,0:0:0:0:
448,192,219048,1,8,0:0:0:0:
320,192,219133,1,8,0:0:0:0:
192,192,219218,1,8,0:0:0:0:
64,192,219303,1,8,0:0:0:0:
320,192,219388,128,2,219729:0:0:0:0:
448,192,219388,128,8,219729:0:0:0:0:
192,192,219729,1,6,0:0:0:0:
64,192,219729,1,6,0:0:0:0:
320,192,219900,1,0,0:0:0:0:
64,192,220070,1,8,0:0:0:0:
448,192,220070,1,0,0:0:0:0:
192,192,220070,1,8,0:0:0:0:
320,192,220241,1,0,0:0:0:0:
192,192,220411,1,0,0:0:0:0:
448,192,220411,1,0,0:0:0:0:
64,192,220582,1,2,0:0:0:0:
320,192,220582,1,2,0:0:0:0:
320,192,220752,1,8,0:0:0:0:
448,192,220752,1,8,0:0:0:0:
448,192,221093,1,0,0:0:0:0:
320,192,221093,1,2,0:0:0:0:
64,192,221093,1,2,0:0:0:0:
320,192,221263,1,0,0:0:0:0:
192,192,221263,1,0,0:0:0:0:
448,192,221434,1,8,0:0:0:0:
64,192,221434,1,0,0:0:0:0:
192,192,221434,1,8,0:0:0:0:
320,192,221604,1,0,0:0:0:0:
64,192,221604,1,0,0:0:0:0:
192,192,221775,1,8,0:0:0:0:
64,192,221775,1,0,0:0:0:0:
448,192,221860,1,8,0:0:0:0:
192,192,221945,1,2,0:0:0:0:
320,192,221945,1,2,0:0:0:0:
448,192,222116,1,0,0:0:0:0:
64,192,222116,1,8,0:0:0:0:
320,192,222116,1,8,0:0:0:0:
192,192,222286,1,0,0:0:0:0:
448,192,222286,1,0,0:0:0:0:
448,192,222457,1,0,0:0:0:0:
320,192,222457,1,2,0:0:0:0:
64,192,222457,1,2,0:0:0:0:
192,192,222627,1,0,0:0:0:0:
320,192,222798,1,8,0:0:0:0:
64,192,222798,1,0,0:0:0:0:
192,192,222798,1,8,0:0:0:0:
448,192,222968,1,0,0:0:0:0:
320,192,222968,1,0,0:0:0:0:
192,192,223138,1,0,0:0:0:0:
320,192,223309,1,2,0:0:0:0:
64,192,223309,1,2,0:0:0:0:
448,192,223479,1,8,0:0:0:0:
192,192,223479,1,8,0:0:0:0:
64,192,223479,1,0,0:0:0:0:
448,192,223820,1,0,0:0:0:0:
320,192,223820,1,2,0:0:0:0:
64,192,223820,1,2,0:0:0:0:
448,192,223991,1,0,0:0:0:0:
64,192,223991,1,0,0:0:0:0:
320,192,224161,1,8,0:0:0:0:
192,192,224161,1,8,0:0:0:0:
64,192,224161,1,0,0:0:0:0:
448,192,224332,1,0,0:0:0:0:
192,192,224332,1,0,0:0:0:0:
64,192,224502,1,8,0:0:0:0:
448,192,224502,1,0,0:0:0:0:
320,192,224502,1,0,0:0:0:0:
192,192,224587,1,8,0:0:0:0:
64,192,224673,1,2,0:0:0:0:
448,192,224673,1,2,0:0:0:0:
448,192,224843,1,0,0:0:0:0:
320,192,224843,1,8,0:0:0:0:
192,192,224843,1,8,0:0:0:0:
320,192,225013,1,0,0:0:0:0:
64,192,225013,1,0,0:0:0:0:
192,192,225184,1,6,0:0:0:0:
64,192,225184,1,4,0:0:0:0:
448,192,225184,1,2,0:0:0:0:
320,192,225354,1,0,0:0:0:0:
448,192,225525,1,0,0:0:0:0:
192,192,225525,1,0,0:0:0:0:
64,192,225525,1,0,0:0:0:0:
320,192,225695,1,0,0:0:0:0:
64,192,225695,1,0,0:0:0:0:
448,192,225866,1,0,0:0:0:0:
192,192,226036,1,2,0:0:0:0:
64,192,226036,1,2,0:0:0:0:
448,192,226207,1,0,0:0:0:0:
320,192,226207,1,8,0:0:0:0:
192,192,226207,1,8,0:0:0:0:
448,192,226548,1,0,0:0:0:0:
64,192,226548,1,2,0:0:0:0:
192,192,226548,1,2,0:0:0:0:
448,192,226718,1,0,0:0:0:0:
192,192,226718,1,0,0:0:0:0:
320,192,226888,1,8,0:0:0:0:
64,192,226888,1,0,0:0:0:0:
448,192,226888,1,8,0:0:0:0:
192,192,227059,1,0,0:0:0:0:
64,192,227059,1,0,0:0:0:0:
448,192,227229,1,0,0:0:0:0:
192,192,227229,1,8,0:0:0:0:
320,192,227229,1,0,0:0:0:0:
64,192,227315,1,8,0:0:0:0:
448,192,227400,1,2,0:0:0:0:
192,192,227400,1,2,0:0:0:0:
192,192,227570,1,0,0:0:0:0:
64,192,227570,1,8,0:0:0:0:
320,192,227570,1,8,0:0:0:0:
448,192,227741,1,0,0:0:0:0:
64,192,227741,1,0,0:0:0:0:
448,192,227911,1,0,0:0:0:0:
320,192,227911,1,2,0:0:0:0:
192,192,227911,1,2,0:0:0:0:
192,192,228082,1,0,0:0:0:0:
448,192,228252,1,0,0:0:0:0:
320,192,228252,1,8,0:0:0:0:
64,192,228252,1,8,0:0:0:0:
192,192,228423,1,0,0:0:0:0:
64,192,228423,1,0,0:0:0:0:
320,192,228593,1,0,0:0:0:0:
448,192,228763,1,2,0:0:0:0:
192,192,228763,1,2,0:0:0:0:
320,192,228934,1,8,0:0:0:0:
64,192,228934,1,8,0:0:0:0:
448,192,228934,1,0,0:0:0:0:
192,192,229275,1,2,0:0:0:0:
64,192,229275,1,0,0:0:0:0:
320,192,229275,1,2,0:0:0:0:
448,192,229445,1,0,0:0:0:0:
192,192,229445,1,0,0:0:0:0:
320,192,229616,1,8,0:0:0:0:
64,192,229616,1,8,0:0:0:0:
448,192,229616,1,0,0:0:0:0:
192,192,229786,1,0,0:0:0:0:
448,192,229957,1,0,0:0:0:0:
64,192,229957,1,0,0:0:0:0:
320,192,229957,1,8,0:0:0:0:
192,192,230042,1,8,0:0:0:0:
320,192,230127,1,2,0:0:0:0:
64,192,230127,1,2,0:0:0:0:
448,192,230298,1,8,0:0:0:0:
320,192,230298,1,0,0:0:0:0:
192,192,230298,1,8,0:0:0:0:
64,192,230638,128,0,230979:0:0:0:0:
192,192,230638,1,2,0:0:0:0:
320,192,230638,1,2,0:0:0:0:
320,192,230809,1,0,0:0:0:0:
448,192,230979,1,8,0:0:0:0:
192,192,230979,1,8,0:0:0:0:
320,192,231150,1,0,0:0:0:0:
64,192,231150,128,0,232002:0:0:0:0:
448,192,231320,1,0,0:0:0:0:
320,192,231491,1,2,0:0:0:0:
192,192,231491,1,2,0:0:0:0:
192,192,231661,1,8,0:0:0:0:
448,192,231661,1,8,0:0:0:0:
448,192,232002,128,0,232087:0:0:0:0:
320,192,232002,1,2,0:0:0:0:
192,192,232002,1,2,0:0:0:0:
320,192,232173,128,0,232258:0:0:0:0:
192,192,232173,1,0,0:0:0:0:
64,192,232343,128,0,232428:0:0:0:0:
448,192,232343,1,8,0:0:0:0:
192,192,232343,1,8,0:0:0:0:
192,192,232513,128,0,232599:0:0:0:0:
320,192,232513,1,0,0:0:0:0:
448,192,232684,128,0,232940:0:0:0:0:
64,192,232684,1,8,0:0:0:0:
192,192,232769,1,8,0:0:0:0:
320,192,232854,1,2,0:0:0:0:
64,192,232854,1,2,0:0:0:0:
320,192,233025,128,0,233110:0:0:0:0:
192,192,233025,1,8,0:0:0:0:
448,192,233025,1,8,0:0:0:0:
192,192,233195,128,0,233280:0:0:0:0:
320,192,233195,1,0,0:0:0:0:
64,192,233366,128,0,233707:0:0:0:0:
448,192,233366,1,2,0:0:0:0:
320,192,233366,1,2,0:0:0:0:
192,192,233536,1,0,0:0:0:0:
448,192,233707,1,8,0:0:0:0:
192,192,233707,1,8,0:0:0:0:
64,192,233877,128,0,234644:0:0:0:0:
320,192,233877,1,0,0:0:0:0:
192,192,234048,1,0,0:0:0:0:
448,192,234218,1,2,0:0:0:0:
320,192,234218,1,2,0:0:0:0:
448,192,234388,1,8,0:0:0:0:
192,192,234388,1,8,0:0:0:0:
448,192,234729,128,2,234815:0:0:0:0:
320,192,234729,1,2,0:0:0:0:
448,192,234900,128,0,234985:0:0:0:0:
320,192,234900,1,0,0:0:0:0:
64,192,235070,128,0,235155:0:0:0:0:
192,192,235070,1,8,0:0:0:0:
320,192,235070,1,8,0:0:0:0:
64,192,235241,128,0,235326:0:0:0:0:
192,192,235241,1,0,0:0:0:0:
448,192,235411,128,0,235667:0:0:0:0:
320,192,235411,1,0,0:0:0:0:
320,192,235582,1,2,0:0:0:0:
64,192,235582,1,2,0:0:0:0:
320,192,235752,128,0,235837:0:0:0:0:
64,192,235752,1,8,0:0:0:0:
192,192,235752,1,8,0:0:0:0:
192,192,235923,128,0,236008:0:0:0:0:
448,192,235923,1,0,0:0:0:0:
64,192,236093,128,0,236434:0:0:0:0:
448,192,236093,1,2,0:0:0:0:
320,192,236093,1,2,0:0:0:0:
320,192,236263,1,0,0:0:0:0:
448,192,236434,1,8,0:0:0:0:
192,192,236434,1,8,0:0:0:0:
64,192,236604,128,0,237457:0:0:0:0:
320,192,236604,1,0,0:0:0:0:
448,192,236775,1,0,0:0:0:0:
320,192,236945,1,2,0:0:0:0:
192,192,236945,1,2,0:0:0:0:
192,192,237116,1,8,0:0:0:0:
448,192,237116,1,8,0:0:0:0:
320,192,237457,128,0,237542:0:0:0:0:
448,192,237457,1,2,0:0:0:0:
192,192,237457,1,2,0:0:0:0:
448,192,237627,128,0,237712:0:0:0:0:
192,192,237627,1,0,0:0:0:0:
64,192,237798,128,0,237883:0:0:0:0:
320,192,237798,1,8,0:0:0:0:
192,192,237798,1,8,0:0:0:0:
192,192,237968,128,0,238053:0:0:0:0:
320,192,237968,1,0,0:0:0:0:
320,192,238138,128,0,238394:0:0:0:0:
448,192,238138,1,0,0:0:0:0:
192,192,238309,1,2,0:0:0:0:
64,192,238309,1,2,0:0:0:0:
192,192,238479,128,0,238565:0:0:0:0:
64,192,238479,1,8,0:0:0:0:
448,192,238479,1,8,0:0:0:0:
448,192,238650,128,0,238735:0:0:0:0:
320,192,238650,1,0,0:0:0:0:
64,192,238820,128,0,239161:0:0:0:0:
192,192,238820,1,2,0:0:0:0:
448,192,238820,1,2,0:0:0:0:
320,192,238991,1,0,0:0:0:0:
448,192,239161,1,8,0:0:0:0:
320,192,239161,1,8,0:0:0:0:
64,192,239332,128,0,240099:0:0:0:0:
192,192,239332,1,0,0:0:0:0:
448,192,239502,1,0,0:0:0:0:
320,192,239673,1,2,0:0:0:0:
192,192,239673,1,2,0:0:0:0:
448,192,239843,1,8,0:0:0:0:
320,192,239843,1,8,0:0:0:0:
320,192,240184,1,8,0:0:0:0:
192,192,240184,1,0,0:0:0:0:
64,192,240269,1,0,0:0:0:0:
448,192,240269,1,8,0:0:0:0:
320,192,240525,1,0,0:0:0:0:
192,192,240525,1,8,0:0:0:0:
64,192,240610,1,8,0:0:0:0:
448,192,240610,1,0,0:0:0:0:
448,192,240866,1,0,0:0:0:0:
192,192,240866,1,8,0:0:0:0:
320,192,240951,1,0,0:0:0:0:
64,192,240951,1,8,0:0:0:0:
192,192,241036,1,8,0:0:0:0:
448,192,241036,1,0,0:0:0:0:
320,192,241207,1,0,0:0:0:0:
64,192,241207,1,8,0:0:0:0:
448,192,241207,1,8,0:0:0:0:
64,192,241548,1,2,0:0:0:0:
192,192,241548,128,0,241888:0:0:0:0:
320,192,241548,1,0,0:0:0:0:
448,192,241888,1,0,0:0:0:0:
64,192,242229,128,0,242570:0:0:0:0:
320,192,242570,1,0,0:0:0:0:
448,192,242911,1,2,0:0:0:0:
320,192,242911,1,4,0:0:0:0:
64,192,242911,1,2,0:0:0:0:
192,192,242911,1,4,0:0:0:0:
448,192,243082,1,0,0:0:0:0:
192,192,243082,1,0,0:0:0:0:
320,192,243252,1,8,0:0:0:0:
192,192,243252,1,8,0:0:0:0:
64,192,243252,1,0,0:0:0:0:
320,192,243423,1,0,0:0:0:0:
64,192,243423,1,0,0:0:0:0:
448,192,243593,1,8,0:0:0:0:
192,192,243593,1,0,0:0:0:0:
320,192,243678,1,8,0:0:0:0:
192,192,243763,1,2,0:0:0:0:
64,192,243763,1,2,0:0:0:0:
448,192,243934,1,4,0:0:0:0:
320,192,243934,1,8,0:0:0:0:
64,192,243934,1,8,0:0:0:0:
192,192,244275,1,2,0:0:0:0:
64,192,244275,1,0,0:0:0:0:
448,192,244275,1,2,0:0:0:0:
320,192,244445,1,0,0:0:0:0:
448,192,244616,1,8,0:0:0:0:
64,192,244616,1,8,0:0:0:0:
320,192,244786,1,0,0:0:0:0:
192,192,244786,1,0,0:0:0:0:
448,192,244957,1,0,0:0:0:0:
64,192,244957,1,0,0:0:0:0:
448,192,245127,1,2,0:0:0:0:
192,192,245127,1,2,0:0:0:0:
320,192,245298,1,8,0:0:0:0:
192,192,245298,1,0,0:0:0:0:
64,192,245298,1,8,0:0:0:0:
448,192,245638,1,0,0:0:0:0:
64,192,245638,1,2,0:0:0:0:
192,192,245638,1,2,0:0:0:0:
64,192,245809,1,0,0:0:0:0:
448,192,245809,1,0,0:0:0:0:
320,192,245979,1,8,0:0:0:0:
192,192,245979,1,8,0:0:0:0:
64,192,245979,1,0,0:0:0:0:
448,192,246150,1,0,0:0:0:0:
192,192,246150,1,0,0:0:0:0:
320,192,246320,1,8,0:0:0:0:
64,192,246320,1,0,0:0:0:0:
192,192,246405,1,8,0:0:0:0:
320,192,246491,1,2,0:0:0:0:
448,192,246491,1,2,0:0:0:0:
448,192,246661,1,8,0:0:0:0:
192,192,246661,1,0,0:0:0:0:
64,192,246661,1,8,0:0:0:0:
448,192,247002,1,0,0:0:0:0:
320,192,247002,1,2,0:0:0:0:
192,192,247002,1,2,0:0:0:0:
192,192,247173,1,0,0:0:0:0:
448,192,247343,1,0,0:0:0:0:
64,192,247343,1,8,0:0:0:0:
320,192,247343,1,8,0:0:0:0:
192,192,247513,1,0,0:0:0:0:
320,192,247684,1,0,0:0:0:0:
64,192,247684,1,0,0:0:0:0:
192,192,247854,1,2,0:0:0:0:
320,192,247854,1,2,0:0:0:0:
448,192,248025,1,8,0:0:0:0:
64,192,248025,1,0,0:0:0:0:
192,192,248025,1,8,0:0:0:0:
448,192,248366,1,0,0:0:0:0:
320,192,248366,1,2,0:0:0:0:
64,192,248366,1,2,0:0:0:0:
320,192,248536,1,0,0:0:0:0:
64,192,248536,1,0,0:0:0:0:
448,192,248707,1,8,0:0:0:0:
192,192,248707,1,8,0:0:0:0:
64,192,248707,1,0,0:0:0:0:
192,192,248877,1,0,0:0:0:0:
320,192,248877,1,0,0:0:0:0:
320,192,249048,1,0,0:0:0:0:
64,192,249048,1,8,0:0:0:0:
192,192,249133,1,8,0:0:0:0:
448,192,249218,1,2,0:0:0:0:
320,192,249218,1,2,0:0:0:0:
448,192,249388,1,8,0:0:0:0:
192,192,249388,1,8,0:0:0:0:
64,192,249388,1,0,0:0:0:0:
448,192,249729,1,0,0:0:0:0:
320,192,249729,1,2,0:0:0:0:
64,192,249729,1,2,0:0:0:0:
64,192,249900,1,0,0:0:0:0:
448,192,250070,1,0,0:0:0:0:
192,192,250070,1,8,0:0:0:0:
320,192,250070,1,8,0:0:0:0:
320,192,250241,1,0,0:0:0:0:
64,192,250241,1,0,0:0:0:0:
192,192,250411,1,0,0:0:0:0:
448,192,250411,1,0,0:0:0:0:
192,192,250582,1,2,0:0:0:0:
64,192,250582,1,2,0:0:0:0:
448,192,250752,1,0,0:0:0:0:
320,192,250752,1,8,0:0:0:0:
64,192,250752,1,8,0:0:0:0:
192,192,251093,1,2,0:0:0:0:
64,192,251093,1,0,0:0:0:0:
448,192,251093,1,2,0:0:0:0:
320,192,251263,1,0,0:0:0:0:
64,192,251263,1,0,0:0:0:0:
448,192,251434,1,0,0:0:0:0:
320,192,251434,1,8,0:0:0:0:
192,192,251434,1,8,0:0:0:0:
320,192,251604,1,0,0:0:0:0:
64,192,251604,1,0,0:0:0:0:
192,192,251775,1,0,0:0:0:0:
448,192,251775,1,0,0:0:0:0:
192,192,251945,1,2,0:0:0:0:
64,192,251945,1,2,0:0:0:0:
448,192,252116,1,8,0:0:0:0:
64,192,252116,1,0,0:0:0:0:
320,192,252116,1,8,0:0:0:0:
64,192,252457,128,0,252798:0:0:0:0:
192,192,252457,1,2,0:0:0:0:
448,192,252457,1,2,0:0:0:0:
448,192,252798,1,8,0:0:0:0:
320,192,252798,1,8,0:0:0:0:
192,192,253138,128,0,253479:0:0:0:0:
64,192,253479,1,8,0:0:0:0:
320,192,253479,1,8,0:0:0:0:
448,192,253820,1,2,0:0:0:0:
192,192,253820,1,2,0:0:0:0:
64,192,253820,1,0,0:0:0:0:
448,192,253991,1,0,0:0:0:0:
192,192,253991,1,0,0:0:0:0:
320,192,254161,1,8,0:0:0:0:
64,192,254161,1,8,0:0:0:0:
448,192,254161,1,0,0:0:0:0:
448,192,254332,1,0,0:0:0:0:
192,192,254332,1,0,0:0:0:0:
64,192,254502,128,0,254843:0:0:0:0:
320,192,254502,1,8,0:0:0:0:
192,192,254587,1,8,0:0:0:0:
448,192,254673,1,2,0:0:0:0:
320,192,254673,1,2,0:0:0:0:
448,192,254843,1,8,0:0:0:0:
192,192,254843,1,8,0:0:0:0:
448,192,255184,128,0,255525:0:0:0:0:
320,192,255184,1,2,0:0:0:0:
64,192,255184,1,2,0:0:0:0:
192,192,255525,1,8,0:0:0:0:
64,192,255525,1,8,0:0:0:0:
320,192,255695,1,0,0:0:0:0:
192,192,255866,128,0,256207:0:0:0:0:
448,192,256036,1,2,0:0:0:0:
64,192,256036,1,2,0:0:0:0:
64,192,256207,1,8,0:0:0:0:
320,192,256207,1,8,0:0:0:0:
448,192,256548,1,2,0:0:0:0:
192,192,256548,1,2,0:0:0:0:
64,192,256548,1,0,0:0:0:0:
448,192,256718,1,0,0:0:0:0:
192,192,256718,1,0,0:0:0:0:
320,192,256888,1,8,0:0:0:0:
64,192,256888,1,8,0:0:0:0:
448,192,256888,1,0,0:0:0:0:
64,192,257059,1,0,0:0:0:0:
192,192,257059,1,0,0:0:0:0:
448,192,257229,128,0,257570:0:0:0:0:
320,192,257229,1,8,0:0:0:0:
64,192,257315,1,8,0:0:0:0:
320,192,257400,1,2,0:0:0:0:
192,192,257400,1,2,0:0:0:0:
320,192,257570,1,0,0:0:0:0:
64,192,257570,1,8,0:0:0:0:
192,192,257570,1,8,0:0:0:0:
64,192,257911,128,0,258252:0:0:0:0:
448,192,257911,1,2,0:0:0:0:
192,192,257911,1,2,0:0:0:0:
192,192,258252,128,0,258593:0:0:0:0:
448,192,258252,1,8,0:0:0:0:
320,192,258252,1,8,0:0:0:0:
448,192,258593,128,0,258934:0:0:0:0:
320,192,258763,1,2,0:0:0:0:
64,192,258763,1,2,0:0:0:0:
320,192,258934,128,0,259275:0:0:0:0:
192,192,258934,1,8,0:0:0:0:
64,192,258934,1,8,0:0:0:0:
64,192,259275,128,0,259616:0:0:0:0:
448,192,259275,1,2,0:0:0:0:
192,192,259275,1,2,0:0:0:0:
192,192,259616,128,0,259957:0:0:0:0:
448,192,259616,1,8,0:0:0:0:
320,192,259616,1,8,0:0:0:0:
320,192,259957,128,0,260298:0:0:0:0:
448,192,260127,1,2,0:0:0:0:
64,192,260127,1,2,0:0:0:0:
448,192,260298,128,0,260638:0:0:0:0:
192,192,260298,1,8,0:0:0:0:
64,192,260298,1,8,0:0:0:0:
192,192,260638,128,0,260979:0:0:0:0:
320,192,260638,1,2,0:0:0:0:
64,192,260638,1,2,0:0:0:0:
320,192,260979,128,0,261320:0:0:0:0:
448,192,260979,1,8,0:0:0:0:
64,192,260979,1,8,0:0:0:0:
64,192,261320,128,0,261661:0:0:0:0:
192,192,261491,1,2,0:0:0:0:
320,192,261491,1,2,0:0:0:0:
192,192,261661,128,0,262002:0:0:0:0:
320,192,261661,1,8,0:0:0:0:
448,192,261661,1,8,0:0:0:0:
320,192,262002,1,2,0:0:0:0:
64,192,262002,1,8,0:0:0:0:
192,192,262087,1,8,0:0:0:0:
448,192,262087,1,0,0:0:0:0:
64,192,262343,1,0,0:0:0:0:
320,192,262343,1,8,0:0:0:0:
192,192,262428,1,0,0:0:0:0:
448,192,262428,1,8,0:0:0:0:
320,192,262684,1,0,0:0:0:0:
64,192,262684,1,8,0:0:0:0:
192,192,262769,1,8,0:0:0:0:
448,192,262769,1,0,0:0:0:0:
320,192,262854,1,0,0:0:0:0:
64,192,262854,1,8,0:0:0:0:
192,192,263025,1,8,0:0:0:0:
448,192,263025,1,8,0:0:0:0:
320,192,263025,1,0,0:0:0:0:
448,192,263366,1,2,0:0:0:0:
320,192,263366,1,0,0:0:0:0:
64,192,263366,1,2,0:0:0:0:
192,192,263366,1,0,0:0:0:0:
448,192,263707,1,0,0:0:0:0:
192,192,263707,1,0,0:0:0:0:
320,192,264048,1,0,0:0:0:0:
64,192,264218,1,2,0:0:0:0:
192,192,264218,1,2,0:0:0:0:
192,192,264388,1,8,0:0:0:0:
448,192,264388,1,8,0:0:0:0:
448,192,264729,1,2,0:0:0:0:
64,192,264729,1,2,0:0:0:0:
320,192,265070,1,8,0:0:0:0:
64,192,265070,1,8,0:0:0:0:
192,192,265411,1,0,0:0:0:0:
448,192,265582,1,2,0:0:0:0:
320,192,265582,1,2,0:0:0:0:
64,192,265752,1,8,0:0:0:0:
320,192,265752,1,0,0:0:0:0:
192,192,265752,1,8,0:0:0:0:
448,192,266093,1,0,0:0:0:0:
320,192,266093,1,2,0:0:0:0:
192,192,266093,1,2,0:0:0:0:
448,192,266434,1,8,0:0:0:0:
64,192,266434,1,8,0:0:0:0:
320,192,266775,1,0,0:0:0:0:
192,192,266945,1,2,0:0:0:0:
448,192,266945,1,2,0:0:0:0:
320,192,267116,1,8,0:0:0:0:
64,192,267116,1,8,0:0:0:0:
448,192,267457,1,2,0:0:0:0:
64,192,267457,1,2,0:0:0:0:
320,192,267798,1,8,0:0:0:0:
192,192,267798,1,8,0:0:0:0:
192,192,268138,1,0,0:0:0:0:
64,192,268309,1,2,0:0:0:0:
320,192,268309,1,2,0:0:0:0:
192,192,268479,1,8,0:0:0:0:
448,192,268479,1,8,0:0:0:0:
64,192,268479,1,0,0:0:0:0:
448,192,268820,1,0,0:0:0:0:
320,192,268820,1,2,0:0:0:0:
64,192,268820,1,2,0:0:0:0:
448,192,269161,1,8,0:0:0:0:
64,192,269161,1,8,0:0:0:0:
192,192,269502,1,0,0:0:0:0:
64,192,269673,1,2,0:0:0:0:
320,192,269673,1,2,0:0:0:0:
192,192,269843,1,8,0:0:0:0:
448,192,269843,1,8,0:0:0:0:
192,192,270184,1,2,0:0:0:0:
320,192,270184,1,2,0:0:0:0:
64,192,270525,1,8,0:0:0:0:
448,192,270525,1,8,0:0:0:0:
320,192,270866,1,0,0:0:0:0:
192,192,271036,1,2,0:0:0:0:
448,192,271036,1,2,0:0:0:0:
320,192,271207,1,8,0:0:0:0:
64,192,271207,1,8,0:0:0:0:
448,192,271207,1,0,0:0:0:0:
192,192,271548,1,2,0:0:0:0:
64,192,271548,1,0,0:0:0:0:
448,192,271548,1,2,0:0:0:0:
448,192,271888,1,8,0:0:0:0:
320,192,271888,1,8,0:0:0:0:
64,192,272229,1,0,0:0:0:0:
192,192,272400,1,2,0:0:0:0:
320,192,272400,1,2,0:0:0:0:
64,192,272570,1,8,0:0:0:0:
448,192,272570,1,8,0:0:0:0:
320,192,272911,1,2,0:0:0:0:
192,192,272911,1,2,0:0:0:0:
448,192,273252,1,8,0:0:0:0:
64,192,273252,1,8,0:0:0:0:
448,192,273593,1,0,0:0:0:0:
320,192,273763,1,2,0:0:0:0:
192,192,273763,1,2,0:0:0:0:
64,192,273934,1,8,0:0:0:0:
448,192,273934,1,0,0:0:0:0:
320,192,273934,1,8,0:0:0:0:
192,192,274275,1,2,0:0:0:0:
64,192,274275,1,0,0:0:0:0:
448,192,274275,1,2,0:0:0:0:
320,192,274616,1,8,0:0:0:0:
64,192,274616,1,8,0:0:0:0:
192,192,274957,1,0,0:0:0:0:
448,192,275127,1,2,0:0:0:0:
320,192,275127,1,2,0:0:0:0:
192,192,275298,1,8,0:0:0:0:
64,192,275298,1,8,0:0:0:0:
448,192,275638,1,2,0:0:0:0:
64,192,275638,1,2,0:0:0:0:
192,192,275979,1,8,0:0:0:0:
448,192,275979,1,8,0:0:0:0:
320,192,276320,1,0,0:0:0:0:
192,192,276491,1,2,0:0:0:0:
64,192,276491,1,2,0:0:0:0:
320,192,276661,1,8,0:0:0:0:
448,192,276661,1,8,0:0:0:0:
64,192,276661,1,0,0:0:0:0:
192,192,277002,1,2,0:0:0:0:
64,192,277002,1,2,0:0:0:0:
448,192,277002,1,0,0:0:0:0:
448,192,277343,1,8,0:0:0:0:
320,192,277343,1,8,0:0:0:0:
192,192,277684,1,0,0:0:0:0:
64,192,277854,1,2,0:0:0:0:
320,192,277854,1,2,0:0:0:0:
192,192,278025,1,8,0:0:0:0:
448,192,278025,1,8,0:0:0:0:
64,192,278366,1,2,0:0:0:0:
320,192,278366,1,2,0:0:0:0:
192,192,278707,1,8,0:0:0:0:
448,192,278707,1,8,0:0:0:0:
320,192,279048,1,0,0:0:0:0:
448,192,279218,1,2,0:0:0:0:
192,192,279218,1,2,0:0:0:0:
64,192,279388,1,8,0:0:0:0:
320,192,279388,1,8,0:0:0:0:
448,192,279388,1,0,0:0:0:0:
192,192,279729,1,2,0:0:0:0:
64,192,279729,1,0,0:0:0:0:
448,192,279729,1,2,0:0:0:0:
448,192,280070,1,8,0:0:0:0:
320,192,280070,1,8,0:0:0:0:
64,192,280411,1,0,0:0:0:0:
448,192,280582,1,2,0:0:0:0:
320,192,280582,1,2,0:0:0:0:
192,192,280752,1,8,0:0:0:0:
64,192,280752,1,8,0:0:0:0:
448,192,280752,1,0,0:0:0:0:
320,192,281093,1,2,0:0:0:0:
64,192,281093,1,0,0:0:0:0:
448,192,281093,1,2,0:0:0:0:
192,192,281434,1,8,0:0:0:0:
320,192,281434,1,8,0:0:0:0:
64,192,281775,128,0,282116:0:0:0:0:
448,192,282116,1,8,0:0:0:0:
192,192,282116,1,8,0:0:0:0:
448,192,282457,1,0,0:0:0:0:
320,192,282457,1,2,0:0:0:0:
64,192,282457,1,2,0:0:0:0:
192,192,282798,1,8,0:0:0:0:
64,192,282798,1,0,0:0:0:0:
448,192,282798,1,8,0:0:0:0:
320,192,283138,1,0,0:0:0:0:
192,192,283309,1,2,0:0:0:0:
448,192,283309,1,2,0:0:0:0:
448,192,283479,1,0,0:0:0:0:
320,192,283479,1,8,0:0:0:0:
64,192,283479,1,8,0:0:0:0:
192,192,283820,1,2,0:0:0:0:
320,192,283820,1,2,0:0:0:0:
448,192,283820,1,0,0:0:0:0:
320,192,284161,1,8,0:0:0:0:
192,192,284161,1,8,0:0:0:0:
64,192,284161,1,0,0:0:0:0:
192,192,284502,1,0,0:0:0:0:
320,192,284673,1,2,0:0:0:0:
64,192,284673,1,2,0:0:0:0:
448,192,284843,1,8,0:0:0:0:
64,192,284843,1,0,0:0:0:0:
192,192,284843,1,8,0:0:0:0:
448,192,285184,128,0,286377:0:0:0:0:
320,192,285184,128,0,285525:0:0:0:0:
192,192,285525,1,0,0:0:0:0:
64,192,285866,128,0,286207:0:0:0:0:
320,192,286207,1,0,0:0:0:0:
448,192,286548,1,2,0:0:0:0:
320,192,286548,1,4,0:0:0:0:
64,192,286548,1,2,0:0:0:0:
192,192,286548,1,4,0:0:0:0:
448,192,286718,1,0,0:0:0:0:
192,192,286718,1,0,0:0:0:0:
192,192,286888,1,8,0:0:0:0:
64,192,286888,1,8,0:0:0:0:
448,192,287059,1,0,0:0:0:0:
320,192,287059,1,0,0:0:0:0:
192,192,287229,128,0,287570:0:0:0:0:
64,192,287229,128,0,287570:0:0:0:0:
448,192,287400,1,2,0:0:0:0:
448,192,287570,1,8,0:0:0:0:
320,192,287570,1,8,0:0:0:0:
64,192,287911,128,2,288252:0:0:0:0:
320,192,287911,128,0,288252:0:0:0:0:
192,192,287911,1,2,0:0:0:0:
448,192,288252,1,8,0:0:0:0:
192,192,288252,1,8,0:0:0:0:
320,192,288423,1,0,0:0:0:0:
64,192,288423,1,0,0:0:0:0:
448,192,288593,128,0,288934:0:0:0:0:
192,192,288593,128,0,288934:0:0:0:0:
320,192,288763,1,2,0:0:0:0:
320,192,288934,1,8,0:0:0:0:
64,192,288934,1,8,0:0:0:0:
448,192,289275,1,0,0:0:0:0:
320,192,289275,1,2,0:0:0:0:
64,192,289275,1,2,0:0:0:0:
320,192,289445,1,0,0:0:0:0:
64,192,289445,1,0,0:0:0:0:
448,192,289616,1,8,0:0:0:0:
192,192,289616,1,8,0:0:0:0:
64,192,289616,1,0,0:0:0:0:
320,192,289786,1,0,0:0:0:0:
192,192,289786,1,0,0:0:0:0:
320,192,289957,128,0,290298:0:0:0:0:
448,192,289957,128,0,290298:0:0:0:0:
192,192,290127,1,2,0:0:0:0:
192,192,290298,1,8,0:0:0:0:
64,192,290298,1,8,0:0:0:0:
192,192,290638,128,2,290979:0:0:0:0:
448,192,290638,128,0,290979:0:0:0:0:
320,192,290638,1,2,0:0:0:0:
320,192,290979,1,8,0:0:0:0:
64,192,290979,1,8,0:0:0:0:
320,192,291320,128,0,291661:0:0:0:0:
64,192,291320,128,0,291661:0:0:0:0:
192,192,291491,1,2,0:0:0:0:
192,192,291661,1,8,0:0:0:0:
448,192,291661,1,8,0:0:0:0:
448,192,292002,1,2,0:0:0:0:
64,192,292002,1,0,0:0:0:0:
192,192,292002,1,2,0:0:0:0:
192,192,292173,1,0,0:0:0:0:
448,192,292173,1,0,0:0:0:0:
448,192,292343,1,0,0:0:0:0:
320,192,292343,1,8,0:0:0:0:
64,192,292343,1,8,0:0:0:0:
192,192,292513,1,0,0:0:0:0:
64,192,292513,1,0,0:0:0:0:
320,192,292684,128,0,293025:0:0:0:0:
448,192,292684,128,0,293025:0:0:0:0:
192,192,292854,1,2,0:0:0:0:
192,192,293025,1,8,0:0:0:0:
64,192,293025,1,8,0:0:0:0:
64,192,293366,128,0,293707:0:0:0:0:
320,192,293366,128,0,293707:0:0:0:0:
192,192,293366,1,2,0:0:0:0:
192,192,293707,1,8,0:0:0:0:
448,192,293707,1,8,0:0:0:0:
320,192,293877,1,0,0:0:0:0:
64,192,293877,1,0,0:0:0:0:
192,192,294048,128,0,294388:0:0:0:0:
448,192,294048,128,0,294388:0:0:0:0:
320,192,294218,1,2,0:0:0:0:
64,192,294388,1,8,0:0:0:0:
320,192,294388,1,8,0:0:0:0:
448,192,294729,1,2,0:0:0:0:
64,192,294729,1,0,0:0:0:0:
320,192,294729,1,2,0:0:0:0:
64,192,294900,1,0,0:0:0:0:
320,192,294900,1,0,0:0:0:0:
448,192,295070,1,8,0:0:0:0:
192,192,295070,1,8,0:0:0:0:
64,192,295070,1,0,0:0:0:0:
320,192,295241,1,0,0:0:0:0:
448,192,295241,1,0,0:0:0:0:
192,192,295411,128,0,295752:0:0:0:0:
64,192,295411,128,0,295752:0:0:0:0:
448,192,295582,1,2,0:0:0:0:
320,192,295752,1,8,0:0:0:0:
448,192,295752,1,8,0:0:0:0:
320,192,296093,128,0,296434:0:0:0:0:
192,192,296093,128,2,296434:0:0:0:0:
448,192,296093,1,2,0:0:0:0:
448,192,296434,128,8,296604:0:0:0:0:
64,192,296434,128,8,296604:0:0:0:0:
320,192,296775,128,0,297116:0:0:0:0:
64,192,296775,128,0,297116:0:0:0:0:
448,192,297116,128,8,297286:0:0:0:0:
192,192,297116,128,8,297286:0:0:0:0:
64,192,297457,1,2,0:0:0:0:
448,192,297457,128,0,297542:0:0:0:0:
192,192,297457,128,2,297542:0:0:0:0:
448,192,297627,128,0,297712:0:0:0:0:
192,192,297627,128,0,297712:0:0:0:0:
320,192,297798,1,8,0:0:0:0:
192,192,297798,128,8,297883:0:0:0:0:
64,192,297798,128,0,297883:0:0:0:0:
320,192,297968,128,0,298053:0:0:0:0:
448,192,297968,128,0,298053:0:0:0:0:
192,192,298138,128,0,298479:0:0:0:0:
64,192,298138,128,0,298479:0:0:0:0:
320,192,298309,1,2,0:0:0:0:
448,192,298479,1,8,0:0:0:0:
320,192,298479,1,8,0:0:0:0:
448,192,298820,128,0,299161:0:0:0:0:
64,192,298820,128,2,299161:0:0:0:0:
192,192,298820,1,2,0:0:0:0:
192,192,299161,128,8,299246:0:0:0:0:
320,192,299161,128,8,299246:0:0:0:0:
448,192,299332,128,0,299417:0:0:0:0:
64,192,299332,128,0,299417:0:0:0:0:
192,192,299502,128,0,299843:0:0:0:0:
320,192,299502,128,0,299843:0:0:0:0:
64,192,299673,1,2,0:0:0:0:
64,192,299843,1,8,0:0:0:0:
448,192,299843,1,8,0:0:0:0:
64,192,300184,128,0,300269:0:0:0:0:
320,192,300184,128,2,300269:0:0:0:0:
448,192,300184,1,2,0:0:0:0:
64,192,300354,128,0,300440:0:0:0:0:
320,192,300354,128,0,300440:0:0:0:0:
192,192,300525,128,8,300610:0:0:0:0:
448,192,300525,128,0,300610:0:0:0:0:
64,192,300525,1,8,0:0:0:0:
320,192,300695,128,0,300780:0:0:0:0:
448,192,300695,128,0,300780:0:0:0:0:
192,192,300866,128,0,301207:0:0:0:0:
64,192,300866,128,0,301207:0:0:0:0:
448,192,301036,1,2,0:0:0:0:
320,192,301207,1,8,0:0:0:0:
448,192,301207,1,8,0:0:0:0:
320,192,301548,128,2,301806:0:0:0:0:
448,192,301548,128,0,301806:0:0:0:0:
192,192,301548,1,2,0:0:0:0:
192,192,301892,1,8,0:0:0:0:
64,192,301892,1,8,0:0:0:0:
320,192,302242,128,0,302509:0:0:0:0:
192,192,302242,128,0,302509:0:0:0:0:
64,192,302420,1,2,0:0:0:0:
448,192,302599,1,8,0:0:0:0:
64,192,302599,1,8,0:0:0:0:
320,192,302962,128,0,303239:0:0:0:0:
448,192,302962,128,2,303239:0:0:0:0:
192,192,302962,1,2,0:0:0:0:
192,192,303332,1,8,0:0:0:0:
64,192,303332,1,8,0:0:0:0:
320,192,303714,128,0,304024:0:0:0:0:
192,192,303714,128,0,304024:0:0:0:0:
448,192,303920,1,2,0:0:0:0:
64,192,304127,1,8,0:0:0:0:
448,192,304127,1,8,0:0:0:0:
192,192,304541,128,0,304857:0:0:0:0:
64,192,304541,128,0,304857:0:0:0:0:
320,192,304541,1,2,0:0:0:0:
448,192,304963,1,8,0:0:0:0:
320,192,304963,1,8,0:0:0:0:
64,192,305404,128,0,305750:0:0:0:0:
320,192,305404,128,0,305750:0:0:0:0:
192,192,305634,1,2,0:0:0:0:
448,192,305865,1,8,0:0:0:0:
192,192,305865,1,8,0:0:0:0:
320,192,306345,1,2,0:0:0:0:
192,192,306345,128,2,306736:0:0:0:0:
448,192,306345,128,0,306736:0:0:0:0:
320,192,306866,1,8,0:0:0:0:
64,192,306866,1,8,0:0:0:0:
64,192,307406,128,0,307847:0:0:0:0:
448,192,307406,128,0,307847:0:0:0:0:
320,192,307700,1,2,0:0:0:0:
320,192,307994,1,8,0:0:0:0:
192,192,307994,1,8,0:0:0:0:
448,192,308625,128,6,313204:0:0:0:0:
320,192,308625,128,4,313362:0:0:0:0:
192,192,308625,128,4,313520:0:0:0:0:
64,192,308625,128,6,313678:0:0:0:0:
