osu file format v13

[General]
AudioFilename: [Electro] Pegboard Nerds Emergency [Monstercat Release].mp3
AudioLeadIn: 0
PreviewTime: -1
Countdown: 1
SampleSet: None
StackLeniency: 0.7
Mode: 0
LetterboxInBreaks: 1
WidescreenStoryboard: 1

[Editor]
DistanceSpacing: 0.8
BeatDivisor: 6
GridSize: 32
TimelineZoom: 1

[Metadata]
Title:Emergency
TitleUnicode:Emergency
Artist:Pegboards Nerds ft. Monstercat
ArtistUnicode:Pegboards Nerds ft. Monstercat
Creator:tumamalamendiga
Version:
Source:
Tags:Electro Dubstep
BeatmapID:559899
BeatmapSetID:242605

[Difficulty]
HPDrainRate:10
CircleSize:7
OverallDifficulty:10
ApproachRate:10
SliderMultiplier:1.4
SliderTickRate:1

[Events]
//Background and Video events
0,0,"maxresdefault.jpg",0,0
//Break Periods
//Storyboard Layer 0 (Background)
//Storyboard Layer 1 (Fail)
//Storyboard Layer 2 (Pass)
//Storyboard Layer 3 (Foreground)
//Storyboard Sound Samples
//Background Colour Transformations
3,100,163,162,255

[TimingPoints]
0,500,4,1,0,100,1,0

[Colours]
Combo1 : 0,255,64
Combo2 : 0,255,255
Combo3 : 0,255,64
Combo4 : 0,255,255

[HitObjects]
64,160,5166,6,0,L|320:224,3,256.666666666667,0|0|0|0,0:0|0:0|0:0|0:0,0:0:0:0:
416,96,16000,1,0,0:0:0:0:
160,160,17000,1,0,0:0:0:0:
160,160,17250,1,0,0:0:0:0:
320,192,17833,1,0,0:0:0:0:
224,224,18500,1,0,0:0:0:0:
192,192,19000,1,0,0:0:0:0:
288,160,19416,1,0,0:0:0:0:
352,224,19833,1,0,0:0:0:0:
224,256,20333,1,0,0:0:0:0:
224,256,20583,1,0,0:0:0:0:
224,256,20833,1,0,0:0:0:0:
192,256,21333,5,0,0:0:0:0:
192,256,21500,1,0,0:0:0:0:
192,256,21750,1,0,0:0:0:0:
192,256,22000,1,0,0:0:0:0:
384,192,24083,1,0,0:0:0:0:
128,192,24500,1,0,0:0:0:0:
416,128,25000,1,0,0:0:0:0:
256,192,25250,1,0,0:0:0:0:
256,224,25500,1,0,0:0:0:0:
160,224,25750,1,0,0:0:0:0:
160,128,26000,1,0,0:0:0:0:
384,224,27833,5,0,0:0:0:0:
320,224,28250,1,0,0:0:0:0:
256,224,28750,1,0,0:0:0:0:
192,224,29250,1,0,0:0:0:0:
192,160,29666,1,0,0:0:0:0:
384,224,30750,5,0,0:0:0:0:
256,224,31000,1,0,0:0:0:0:
384,160,32416,1,0,0:0:0:0:
256,160,32666,1,0,0:0:0:0:
224,224,34083,5,0,0:0:0:0:
256,224,34500,1,0,0:0:0:0:
320,224,34833,1,0,0:0:0:0:
192,192,35333,1,0,0:0:0:0:
256,192,35750,1,0,0:0:0:0:
288,160,36250,1,0,0:0:0:0:
288,224,36500,1,0,0:0:0:0:
160,256,36750,1,0,0:0:0:0:
160,224,37000,1,0,0:0:0:0:
128,192,37250,1,0,0:0:0:0:
384,160,39083,1,0,0:0:0:0:
352,192,39583,1,0,0:0:0:0:
256,224,39833,1,0,0:0:0:0:
224,224,40000,1,0,0:0:0:0:
128,192,40250,1,0,0:0:0:0:
128,224,40500,1,0,0:0:0:0:
160,256,40750,1,0,0:0:0:0:
320,320,41000,1,0,0:0:0:0:
352,288,42833,5,0,0:0:0:0:
384,256,43333,1,0,0:0:0:0:
384,224,43750,1,0,0:0:0:0:
352,192,44250,1,0,0:0:0:0:
320,192,44750,1,0,0:0:0:0:
288,224,45583,1,0,0:0:0:0:
288,256,45916,1,0,0:0:0:0:
192,256,48750,5,0,0:0:0:0:
224,256,49333,1,0,0:0:0:0:
320,224,50333,1,0,0:0:0:0:
320,224,50416,1,0,0:0:0:0:
320,224,50666,1,0,0:0:0:0:
320,224,50833,1,0,0:0:0:0:
128,224,51500,1,0,0:0:0:0:
128,224,51583,1,0,0:0:0:0:
128,224,51750,1,0,0:0:0:0:
384,192,52666,1,0,0:0:0:0:
224,192,53083,1,0,0:0:0:0:
320,160,53583,1,0,0:0:0:0:
256,288,54083,1,0,0:0:0:0:
256,288,54166,1,0,0:0:0:0:
256,288,54416,1,0,0:0:0:0:
256,288,54500,1,0,0:0:0:0:
96,288,55250,1,0,0:0:0:0:
96,288,55333,1,0,0:0:0:0:
96,288,55500,1,0,0:0:0:0:
384,160,56416,5,0,0:0:0:0:
192,160,56916,1,0,0:0:0:0:
352,288,57333,1,0,0:0:0:0:
256,288,57916,5,0,0:0:0:0:
256,288,58000,1,0,0:0:0:0:
256,288,58333,1,0,0:0:0:0:
256,288,58666,1,0,0:0:0:0:
256,288,58916,1,0,0:0:0:0:
96,288,59250,5,0,0:0:0:0:
96,288,59500,1,0,0:0:0:0:
96,288,59833,1,0,0:0:0:0:
192,224,60166,5,0,0:0:0:0:
288,192,60583,1,0,0:0:0:0:
288,256,61083,5,0,0:0:0:0:
192,224,61583,5,0,0:0:0:0:
192,224,61750,5,0,0:0:0:0:
192,224,62000,5,0,0:0:0:0:
192,224,62166,1,0,0:0:0:0:
192,256,62666,1,0,0:0:0:0:
192,256,62833,5,0,0:0:0:0:
192,256,63000,1,0,0:0:0:0:
384,224,63833,5,0,0:0:0:0:
256,224,64416,5,0,0:0:0:0:
160,224,64833,1,0,0:0:0:0:
224,288,65333,5,0,0:0:0:0:
384,288,65833,5,0,0:0:0:0:
384,224,66333,1,0,0:0:0:0:
256,192,66750,1,0,0:0:0:0:
160,192,67250,1,0,0:0:0:0:
192,288,67666,1,0,0:0:0:0:
320,288,68166,1,0,0:0:0:0:
384,256,68666,1,0,0:0:0:0:
288,192,69083,1,0,0:0:0:0:
192,224,69500,1,0,0:0:0:0:
128,256,70000,1,0,0:0:0:0:
192,288,70416,1,0,0:0:0:0:
256,320,70833,1,0,0:0:0:0:
320,288,71333,1,0,0:0:0:0:
352,224,71750,1,0,0:0:0:0:
256,192,72166,1,0,0:0:0:0:
160,224,72500,1,0,0:0:0:0:
160,224,72666,1,0,0:0:0:0:
160,224,72833,1,0,0:0:0:0:
160,224,73000,1,0,0:0:0:0:
160,224,73166,1,0,0:0:0:0:
160,224,73333,1,0,0:0:0:0:
160,224,73500,1,0,0:0:0:0:
160,224,73666,1,0,0:0:0:0:
160,224,73833,1,0,0:0:0:0:
160,224,73916,1,0,0:0:0:0:
160,224,74083,1,0,0:0:0:0:
160,224,74250,1,0,0:0:0:0:
160,224,74333,1,0,0:0:0:0:
160,224,74500,1,0,0:0:0:0:
160,224,74666,1,0,0:0:0:0:
160,224,74833,1,0,0:0:0:0:
160,224,75000,1,0,0:0:0:0:
160,224,75166,1,0,0:0:0:0:
160,224,75250,1,0,0:0:0:0:
160,224,75416,1,0,0:0:0:0:
160,224,75583,1,0,0:0:0:0:
160,224,75750,1,0,0:0:0:0:
160,224,75833,1,0,0:0:0:0:
160,224,76000,1,0,0:0:0:0:
160,224,76166,1,0,0:0:0:0:
160,224,76333,1,0,0:0:0:0:
160,224,76500,1,0,0:0:0:0:
160,224,76583,1,0,0:0:0:0:
160,224,76750,1,0,0:0:0:0:
160,224,76916,1,0,0:0:0:0:
160,224,77083,1,0,0:0:0:0:
160,224,77166,1,0,0:0:0:0:
160,224,77333,1,0,0:0:0:0:
160,224,77500,1,0,0:0:0:0:
160,224,77666,1,0,0:0:0:0:
160,224,77833,1,0,0:0:0:0:
160,224,78000,1,0,0:0:0:0:
160,224,78083,1,0,0:0:0:0:
160,224,78250,1,0,0:0:0:0:
160,224,78416,1,0,0:0:0:0:
160,224,78583,1,0,0:0:0:0:
160,224,78666,1,0,0:0:0:0:
160,224,78916,1,0,0:0:0:0:
384,160,79833,5,0,0:0:0:0:
96,160,80416,1,0,0:0:0:0:
96,160,80500,1,0,0:0:0:0:
96,160,80666,1,0,0:0:0:0:
96,160,80833,1,0,0:0:0:0:
96,160,80916,1,0,0:0:0:0:
320,224,81500,1,0,0:0:0:0:
320,224,81666,1,0,0:0:0:0:
320,224,81833,1,0,0:0:0:0:
128,224,82666,1,0,0:0:0:0:
256,224,83166,1,0,0:0:0:0:
352,192,83666,1,0,0:0:0:0:
352,224,84166,1,0,0:0:0:0:
352,224,84250,1,0,0:0:0:0:
352,224,84416,1,0,0:0:0:0:
352,224,84583,1,0,0:0:0:0:
352,224,84916,1,0,0:0:0:0:
224,192,85250,1,0,0:0:0:0:
192,192,85416,1,0,0:0:0:0:
192,192,85583,1,0,0:0:0:0:
128,192,85916,1,0,0:0:0:0:
320,256,86333,1,0,0:0:0:0:
352,256,86416,1,0,0:0:0:0:
384,192,86916,1,0,0:0:0:0:
128,320,87333,1,0,0:0:0:0:
32,192,87916,1,0,0:0:0:0:
32,192,88083,1,0,0:0:0:0:
160,64,88333,1,0,0:0:0:0:
288,96,88583,1,0,0:0:0:0:
352,192,88833,1,0,0:0:0:0:
288,288,89083,1,0,0:0:0:0:
416,160,89416,1,0,0:0:0:0:
320,160,89666,1,0,0:0:0:0:
96,224,89916,1,0,0:0:0:0:
384,32,90166,1,0,0:0:0:0:
352,192,90666,1,0,0:0:0:0:
64,96,91250,1,0,0:0:0:0:
160,224,91666,1,0,0:0:0:0:
128,224,91833,1,0,0:0:0:0:
128,224,91916,1,0,0:0:0:0:
352,96,92333,5,0,0:0:0:0:
256,96,92666,1,0,0:0:0:0:
256,96,92833,1,0,0:0:0:0:
224,96,93000,1,0,0:0:0:0:
320,224,93916,1,0,0:0:0:0:
128,256,94333,1,0,0:0:0:0:
384,320,94833,5,0,0:0:0:0:
416,160,95333,1,0,0:0:0:0:
128,128,95833,1,0,0:0:0:0:
32,96,96250,1,0,0:0:0:0:
480,160,96750,1,0,0:0:0:0:
288,320,97166,1,0,0:0:0:0:
64,320,97666,1,0,0:0:0:0:
288,160,98083,1,0,0:0:0:0:
448,64,98583,1,0,0:0:0:0:
