osu file format v13

[General]
AudioFilename: Pegboard Nerds x MisterWives - Coffins.mp3
AudioLeadIn: 0
PreviewTime: 58344
Countdown: 0
SampleSet: Soft
StackLeniency: 0.7
Mode: 0
LetterboxInBreaks: 1
WidescreenStoryboard: 0

[Editor]
Bookmarks: 5585,27655,28030,46995,47340,47512,48030,48719,49064,49724,49896,50069,50241,50586,50758,51103,51275,51448,51620,51965,52137,52482,52655,52827,53000,53344,53517,53862,54034,54206,54379,54551,54724,54896,58172,60757,61133,61823,62512,63202,63892,64581,65271,65961,66650,67340,68030,68719,94206,94551,94896,95069,95413,95586,95758,95931,96275,96620,96965,97310,97655,97827,98172,98344,98517,98689,99034,99724,100069,100413,100586,100931,101103,101275,101448,101620,101793,101965,105241
DistanceSpacing: 1
BeatDivisor: 4
GridSize: 4
TimelineZoom: 1

[Metadata]
Title:Coffins
TitleUnicode:Coffins
Artist:Pegboard Nerds x MisterWives
ArtistUnicode:Pegboard Nerds x MisterWives
Creator:Timorisu
Version:Insane
Source:
Tags:edm electronic dance music trap
BeatmapID:359411
BeatmapSetID:144771

[Difficulty]
HPDrainRate:7
CircleSize:5
OverallDifficulty:8
ApproachRate:9
SliderMultiplier:1.6
SliderTickRate:2

[Events]
//Background and Video events
0,0,"BRSNS.jpg",0,0
//Break Periods
2,27885,38119
//Storyboard Layer 0 (Background)
//Storyboard Layer 1 (Fail)
//Storyboard Layer 2 (Pass)
//Storyboard Layer 3 (Foreground)
//Storyboard Sound Samples
//Background Colour Transformations
3,100,163,162,255

[TimingPoints]
99,344.827586206897,4,2,0,69,1,0
5616,-100,4,2,2,54,0,0
38719,-100,4,2,0,69,0,0
44236,-100,4,2,0,69,0,0
60788,-100,4,2,0,59,0,1
60810,-100,4,2,0,69,0,0
71823,-100,4,2,0,69,0,1
71844,-100,4,2,0,59,0,0
80099,-66.6666666666667,4,2,0,69,0,0
80443,-100,4,2,0,69,0,0
102857,-100,4,2,0,59,0,0
103202,-100,4,2,0,49,0,0
103547,-100,4,2,0,39,0,0
103892,-100,4,2,0,29,0,0
104236,-100,4,2,0,19,0,0
104581,-100,4,2,0,9,0,0

[Colours]
Combo1 : 128,128,255
Combo2 : 255,15,15
Combo3 : 255,140,26
Combo4 : 255,128,128
Combo5 : 255,96,0

[HitObjects]
416,232,5616,6,0,P|392:308|316:328,1,160,12|0,0:0|0:0,0:0:0:0:
95,232,6306,2,0,P|120:308|195:328,1,160,2|0,0:0|0:0,0:0:0:0:
176,248,6823,2,0,L|236:192,1,80
160,164,7168,1,0,0:0:0:0:
160,164,7340,2,0,P|88:138|20:176,1,160,8|2,0:0|0:0,0:0:0:0:
476,84,8375,6,0,B|452:108|428:108|404:84|380:59|356:59|332:84,1,160,8|0,0:0|0:0,0:0:0:0:
35,84,9064,2,0,B|59:108|83:108|107:84|131:59|155:59|180:84,1,160,2|0,0:0|0:0,0:0:0:0:
139,156,9582,2,0,P|105:175|65:179,1,80
180,224,9926,2,0,P|208:254|244:269,1,80,0|8,0:0|0:0,0:0:0:0:
243,269,10443,1,2,0:0:0:0:
330,176,11133,6,0,B|364:180|380:160|380:160|412:184|452:180|484:152,1,160,8|0,0:0|0:0,0:0:0:0:
182,176,11823,2,0,B|148:180|132:160|132:160|100:184|60:180|28:152,1,160,2|0,0:0|0:0,0:0:0:0:
86,96,12340,2,0,L|80:16,1,80
128,248,12685,1,0,0:0:0:0:
128,248,12857,2,0,P|204:261|261:209,1,160,8|2,0:0|0:0,0:0:0:0:
484,309,13892,6,0,B|412:284|412:284|380:207,1,160,8|0,0:0|0:0,0:0:0:0:
131,207,14581,2,0,B|100:284|100:284|27:309,1,160,2|0,0:0|0:0,0:0:0:0:
48,232,15099,2,0,L|78:157,1,80
152,128,15443,1,0,0:0:0:0:
212,184,15616,2,0,P|267:236|340:216,1,160,8|2,0:0|0:0,0:0:0:0:
190,54,16650,6,0,P|117:78|96:152,1,160,8|0,0:0|0:0,0:0:0:0:
321,54,17340,2,0,P|394:78|417:151,1,160,2|0,0:0|0:0,0:0:0:0:
336,136,17857,1,0,0:0:0:0:
255,120,18030,2,0,P|255:159|276:193,1,80
352,220,18374,2,0,P|422:252|488:212,1,160,8|2,0:0|0:0,0:0:0:0:
36,300,19409,6,0,B|60:276|84:276|108:300|132:325|156:325|180:300,1,160,8|0,0:0|0:0,0:0:0:0:
477,300,20098,2,0,B|453:276|429:276|405:300|381:325|357:325|332:300,1,160,2|0,0:0|0:0,0:0:0:0:
373,228,20616,1,0,0:0:0:0:
416,160,20788,5,2,0:3:0:0:
396,125,20874,1,0,0:0:0:0:
363,102,20960,1,0,0:0:0:0:
326,88,21046,1,0,0:0:0:0:
286,82,21132,1,8,0:0:0:0:
247,76,21219,1,0,0:0:0:0:
209,62,21305,1,0,0:0:0:0:
177,38,21391,1,0,0:0:0:0:
156,4,21478,2,0,P|124:74|157:144,1,160,2|0,0:0|0:0,0:0:0:0:
238,189,21995,1,0,0:0:0:0:
330,208,22167,6,0,B|364:204|380:224|380:224|412:200|452:204|484:232,1,160,8|8,0:0|0:0,0:0:0:0:
182,208,22857,2,0,B|148:204|132:224|132:224|100:200|60:204|28:232,1,160,2|0,0:0|0:0,0:0:0:0:
86,288,23374,1,0,0:0:0:0:
384,136,23719,1,0,0:0:0:0:
384,136,23891,2,0,P|308:123|251:175,1,160,8|2,0:0|0:0,0:0:0:0:
27,74,24926,6,0,B|100:100|100:100|131:176,1,160,8|0,0:0|0:0,0:0:0:0:
380,176,25616,2,0,B|412:100|412:100|484:74,1,160,2|0,0:0|0:0,0:0:0:0:
464,152,26133,1,0,0:0:0:0:
444,228,26305,5,2,0:3:0:0:
409,247,26391,1,0,0:0:0:0:
370,251,26477,1,0,0:0:0:0:
330,244,26563,1,0,0:0:0:0:
293,230,26649,1,8,0:0:0:0:
256,216,26736,1,0,0:0:0:0:
216,209,26822,1,0,0:0:0:0:
177,213,26908,1,0,0:0:0:0:
141,233,26995,2,0,P|107:252|68:249,1,80,2|0,0:0|0:0,0:0:0:0:
293,154,27340,2,0,P|303:192|292:230,1,80
92,176,27685,5,4,1:0:0:0:
212,36,38719,6,0,P|249:141|361:134,1,240
303,79,39409,2,0,P|282:112|281:152,1,80
282,232,39754,2,0,P|161:320|40:224,2,320,2|0|0,0:0|0:0|0:0,0:0:0:0:
87,88,41478,6,0,P|42:152|42:231,1,160
156,176,41995,2,0,P|216:126|231:49,1,160
308,24,42512,2,0,P|276:176|142:255,1,320,2|0,0:0|0:0,0:0:0:0:
200,104,43547,2,0,L|216:200,1,80
280,140,43892,2,0,L|296:236,1,80
471,340,44236,6,0,P|396:326|368:255,1,160
447,264,44754,2,0,P|405:327|328:326,1,160
368,255,45271,2,0,P|345:108|197:87,2,320,2|0|0,0:0|0:0|0:0,0:0:0:0:
72,224,46995,6,0,B|108:300|108:300|180:324,1,160
232,264,47512,2,0,B|160:240|160:240|125:163,1,160
48,139,48030,2,0,P|142:84|204:175,1,240,2|0,0:0|0:0,0:0:0:0:
161,240,48719,1,0,0:0:0:0:
161,240,49064,1,0,0:0:0:0:
161,240,49754,6,0,P|181:273|217:289,1,80,2|0,0:0|0:0,0:0:0:0:
328,208,50099,1,8,0:0:0:0:
375,143,50271,2,0,P|299:134|249:192,1,160
220,268,50788,2,0,P|192:313|148:332,1,80,10|0,0:0|0:0,0:0:0:0:
93,316,51133,5,0,0:0:0:0:
140,248,51305,1,0,0:0:0:0:
196,192,51478,2,0,P|256:196|272:208,1,80,8|0,0:0|0:0,0:0:0:0:
336,252,51823,1,0,0:0:0:0:
478,306,51995,2,0,P|439:310|404:292,1,80,0|10,0:0|0:0,0:0:0:0:
196,192,52512,6,0,P|182:156|189:117,1,80,0|0,0:0|0:0,0:0:0:0:
260,148,52857,1,8,0:0:0:0:
316,204,53030,2,0,P|400:200|432:120,1,160
356,140,53547,2,0,P|380:192|420:212,1,80,10|0,0:0|0:0,0:0:0:0:
469,207,53892,5,0,0:0:0:0:
433,139,54064,2,0,P|420:102|392:74,1,80,0|8,0:0|0:0,0:0:0:0:
356,140,54409,1,0,0:0:0:0:
287,188,54581,1,0,0:0:0:0:
208,208,54754,2,0,P|156:208|124:192,1,80,0|10,0:0|0:0,0:0:0:0:
336,330,55271,6,0,L|296:260,1,80,8|0,0:0|0:0,0:0:0:0:
176,330,55615,2,0,L|216:260,1,80,8|0,0:0|0:0,0:0:0:0:
416,191,55960,2,0,L|336:192,1,80,8|0,0:0|0:0,0:0:0:0:
96,191,56305,2,0,L|176:192,1,80,8|0,0:0|0:0,0:0:0:0:
336,53,56650,2,0,L|296:124,1,80,8|0,0:0|0:0,0:0:0:0:
176,53,56995,2,0,L|215:122,1,80,8|0,0:0|0:0,0:0:0:0:
260,192,57340,5,8,0:0:0:0:
275,228,57426,1,0,0:0:0:0:
302,258,57512,1,0,0:0:0:0:
337,277,57598,1,0,0:0:0:0:
376,283,57684,1,8,0:0:0:0:
415,277,57771,1,0,0:0:0:0:
450,257,57857,1,0,0:0:0:0:
476,228,57943,1,0,0:0:0:0:
492,191,58029,1,0,0:0:0:0:
256,192,60443,53,8,0:0:0:0:
352,64,60788,21,4,0:0:0:0:
160,64,61133,2,0,L|108:128,1,80,8|0,0:0|0:0,0:0:0:0:
60,186,61478,2,0,P|99:192|129:217,1,80,0|0,0:0|1:0,0:0:0:0:
136,292,61823,2,0,P|96:286|66:261,1,80,8|0,0:0|0:0,0:0:0:0:
129,217,62167,1,0,1:0:0:0:
204,264,62340,1,0,0:0:0:0:
228,348,62512,2,0,P|272:296|376:328,1,160,8|0,0:0|0:0,0:0:0:0:
204,264,63030,1,0,1:0:0:0:
304,368,63202,2,0,P|339:384|379:383,1,80,8|0,0:0|0:0,0:0:0:0:
128,376,63546,1,0,1:0:0:0:
356,306,63719,1,0,0:0:0:0:
276,296,63892,6,0,P|247:268|233:231,1,80,8|0,0:0|0:0,0:0:0:0:
290,99,64236,2,0,P|340:157|312:227,1,160,0|8,0:0|0:0,0:0:0:0:
260,168,64754,1,0,0:0:0:0:
328,32,64926,2,0,P|368:56|392:88,1,80,0|0,1:0|0:0,0:0:0:0:
260,168,65271,2,0,P|220:144|196:112,1,80,8|0,0:0|0:0,0:0:0:0:
91,6,65616,2,0,P|126:25|152:56,1,80,0|0,0:0|1:0,0:0:0:0:
47,206,65961,2,0,P|102:154|76:84,1,160,8|0,0:0|1:0,0:0:0:0:
28,136,66478,1,0,0:0:0:0:
68,276,66650,6,0,P|116:260|148:272,1,80,8|0,0:0|0:0,0:0:0:0:
340,263,66995,2,0,P|288:319|212:308,1,160,0|8,0:0|0:0,0:0:0:0:
262,245,67512,1,0,0:0:0:0:
391,174,67685,2,0,P|352:167|316:183,1,80,0|0,1:0|0:0,0:0:0:0:
512,242,68030,2,0,B|502:227|462:227|442:247|422:266|382:266|363:247,1,160,8|0,0:0|0:0,0:0:0:0:
316,312,68547,2,0,L|276:384,1,80,0|8,1:0|0:0,0:0:0:0:
262,245,68892,6,0,L|184:268,1,80,0|0,0:0|0:0,0:0:0:0:
143,267,69150,1,0,0:0:0:0:
106,254,69236,1,0,0:0:0:0:
80,224,69322,1,0,0:0:0:0:
71,186,69408,1,0,0:0:0:0:
82,148,69494,1,0,0:0:0:0:
109,119,69581,1,0,0:0:0:0:
147,107,69667,1,0,0:0:0:0:
180,116,69754,1,0,0:0:0:0:
204,136,69840,1,0,0:0:0:0:
228,156,69926,1,0,0:0:0:0:
260,168,70012,1,0,0:0:0:0:
288,172,70099,1,0,0:0:0:0:
316,172,70185,5,0,0:0:0:0:
344,164,70271,1,0,0:0:0:0:
368,148,70357,1,0,0:0:0:0:
388,132,70443,1,0,0:0:0:0:
404,120,70530,1,0,0:0:0:0:
424,112,70616,1,0,0:0:0:0:
444,108,70702,1,0,0:0:0:0:
464,108,70788,6,0,L|488:120,2,20
444,172,70961,2,0,L|420:184,2,20
488,228,71133,2,0,L|512:240,2,20
384,284,71305,1,0,0:0:0:0:
384,284,71392,1,0,0:0:0:0:
384,284,71478,2,0,P|352:306|312:306,1,80
249,259,71823,5,4,0:0:0:0:
460,300,72167,2,0,P|480:333|520:348,1,80
379,207,72512,2,0,P|319:159|321:82,1,160,8|0,0:0|0:0,0:0:0:0:
396,124,73030,1,0,0:0:0:0:
455,175,73202,2,0,P|461:214|447:252,1,80
376,292,73547,2,0,P|302:315|241:269,1,160,0|8,1:0|0:0,0:0:0:0:
139,159,74064,2,0,P|177:170|203:199,1,80
316,240,74409,2,0,P|347:216|387:213,1,80,0|0,0:0|1:0,0:0:0:0:
276,176,74754,1,0,0:0:0:0:
216,123,74926,6,0,P|246:99|286:96,1,80
152,83,75271,2,0,P|212:33|291:25,1,160,8|0,0:0|0:0,0:0:0:0:
360,68,75788,1,0,0:0:0:0:
485,156,75961,2,0,P|446:152|416:128,1,80
478,234,76305,2,0,P|410:266|411:342,1,160,0|8,1:0|0:0,0:0:0:0:
472,304,76823,1,0,0:0:0:0:
344,352,76995,2,0,B|319:347|319:347|296:359|296:359|271:355|271:355|249:367|249:367|224:362|224:362|201:374|201:374|176:370|176:370,1,160,0|0,0:0|1:0,0:0:0:0:
187,82,77685,6,0,P|186:122|212:152,1,80
324,301,78030,2,0,P|325:261|300:232,1,80,8|0,0:0|0:0,0:0:0:0:
292,152,78374,2,0,P|368:138|396:64,1,160
316,76,78892,1,0,0:0:0:0:
220,232,79064,2,0,P|144:246|117:321,1,160,0|8,1:0|0:0,0:0:0:0:
195,306,79581,2,0,P|239:310|271:290,2,80
447,208,80099,6,0,B|413:201|413:201|382:217|382:217|348:212|348:212|318:228|318:228|285:221|285:221|254:237|254:237|220:232|220:232,1,240.000009155274,0|0,1:0|0:0,0:0:0:0:
308,156,80616,37,0,0:0:0:0:
360,284,80788,2,0,P|303:336|228:320,1,160,8|0,0:0|0:0,0:0:0:0:
220,188,81305,1,0,0:0:0:0:
124,216,81478,6,0,L|100:196,4,20
192,260,81823,2,0,P|240:264|276:240,1,80,0|0,1:0|0:0,0:0:0:0:
315,304,82167,2,0,P|240:340|160:324,1,160,8|0,0:0|0:0,0:0:0:0:
166,327,82857,1,4,0:0:0:0:
288,112,83202,6,0,P|296:156|328:184,1,80
368,116,83547,2,0,B|436:72|436:72|460:-4,1,160,8|0,0:0|0:0,0:0:0:0:
496,116,84064,1,0,0:0:0:0:
376,28,84236,2,0,P|336:52|288:52,1,80
151,78,84581,2,0,P|184:57|224:52,1,80,0|0,1:0|0:0,0:0:0:0:
288,112,84926,1,8,0:0:0:0:
336,176,85099,1,0,0:0:0:0:
268,220,85271,1,0,0:0:0:0:
220,156,85444,1,0,0:0:0:0:
288,112,85616,6,0,P|336:176|432:176,1,160,0|0,1:0|0:0,0:0:0:0:
220,156,86133,2,0,P|192:183|153:188,1,80,0|8,0:0|0:0,0:0:0:0:
156,107,86478,1,0,0:0:0:0:
268,220,86650,2,0,P|302:238|341:232,1,80,0|0,0:0|0:0,0:0:0:0:
408,184,86995,1,0,0:0:0:0:
512,294,87167,2,0,B|476:288|476:288|448:256,1,80,0|0,0:0|1:0,0:0:0:0:
447,255,87685,1,8,0:0:0:0:
256,192,88030,1,0,0:0:0:0:
256,192,88202,1,0,0:0:0:0:
256,192,88374,1,0,1:0:0:0:
100,228,88719,6,0,P|124:268|164:280,1,80
340,360,89064,2,0,P|305:291|229:279,2,160,8|0|0,0:0|0:0|0:0,0:0:0:0:
259,356,89926,2,0,P|220:362|182:345,1,80,0|0,0:0|1:0,0:0:0:0:
229,278,90271,1,0,0:0:0:0:
310,290,90443,2,0,P|348:302|388:296,1,80,8|0,0:0|0:0,0:0:0:0:
509,369,90788,2,0,P|471:357|432:364,1,80
310,290,91133,1,0,1:0:0:0:
256,192,91478,12,0,93892,0:0:0:0:
216,240,94236,6,0,P|142:216|116:143,2,160
296,240,95099,2,0,P|368:216|394:143,1,160
308,152,95616,1,0,0:0:0:0:
308,152,95788,1,0,0:0:0:0:
308,152,95961,2,0,P|333:78|406:55,2,160,0|0|2,0:0|0:0|0:0,0:0:0:0:
204,152,96995,6,0,P|183:77|111:49,2,160
256,212,97857,2,0,L|256:372,1,160
320,324,98374,1,0,0:0:0:0:
256,372,98547,1,0,0:0:0:0:
192,324,98719,2,0,P|160:280|52:284,1,160,0|0,0:0|0:0,0:0:0:0:
256,212,99409,1,2,0:0:0:0:
320,324,99754,6,0,P|352:280|460:284,2,160
192,324,100616,2,0,P|160:280|52:284,1,160
48,196,101133,1,0,0:0:0:0:
104,140,101305,1,0,0:0:0:0:
223,89,101478,1,0,0:0:0:0:
156,200,101650,1,0,0:0:0:0:
145,71,101823,1,0,0:0:0:0:
230,169,101995,1,0,0:0:0:0:
104,140,102167,1,2,0:0:0:0:
256,192,102512,12,0,104926,0:0:0:0:
