osu file format v14

[General]
AudioFilename: Pegboard Nerds - We Are One (feat. Splitbreed)~1.mp3
AudioLeadIn: 0
PreviewTime: 101977
Countdown: 0
SampleSet: Normal
StackLeniency: 0.3
Mode: 0
LetterboxInBreaks: 1
WidescreenStoryboard: 0

[Editor]
DistanceSpacing: 1.7
BeatDivisor: 8
GridSize: 4
TimelineZoom: 1.4

[Metadata]
Title:We Are One (Original Vocal Mix)
TitleUnicode:We Are One (Original Vocal Mix)
Artist:Pegboard Nerds
ArtistUnicode:Pegboard Nerds
Creator:Frey
Version:Night Begins
Source:
Tags:12 aftermath dubstep drumstep glitch hop
BeatmapID:1279815
BeatmapSetID:605745

[Difficulty]
HPDrainRate:7
CircleSize:4
OverallDifficulty:8.5
ApproachRate:9.3
SliderMultiplier:3.39999990463257
SliderTickRate:1

[Events]
//Background and Video events
0,0,"58286288_p2.jpg",0,0
//Break Periods
2,2364,19064
2,80909,88882
2,137636,145610
//Storyboard Layer 0 (Background)
//Storyboard Layer 1 (Fail)
//Storyboard Layer 2 (Pass)
//Storyboard Layer 3 (Foreground)
//Storyboard Sound Samples

[TimingPoints]
2164,545.454545454546,4,1,1,70,1,0
19618,-100,4,1,1,50,0,0
28345,-100,4,1,1,60,0,0
30527,-100,4,1,1,70,0,0
34891,-100,4,1,1,75,0,0
36527,-83.3333333333333,4,1,1,75,0,0
37073,-100,4,1,1,75,0,0
80709,-100,4,1,0,75,0,0
89436,-100,4,1,1,75,0,0
101982,-83.3333333333333,4,1,1,75,0,0
102527,-83.3333333333333,4,1,1,80,0,1
137436,-100,4,1,0,75,0,0
154891,-100,4,1,1,75,0,0
171800,-83.3333333333333,4,1,0,75,0,0
172345,-83.3333333333333,4,1,1,80,0,1
207254,-100,4,1,0,75,0,0

[Colours]
Combo1 : 238,100,138
Combo2 : 188,253,38
Combo3 : 190,68,225
Combo4 : 28,253,197

[HitObjects]
256,192,527,12,4,2164,3:2:0:0:
300,148,19618,5,6,0:2:0:0:
256,56,19891,1,0,0:0:0:0:
156,40,20164,1,0,0:0:0:0:
84,112,20436,1,0,0:0:0:0:
256,328,20709,5,2,0:2:0:0:
404,300,20982,1,0,0:0:0:0:
464,160,21254,1,0,0:0:0:0:
376,36,21527,1,0,0:0:0:0:
376,36,21800,6,0,P|344:96|368:200,1,169.999995231629,2|0,0:2|0:0,0:0:0:0:
149,192,22345,2,0,P|170:111|136:36,1,169.999995231629,2|0,0:2|0:0,0:0:0:0:
36,296,22891,5,2,0:2:0:0:
268,200,23164,1,0,0:0:0:0:
48,176,23436,1,2,0:2:0:0:
256,320,23709,1,2,0:2:0:0:
136,48,23982,5,2,0:2:0:0:
144,148,24255,1,0,0:0:0:0:
152,248,24527,1,0,0:0:0:0:
60,208,24800,1,0,0:0:0:0:
452,208,25073,5,2,0:2:0:0:
300,179,25345,1,0,0:0:0:0:
144,148,25618,1,0,0:0:0:0:
196,296,25891,1,0,0:0:0:0:
416,112,26164,6,0,P|394:194|389:279,1,169.999995231629,2|0,0:2|0:0,0:0:0:0:
124,278,26709,2,0,P|118:194|96:112,1,169.999995231629,2|0,0:2|0:0,0:0:0:0:
284,248,27254,5,2,0:2:0:0:
228,136,27527,1,0,0:0:0:0:
416,112,27800,1,2,0:2:0:0:
96,272,28073,1,2,0:2:0:0:
44,89,28345,6,0,P|136:100|208:56,1,169.999995231629,4|2,0:2|0:2,0:0:0:0:
280,0,28754,1,0,0:0:0:0:
380,16,28891,2,0,P|368:96|368:128,1,84.9999976158143,4|0,0:0|0:0,0:0:0:0:
216,220,29164,2,0,P|136:208|104:208,1,84.9999976158143,2|0,0:2|0:0,0:0:0:0:
295,300,29436,6,0,P|356:243|439:247,1,169.999995231629,4|2,0:0|0:2,0:0:0:0:
392,340,29845,1,0,0:0:0:0:
216,368,29982,2,0,P|160:356|104:348,1,84.9999976158143,4|0,0:0|0:0,0:0:0:0:
97,242,30254,2,0,P|139:249|181:259,1,84.9999976158143,2|0,0:2|0:0,0:0:0:0:
331,259,30527,6,0,P|379:191|360:112,1,169.999995231629,4|2,0:0|0:2,0:0:0:0:
212,164,30936,1,0,0:0:0:0:
324,16,31073,2,0,P|380:12|416:4,1,84.9999976158143,4|0,0:0|0:0,0:0:0:0:
180,68,31345,2,0,P|137:65|95:58,1,84.9999976158143,2|0,0:2|0:0,0:0:0:0:
256,192,31618,6,0,B|244:272|268:280|256:364,1,169.999995231629,4|2,0:0|0:2,0:0:0:0:
168,312,32027,1,0,0:0:0:0:
348,240,32164,2,0,P|404:252|432:280,1,84.9999976158143,4|0,0:0|0:0,0:0:0:0:
488,72,32436,2,0,L|403:81,1,84.9999976158143,2|0,0:2|0:0,0:0:0:0:
300,96,32709,6,0,P|294:53|291:11,1,84.9999976158143,4|0,0:0|0:0,0:0:0:0:
415,184,32982,2,0,P|420:226|423:268,1,84.9999976158143,4|0,0:0|0:0,0:0:0:0:
168,152,33254,2,0,P|162:109|159:67,1,84.9999976158143,4|0,0:0|0:0,0:0:0:0:
283,240,33527,2,0,P|288:282|291:324,1,84.9999976158143,4|0,0:0|0:0,0:0:0:0:
150,295,33800,6,0,P|108:293|66:287,1,84.9999976158143,4|0,0:0|0:0,0:0:0:0:
243,59,34073,2,0,P|200:61|158:67,1,84.9999976158143,4|0,0:0|0:0,0:0:0:0:
367,248,34345,2,0,P|324:245|282:239,1,84.9999976158143,4|0,0:0|0:0,0:0:0:0:
464,108,34618,2,0,P|421:110|379:116,1,84.9999976158143,4|0,0:0|0:0,0:0:0:0:
232,144,34891,5,4,0:0:0:0:
368,248,35027,1,4,0:0:0:0:
196,220,35164,2,0,P|140:192|92:172,1,84.9999976158143,2|0,0:2|0:0,0:0:0:0:
136,64,35436,5,4,0:0:0:0:
108,276,35573,1,4,0:0:0:0:
280,152,35709,2,0,P|302:113|336:68,1,84.9999976158143,2|0,0:2|0:0,0:0:0:0:
108,276,35982,5,4,0:0:0:0:
368,248,36118,1,4,0:0:0:0:
119,183,36254,2,0,P|72:179|16:168,1,84.9999976158143,2|0,0:2|0:0,0:0:0:0:
224,36,36527,6,2,P|300:31|374:14,1,152.999991039276,2|0,0:0|2:0,0:0:0:0:
408,192,36800,2,0,P|336:188|288:260,1,152.999991039276,2|0,0:2|2:0,2:0:0:0:
222,344,37073,6,4,P|108:311|104:192,1,254.999992847443,4|0,0:0|0:0,0:0:0:0:
328,64,37618,2,0,B|235:53|235:53|172:92|172:92|72:80,1,254.999992847443,8|0,0:0|0:0,0:0:0:0:
48,288,38164,5,0,0:0:0:0:
12,176,38300,1,4,0:0:0:0:
164,304,38436,2,0,P|180:232|200:188,1,84.9999976158143,2|0,0:2|0:0,0:0:0:0:
465,118,38709,2,0,P|408:177|328:163,1,169.999995231629,8|2,0:0|0:2,0:0:0:0:
256,68,39118,1,0,0:0:0:0:
108,132,39254,6,0,P|92:236|84:340,1,169.999995231629,4|2,0:0|0:2,0:0:0:0:
256,192,39664,1,0,0:0:0:0:
119,39,39800,2,0,P|40:60|15:137,1,169.999995231629,8|2,0:0|0:2,0:0:0:0:
86,300,40209,1,0,0:0:0:0:
196,348,40345,5,4,0:0:0:0:
180,228,40482,2,0,P|120:208|68:176,1,84.9999976158143,0|2,0:0|0:2,0:0:0:0:
316,348,40754,1,0,0:0:0:0:
426,300,40891,2,0,P|472:228|440:144,1,169.999995231629,8|2,0:0|2:0,0:0:0:0:
155,53,41436,6,0,P|239:43|324:32,1,169.999995231629,4|2,0:0|0:2,0:0:0:0:
444,12,41845,1,0,0:0:0:0:
352,240,41982,2,0,P|264:228|232:184,1,127.499996423721,8|0,0:0|3:0,0:0:0:0:
240,202,42254,2,0,P|232:126|232:86,1,84.9999976158143,2|0,0:2|0:0,0:0:0:0:
384,124,42527,5,4,0:0:0:0:
468,208,42664,1,0,0:0:0:0:
352,240,42800,2,0,P|284:264|240:284,1,84.9999976158143,2|0,0:2|0:0,0:0:0:0:
76,306,43073,2,0,P|32:236|36:152,1,169.999995231629,8|2,0:0|0:2,0:0:0:0:
176,200,43482,1,0,0:0:0:0:
220,340,43618,6,0,P|303:353|388:358,1,169.999995231629,4|2,0:0|0:2,0:0:0:0:
412,156,44027,1,0,0:0:0:0:
247,105,44164,2,0,P|227:186|271:256,1,169.999995231629,8|2,0:0|0:2,0:0:0:0:
368,328,44573,1,0,0:0:0:0:
472,272,44709,2,0,L|480:164,1,84.9999976158143
340,4,44982,2,0,L|255:9,1,84.9999976158143,2|0,0:2|0:0,0:0:0:0:
40,112,45254,1,8,0:0:0:0:
40,112,45800,6,0,P|24:195|23:280,1,169.999995231629,4|0,0:0|0:0,0:0:0:0:
124,296,46209,1,0,0:0:0:0:
247,111,46345,2,0,P|198:46|116:47,1,169.999995231629,8|0,0:0|0:0,0:0:0:0:
128,192,46754,1,0,0:0:0:0:
340,156,46891,6,0,P|408:144|464:140,1,84.9999976158143,4|0,0:0|0:0,0:0:0:0:
288,340,47164,2,0,P|245:345|204:353,1,84.9999976158143
89,177,47436,2,0,P|171:196|255:211,1,169.999995231629,8|0,0:0|0:0,0:0:0:0:
356,232,47845,1,0,0:0:0:0:
471,159,47982,6,0,P|471:103|447:19,1,127.499996423721,4|0,0:0|3:0,0:0:0:0:
454,34,48254,2,0,P|396:24|348:8,1,84.9999976158143
124,105,48527,2,0,P|207:87|292:84,2,169.999995231629,8|0|4,0:0|0:0|0:0,0:0:0:0:
28,176,49209,5,0,0:0:0:0:
100,300,49345,1,0,0:0:0:0:
212,204,49482,1,0,0:0:0:0:
284,328,49618,2,0,P|348:352|380:376,1,84.9999976158143,8|0,0:0|0:0,0:0:0:0:
240,104,49891,2,0,P|198:114|156:117,1,84.9999976158143
36,300,50164,6,0,P|92:364|200:356,1,169.999995231629,4|0,0:0|0:0,0:0:0:0:
284,328,50573,1,0,0:0:0:0:
192,252,50709,2,0,L|100:236,1,84.9999976158143,8|0,0:0|0:0,0:0:0:0:
320,132,50982,2,0,L|403:117,1,84.9999976158143
226,31,51254,6,0,P|145:43|108:116,1,169.999995231629,4|0,0:0|0:0,0:0:0:0:
256,192,51664,1,0,0:0:0:0:
403,116,51800,2,0,P|391:64|383:16,1,84.9999976158143,8|0,0:0|0:0,0:0:0:0:
376,236,52073,2,0,P|385:277|393:319,1,84.9999976158143
256,192,52345,6,0,B|168:200|184:264|88:248,1,169.999995231629,4|0,0:0|0:0,0:0:0:0:
8,204,52754,1,0,0:0:0:0:
68,40,52891,2,0,P|136:48|252:56,1,169.999995231629,8|0,0:0|0:0,0:0:0:0:
340,60,53300,1,0,0:0:0:0:
172,324,53436,1,4,0:0:0:0:
340,360,54527,6,0,P|356:248|368:168,1,169.999995231629,4|2,0:0|0:2,0:0:0:0:
388,36,54936,1,0,0:0:0:0:
512,132,55073,2,0,P|469:128|427:120,1,84.9999976158143,8|0,0:0|0:0,0:0:0:0:
180,296,55345,2,0,P|222:292|264:284,1,84.9999976158143,2|0,0:2|0:0,0:0:0:0:
200,88,55618,5,4,0:0:0:0:
98,103,55754,2,0,P|70:167|94:279,1,169.999995231629
414,281,56164,2,0,P|442:217|418:105,1,169.999995231629,8|0,0:0|0:0,0:0:0:0:
312,296,56573,1,0,0:0:0:0:
296,193,56709,6,0,L|275:39,1,127.499996423721,4|0,0:0|3:0,0:0:0:0:
279,67,56982,2,0,P|352:80|400:84,1,84.9999976158143
232,316,57254,2,0,P|160:304|112:300,1,84.9999976158143,8|0,0:0|0:0,0:0:0:0:
76,104,57527,1,0,0:0:0:0:
64,224,57664,1,0,0:0:0:0:
256,192,57800,6,0,P|328:180|372:152,1,84.9999976158143,4|0,0:0|0:0,0:0:0:0:
436,104,58073,1,0,0:0:0:0:
448,224,58209,1,0,0:0:0:0:
171,279,58345,2,2,P|130:208|154:129,1,169.999995231629,10|0,0:0|0:0,0:0:0:0:
288,308,58754,1,0,0:0:0:0:
259,67,58891,6,0,P|159:51|103:47,1,127.499996423721,4|0,0:0|0:0,0:0:0:0:
133,49,59164,2,0,P|68:76|40:100,1,84.9999976158143
182,333,59436,2,0,P|224:327|264:312,1,84.9999976158143,8|0,0:0|0:0,0:0:0:0:
81,218,59709,2,0,P|39:224|0:239,1,84.9999976158143
64,324,59982,5,0,0:0:0:0:
239,148,60118,2,0,P|155:120|139:24,1,169.999995231629
273,235,60527,2,0,P|351:258|379:335,1,169.999995231629,8|0,0:0|0:0,0:0:0:0:
276,340,60936,1,0,0:0:0:0:
246,88,61073,5,4,0:0:0:0:
393,61,61209,1,0,0:0:0:0:
420,208,61345,1,0,0:0:0:0:
273,235,61482,2,0,P|221:247|189:251,1,84.9999976158143,0|8,0:0|0:0,0:0:0:0:
120,64,61754,1,0,0:0:0:0:
4,36,61891,1,0,0:0:0:0:
36,152,62027,1,0,0:0:0:0:
151,179,62164,6,0,P|193:173|234:163,1,84.9999976158143,4|0,0:0|0:0,0:0:0:0:
408,124,62436,1,0,0:0:0:0:
320,20,62573,1,0,0:0:0:0:
188,48,62709,1,8,0:0:0:0:
151,179,62845,1,0,0:0:0:0:
280,332,62982,2,0,P|352:344|384:364,1,84.9999976158143
280,52,63254,6,0,P|200:96|104:92,1,169.999995231629,4|0,0:0|0:0,0:0:0:0:
44,164,63664,1,0,0:0:0:0:
64,264,63800,1,8,0:0:0:0:
24,64,63936,1,0,0:0:0:0:
200,24,64073,1,0,0:0:0:0:
144,196,64209,1,0,0:0:0:0:
24,64,64345,6,0,P|88:52|120:40,1,84.9999976158143,4|0,0:0|0:0,0:0:0:0:
320,156,64618,2,0,P|256:168|224:180,1,84.9999976158143
404,0,64891,2,0,P|472:36|500:44,1,84.9999976158143,8|0,0:0|0:0,0:0:0:0:
300,256,65164,5,2,0:2:0:0:
260,72,65300,1,0,0:0:0:0:
444,116,65436,6,0,P|456:184|400:292,1,169.999995231629,4|0,0:0|0:0,0:0:0:0:
300,256,65845,1,0,0:0:0:0:
180,236,65982,2,0,L|172:152,1,84.9999976158143,8|0,0:0|0:0,0:0:0:0:
341,151,66254,5,2,0:2:0:0:
208,320,66391,1,0,0:0:0:0:
40,192,66527,6,0,L|56:360,1,169.999995231629,4|0,0:0|0:0,0:0:0:0:
256,232,66936,1,0,0:0:0:0:
275,366,67073,2,0,P|234:357|191:351,1,84.9999976158143,8|0,0:0|0:0,0:0:0:0:
108,120,67345,2,0,P|184:112|224:104,1,84.9999976158143
348,290,67618,6,0,P|398:254|404:193,1,127.499996423721,4|0,0:0|3:0,0:0:0:0:
404,193,67891,2,0,P|362:190|320:184,1,84.9999976158143
0,228,68164,1,8,0:0:0:0:
108,120,68300,1,0,0:0:0:0:
148,268,68436,2,0,P|136:332|116:368,1,84.9999976158143
8,132,68709,6,0,P|12:64|80:28,1,127.499996423721,4|0,0:0|3:0,0:0:0:0:
56,30,68982,2,0,P|132:20|172:12,1,84.9999976158143
256,228,69254,2,0,P|297:221|340:215,1,84.9999976158143,8|0,0:0|0:0,0:0:0:0:
160,160,69527,1,0,0:0:0:0:
268,108,69664,1,0,0:0:0:0:
202,320,69800,6,0,P|122:336|55:287,1,169.999995231629,4|0,0:0|0:0,0:0:0:0:
160,160,70209,1,0,0:0:0:0:
309,320,70345,2,0,P|389:336|456:287,1,169.999995231629,4|0,0:0|0:0,0:0:0:0:
352,160,70754,1,0,0:0:0:0:
192,68,70891,6,0,B|120:76|120:76|92:100|92:100|0:112,1,169.999995231629,4|0,0:0|0:0,0:0:0:0:
28,212,71300,1,0,0:0:0:0:
147,307,71436,2,0,P|149:265|131:228,1,84.9999976158143,8|0,0:0|0:0,0:0:0:0:
364,75,71709,2,0,P|362:118|380:155,1,84.9999976158143
256,384,71982,6,0,P|272:304|256:216,1,169.999995231629,4|0,0:0|0:0,0:0:0:0:
148,124,72391,1,0,0:0:0:0:
4,156,72527,2,0,P|15:249|28:332,1,169.999995231629,8|0,0:0|0:0,0:0:0:0:
104,264,72936,1,0,0:0:0:0:
208,56,73073,6,0,P|166:46|125:34,1,84.9999976158143,4|0,0:0|0:0,0:0:0:0:
300,192,73345,2,0,P|341:182|382:170,1,84.9999976158143
104,264,73618,2,2,P|84:208|128:128,1,127.499996423721,10|0,0:0|3:0,0:0:0:0:
106,146,73891,2,0,P|147:136|188:124,1,84.9999976158143
360,80,74164,5,4,0:0:0:0:
372,256,74300,1,0,0:0:0:0:
216,336,74436,2,0,P|200:292|192:240,1,84.9999976158143
298,148,74709,2,0,P|340:155|381:169,1,84.9999976158143,8|0,0:0|0:0,0:0:0:0:
472,220,74982,1,0,0:0:0:0:
296,336,75118,1,0,0:0:0:0:
196,150,75254,6,0,P|188:82|188:42,1,84.9999976158143,4|0,0:0|0:0,0:0:0:0:
76,248,75527,2,0,P|84:316|84:356,1,84.9999976158143
0,30,75800,2,2,P|52:78|124:62,1,127.499996423721,10|0,0:0|3:0,0:0:0:0:
104,74,76073,2,0,P|172:66|212:66,1,84.9999976158143
424,204,76345,6,0,P|381:248|319:248,1,127.499996423721,4|0,0:0|3:0,0:0:0:0:
319,248,76618,2,0,P|321:205|327:163,1,84.9999976158143
344,44,76891,2,0,P|416:32|492:116,1,169.999995231629,8|0,0:0|0:0,0:0:0:0:
424,204,77300,1,0,0:0:0:0:
232,184,77436,6,0,P|168:174|132:166,1,84.9999976158143,4|0,0:0|0:0,0:0:0:0:
216,352,77709,2,0,P|257:343|299:338,1,84.9999976158143,4|0,0:0|0:0,0:0:0:0:
204,88,77982,1,8,0:0:0:0:
64,228,78118,1,0,0:0:0:0:
10,35,78254,2,0,P|42:62|82:78,1,84.9999976158143
332,188,78527,6,0,P|256:156|180:188,1,169.999995231629,4|0,0:0|0:0,0:0:0:0:
256,320,78936,1,0,0:0:0:0:
408,248,79073,2,0,L|432:72,1,169.999995231629,4|0,0:0|0:0,0:0:0:0:
81,79,79482,1,4,0:0:0:0:
81,79,79550,1,4,0:0:0:0:
81,79,79618,6,0,L|96:188,1,84.9999976158143,4|4,0:0|0:0,0:0:0:0:
316,348,79891,2,0,L|327:263,1,84.9999976158143
184,264,80164,2,0,L|195:348,1,84.9999976158143,4|0,0:0|0:0,0:0:0:0:
419,163,80436,2,0,L|430:79,1,84.9999976158143
81,79,80709,5,4,0:0:0:0:
44,260,89436,6,0,P|128:236|204:284,1,169.999995231629,4|2,0:0|0:2,0:0:0:0:
240,356,89845,1,0,0:0:0:0:
332,340,89982,2,0,L|436:320,1,84.9999976158143,4|0,0:0|0:0,0:0:0:0:
480,256,90254,2,0,P|452:192|456:152,1,84.9999976158143,2|0,0:2|0:0,0:0:0:0:
359,9,90527,6,0,P|333:87|256:112,1,169.999995231629,4|2,0:0|0:2,0:0:0:0:
176,60,90936,1,0,0:0:0:0:
84,56,91073,2,0,P|36:88|16:132,1,84.9999976158143,4|0,0:0|0:0,0:0:0:0:
0,200,91345,2,0,L|20:308,1,84.9999976158143,2|0,0:2|0:0,0:0:0:0:
248,364,91618,6,0,L|216:197,1,169.999995231629,4|2,0:0|0:2,0:0:0:0:
255,111,92027,1,0,0:0:0:0:
344,144,92164,2,0,P|392:144|432:120,1,84.9999976158143,4|0,0:0|0:0,0:0:0:0:
480,204,92436,2,0,P|474:251|472:300,1,84.9999976158143,2|0,0:2|0:0,0:0:0:0:
324,256,92709,6,0,L|128:296,1,169.999995231629,4|2,0:0|0:2,0:0:0:0:
115,376,93118,1,0,0:0:0:0:
64,296,93254,2,0,P|60:248|80:208,1,84.9999976158143,4|0,0:0|0:0,0:0:0:0:
132,140,93527,2,0,L|48:123,1,84.9999976158143,2|0,0:2|0:0,0:0:0:0:
256,44,93800,6,0,P|336:68|400:8,1,169.999995231629,4|2,0:0|0:2,0:0:0:0:
476,64,94209,1,0,0:0:0:0:
507,151,94345,2,0,P|515:193|511:235,1,84.9999976158143,4|0,0:0|0:0,0:0:0:0:
424,196,94618,2,0,L|316:208,1,84.9999976158143,2|0,0:2|0:0,0:0:0:0:
256,324,94891,6,0,L|86:306,1,169.999995231629,4|2,0:0|0:2,0:0:0:0:
32,232,95300,1,0,0:0:0:0:
44,140,95436,2,0,P|80:140|140:112,1,84.9999976158143,4|0,0:0|0:0,0:0:0:0:
219,99,95709,2,0,P|217:142|201:181,1,84.9999976158143,2|0,0:2|0:0,0:0:0:0:
292,284,95982,6,0,P|293:241|309:202,1,84.9999976158143,4|0,0:0|0:0,0:0:0:0:
467,278,96254,2,0,P|425:276|386:260,1,84.9999976158143,4|0,0:0|0:0,0:0:0:0:
348,116,96527,2,0,P|387:100|429:98,1,84.9999976158143,4|0,0:0|0:0,0:0:0:0:
164,268,96800,2,0,P|124:283|82:285,1,84.9999976158143,4|0,0:0|0:0,0:0:0:0:
8,192,97073,6,0,L|20:92,1,84.9999976158143,4|0,0:0|0:0,0:0:0:0:
152,120,97345,2,0,L|164:20,1,84.9999976158143,4|0,0:0|0:0,0:0:0:0:
349,179,97618,2,0,L|360:264,1,84.9999976158143,4|0,0:0|0:0,0:0:0:0:
493,251,97890,2,0,L|504:336,1,84.9999976158143,4|0,0:0|0:0,0:0:0:0:
480,154,98164,5,0,0:0:0:0:
349,179,98300,1,0,0:0:0:0:
392,52,98436,2,0,P|440:48|484:28,1,84.9999976158143,2|0,0:2|0:0,0:0:0:0:
319,259,98709,5,0,0:0:0:0:
188,232,98846,1,0,0:0:0:0:
276,132,98982,2,0,P|315:147|357:149,1,84.9999976158143,2|0,0:2|0:0,0:0:0:0:
184,48,99254,5,0,0:0:0:0:
184,48,99391,1,0,0:0:0:0:
68,68,99527,1,2,0:2:0:0:
68,68,99664,1,0,0:0:0:0:
144,160,99800,1,0,0:0:0:0:
144,160,99937,1,0,0:0:0:0:
360,199,100073,1,2,0:2:0:0:
360,199,100210,1,0,0:0:0:0:
319,89,100345,6,0,L|328:48,7,42.4999988079071
435,109,100891,2,0,L|444:68,7,42.4999988079071
424,192,101436,1,0,0:0:0:0:
408,193,101504,1,0,0:0:0:0:
392,195,101572,1,0,0:0:0:0:
376,197,101640,1,0,0:0:0:0:
360,199,101708,1,0,0:0:0:0:
344,201,101776,1,0,0:0:0:0:
329,203,101845,1,0,0:0:0:0:
313,205,101913,1,0,0:0:0:0:
296,208,101982,6,2,P|268:144|336:72,1,152.999991039276,2|0,0:0|2:0,2:0:0:0:
504,100,102254,2,2,L|484:280,1,152.999991039276,2|0,0:2|2:0,0:2:0:0:
407,340,102527,6,2,L|256:360,1,152.999991039276,6|0,0:0|3:0,0:0:0:0:
180,312,102800,2,0,L|69:328,1,101.999994026184
24,128,103073,2,2,P|88:180|172:156,1,152.999991039276,10|0,0:0|3:0,0:0:0:0:
215,232,103345,2,2,P|236:160|199:95,1,152.999991039276,2|0,0:0|3:0,0:0:0:0:
199,95,103618,5,4,0:0:0:0:
304,56,103754,1,0,0:0:0:0:
392,128,103891,1,2,0:2:0:0:
356,236,104027,1,0,0:0:0:0:
153,170,104164,2,2,P|165:342|169:366,1,152.999991039276,10|0,0:0|3:0,0:0:0:0:
162,322,104436,2,0,P|260:337|276:341,1,101.999994026184,2|0,3:2|0:0,0:0:0:0:
444,256,104709,6,2,P|460:186|472:104,1,152.999991039276,6|0,0:0|3:0,0:0:0:0:
400,56,104982,2,0,P|386:115|380:168,1,101.999994026184
219,68,105254,2,2,P|144:55|70:37,1,152.999991039276,10|0,0:0|3:0,0:0:0:0:
204,156,105527,2,2,P|276:142|308:76,1,152.999991039276,2|0,0:0|3:0,0:0:0:0:
308,76,105800,5,4,0:0:0:0:
116,136,105936,1,0,0:0:0:0:
188,324,106073,2,0,P|232:348|288:348,1,101.999994026184,2|0,0:2|0:0,0:0:0:0:
512,168,106345,2,2,P|436:179|352:196,1,152.999991039276,10|0,0:0|3:0,0:0:0:0:
276,212,106618,1,0,3:0:0:0:
424,304,106754,1,0,0:0:0:0:
389,76,106891,6,2,P|330:31|256:36,1,152.999991039276,6|0,0:0|3:0,0:0:0:0:
184,88,107164,2,0,P|196:156|204:188,1,101.999994026184
240,324,107436,1,8,0:0:0:0:
300,136,107573,1,2,0:2:0:0:
104,120,107709,1,2,0:2:0:0:
240,324,107845,1,0,0:0:0:0:
184,88,107982,6,2,P|125:41|52:51,1,152.999991039276,6|0,0:0|3:0,0:0:0:0:
8,128,108254,2,0,L|0:232,1,101.999994026184
220,276,108527,1,8,0:0:0:0:
164,176,108664,1,2,0:2:0:0:
0,229,108800,1,2,0:2:0:0:
128,344,108936,1,0,0:0:0:0:
164,176,109073,6,2,P|152:44|144:8,1,152.999991039276,6|0,0:0|3:0,0:0:0:0:
147,24,109345,2,0,P|96:44|48:48,1,101.999994026184,2|0,0:2|0:0,0:0:0:0:
56,300,109618,2,2,P|132:292|192:340,1,152.999991039276,6|0,0:0|3:0,0:0:0:0:
189,336,109891,2,0,P|246:328|325:316,1,101.999994026184,2|0,0:2|0:0,0:0:0:0:
500,140,110164,6,0,L|298:169,1,203.999988052369,6|2,0:0|0:2,0:0:0:0:
212,96,110573,1,0,0:0:0:0:
292,16,110709,2,0,P|335:41|385:49,1,101.999994026184,8|0,0:0|0:0,0:0:0:0:
398,321,110982,2,0,P|406:271|432:228,1,101.999994026184,8|0,0:0|0:0,0:0:0:0:
136,98,111254,6,2,P|163:168|156:244,1,152.999991039276,6|0,0:0|3:0,0:0:0:0:
114,321,111527,2,0,P|78:285|69:236,1,101.999994026184
256,332,111800,2,2,L|424:346,1,152.999991039276,10|0,0:0|3:0,0:0:0:0:
452,268,112073,2,2,L|299:255,1,152.999991039276,2|0,0:0|3:0,0:0:0:0:
212,248,112345,5,0,0:0:0:0:
232,128,112482,1,0,0:0:0:0:
352,96,112618,1,2,0:2:0:0:
432,188,112754,1,0,0:0:0:0:
256,332,112891,2,2,P|181:335|120:279,1,152.999991039276,10|0,0:0|3:0,0:0:0:0:
124,287,113164,2,0,P|137:204|153:168,1,101.999994026184,2|0,3:2|0:0,0:0:0:0:
345,142,113436,6,2,P|377:211|388:287,1,152.999991039276,6|0,0:0|3:0,0:0:0:0:
384,376,113709,2,0,P|428:352|492:341,1,101.999994026184
345,142,113982,2,2,P|271:152|214:104,1,152.999991039276,10|0,0:0|3:0,0:0:0:0:
363,56,114254,2,2,P|437:45|494:93,1,152.999991039276,2|0,0:0|0:0,0:0:0:0:
493,92,114527,5,4,0:0:0:0:
460,244,114664,1,0,0:0:0:0:
345,142,114800,1,2,0:2:0:0:
311,293,114936,1,0,0:0:0:0:
195,190,115073,2,2,P|120:177|44:175,1,152.999991039276,10|0,0:0|3:0,0:0:0:0:
44,175,115345,1,0,3:0:0:0:
108,304,115482,1,0,0:0:0:0:
279,76,115618,6,2,P|204:89|128:91,1,152.999991039276,6|0,0:0|3:0,0:0:0:0:
296,163,115891,2,0,P|346:161|395:175,1,101.999994026184,0|0,0:0|0:2,0:0:0:0:
488,28,116164,1,8,0:0:0:0:
280,76,116300,1,2,0:2:0:0:
375,268,116436,2,0,P|424:253|475:256,1,101.999994026184,2|0,0:2|0:2,0:0:0:0:
236,376,116709,6,2,P|195:312|201:237,1,152.999991039276,6|0,0:0|3:0,0:0:0:0:
248,164,116982,2,0,P|281:200|287:250,1,101.999994026184
88,356,117254,1,8,0:0:0:0:
0,264,117391,1,2,0:2:0:0:
28,136,117527,1,2,0:2:0:0:
156,104,117664,1,0,0:0:0:0:
256,276,117800,6,2,P|120:256|80:292,1,152.999991039276,6|0,0:0|3:0,0:0:0:0:
115,258,118073,2,0,P|95:303|87:367,1,101.999994026184,2|0,0:2|0:0,0:0:0:0:
256,108,118345,2,2,P|323:140|396:125,1,152.999991039276,6|0,0:0|3:0,0:0:0:0:
397,126,118618,2,0,P|416:80|424:16,1,101.999994026184,2|0,0:2|0:0,0:0:0:0:
88,28,118891,6,2,B|95:88|95:88|112:108|112:108|120:184,1,152.999991039276,6|0,0:0|3:0,0:0:0:0:
118,174,119164,2,0,L|-24:192,1,101.999994026184,2|0,0:2|0:0,0:0:0:0:
132,296,119436,1,8,0:0:0:0:
132,296,119573,1,0,0:0:0:0:
380,296,119709,1,10,0:2:0:0:
380,296,119845,1,0,0:0:0:0:
256,44,119982,6,2,B|284:116|228:116|256:192,1,152.999991039276,6|0,0:0|3:0,0:0:0:0:
332,152,120254,2,0,P|412:164|448:168,1,101.999994026184
176,80,120527,2,2,P|100:91|24:100,1,152.999991039276,10|0,0:0|3:0,0:0:0:0:
0,184,120800,2,2,P|-8:259|24:327,1,152.999991039276,2|0,0:0|3:0,0:0:0:0:
100,372,121073,5,4,0:0:0:0:
255,323,121209,1,0,0:0:0:0:
184,180,121345,2,0,P|108:176|68:172,1,101.999994026184,2|0,0:2|0:0,0:0:0:0:
328,180,121618,2,2,P|412:176|488:168,1,152.999991039276,10|0,0:0|3:0,0:0:0:0:
480,168,121891,2,0,P|476:92|472:52,1,101.999994026184,0|0,3:0|0:0,0:0:0:0:
396,309,122164,6,2,P|323:291|255:323,1,152.999991039276,2|0,0:0|3:0,0:0:0:0:
224,240,122436,2,0,P|212:208|192:116,1,101.999994026184
60,356,122709,2,2,P|68:279|83:205,1,152.999991039276,10|0,0:0|3:0,0:0:0:0:
108,120,122982,2,2,P|164:60|244:64,1,152.999991039276,2|0,0:0|3:0,0:0:0:0:
300,112,123254,5,4,0:0:0:0:
452,88,123391,1,0,0:0:0:0:
312,28,123527,1,2,0:2:0:0:
440,172,123664,1,0,0:0:0:0:
256,268,123800,2,0,P|192:240|176:156,1,152.999991039276,10|0,0:0|3:0,0:0:0:0:
173,164,124073,2,0,P|200:80|208:36,1,101.999994026184,0|0,3:0|0:0,0:0:0:0:
339,164,124345,6,2,P|360:240|396:324,1,152.999991039276,6|0,0:0|3:0,0:0:0:0:
464,356,124618,2,0,P|504:312|508:264,1,101.999994026184
360,56,124891,1,8,0:0:0:0:
256,92,125027,1,2,0:2:0:0:
340,164,125164,1,2,0:2:0:0:
360,56,125300,1,0,0:0:0:0:
152,56,125436,6,2,P|132:128|152:204,1,152.999991039276,6|0,0:0|3:0,0:0:0:0:
192,280,125709,2,0,L|320:296,1,101.999994026184
472,192,125982,1,8,0:0:0:0:
293,92,126118,1,2,0:2:0:0:
240,192,126254,1,2,0:2:0:0:
293,292,126391,1,0,0:0:0:0:
472,192,126527,6,2,L|460:40,1,152.999991039276,6|0,0:0|3:0,0:0:0:0:
459,39,126800,2,0,P|384:52|336:44,1,101.999994026184,2|0,0:2|0:0,0:0:0:0:
240,192,127073,2,2,P|180:168|84:176,1,152.999991039276,6|0,0:0|3:0,0:0:0:0:
93,172,127345,2,0,L|100:70,1,101.999994026184,2|0,0:2|0:0,0:0:0:0:
24,331,127618,6,0,P|121:353|206:302,1,203.999988052369,6|2,0:0|0:2,0:0:0:0:
240,192,128027,1,0,0:0:0:0:
316,280,128164,1,8,0:0:0:0:
316,280,128300,1,0,0:0:0:0:
144,172,128436,1,8,0:0:0:0:
144,172,128573,1,0,0:0:0:0:
316,64,128709,6,2,P|392:74|468:80,1,152.999991039276,6|0,0:0|3:0,0:0:0:0:
512,156,128982,2,0,P|504:208|500:276,1,101.999994026184
208,248,129254,2,2,P|261:196|335:199,1,152.999991039276,10|0,0:0|3:0,0:0:0:0:
368,279,129527,2,2,P|314:330|240:327,1,152.999991039276,2|0,0:0|3:0,0:0:0:0:
152,315,129800,5,4,0:0:0:0:
28,192,129936,1,0,0:0:0:0:
154,70,130073,2,0,L|256:80,1,101.999994026184,2|0,0:2|0:0,0:0:0:0:
454,253,130345,2,2,L|302:269,1,152.999991039276,10|0,0:0|3:0,0:0:0:0:
301,269,130618,2,0,P|300:218|320:172,1,101.999994026184,0|0,3:0|0:0,0:0:0:0:
488,40,130891,6,2,P|516:104|504:196,1,152.999991039276,6|0,0:0|3:0,0:0:0:0:
454,253,131164,2,0,P|448:308|468:352,1,101.999994026184
320,171,131436,2,2,L|167:155,1,152.999991039276,10|0,0:0|3:0,0:0:0:0:
140,72,131709,2,2,P|80:116|7:102,1,152.999991039276,2|0,0:0|3:0,0:0:0:0:
60,32,131982,5,4,0:0:0:0:
228,64,132118,1,0,0:0:0:0:
180,232,132254,2,0,L|140:364,1,101.999994026184,2|0,0:2|0:0,0:0:0:0:
332,152,132527,2,2,L|375:5,1,152.999991039276,10|0,0:0|3:0,0:0:0:0:
375,5,132800,2,0,P|424:28|476:32,1,101.999994026184,0|0,3:0|0:0,0:0:0:0:
512,264,133073,6,2,P|412:260|364:304,1,152.999991039276,6|0,0:0|3:0,0:0:0:0:
336,368,133345,2,0,P|285:362|239:340,1,101.999994026184,0|0,3:0|0:0,0:0:0:0:
144,232,133618,1,8,0:0:0:0:
232,120,133754,1,2,0:2:0:0:
280,256,133891,1,2,0:2:0:0:
164,340,134027,1,0,0:0:0:0:
48,260,134164,6,2,P|32:148|36:88,1,152.999991039276,6|0,0:0|3:0,0:0:0:0:
60,24,134436,2,0,P|116:24|168:52,1,101.999994026184
256,148,134709,1,8,0:0:0:0:
176,264,134845,1,2,0:2:0:0:
176,120,134982,1,2,0:2:0:0:
316,84,135118,1,0,0:0:0:0:
391,203,135254,6,2,P|465:199|511:141,1,152.999991039276,6|0,0:0|3:0,0:0:0:0:
512,144,135527,2,0,P|504:52|492:8,1,101.999994026184,2|0,0:2|0:0,0:0:0:0:
288,152,135800,2,2,P|264:224|320:300,1,152.999991039276,6|0,0:0|3:0,0:0:0:0:
299,287,136073,2,0,P|349:295|400:297,1,101.999994026184,2|0,0:2|0:0,0:0:0:0:
213,97,136345,6,0,P|162:99|111:108,1,101.999994026184,0|0,0:2|0:0,0:0:0:0:
161,235,136618,1,2,0:2:0:0:
161,235,136754,1,0,0:0:0:0:
351,149,136891,1,0,0:0:0:0:
351,149,137027,1,0,0:0:0:0:
299,287,137164,1,2,0:2:0:0:
299,287,137300,1,0,0:0:0:0:
67,120,137436,5,4,0:2:0:0:
172,184,146164,6,0,L|-4:200,2,169.999995231629,0|0|8,0:0|0:0|0:2,0:0:0:0:
208,52,146845,2,0,P|284:92|372:72,1,169.999995231629,0|0,3:0|0:0,0:0:0:0:
452,40,147254,1,0,0:2:0:0:
504,120,147391,1,8,0:2:0:0:
425,315,147527,2,0,L|256:300,1,169.999995231629,0|8,0:0|0:2,0:0:0:0:
192,372,147936,2,0,P|116:332|28:352,1,169.999995231629
228,208,148345,6,0,P|256:128|244:40,2,169.999995231629,0|0|8,0:0|0:0|0:2,0:0:0:0:
36,346,149027,2,0,P|29:268|24:162,1,169.999995231629,0|8,3:0|0:2,0:0:0:0:
56,44,149436,2,0,P|132:52|172:60,1,84.9999976158143,0|8,0:0|0:2,0:0:0:0:
228,208,149709,2,0,P|304:220|372:140,1,169.999995231629,0|8,0:0|0:2,0:0:0:0:
456,130,150118,2,0,P|401:70|320:78,1,169.999995231629
232,292,150527,6,0,L|220:92,2,169.999995231629,0|0|8,0:0|0:0|0:2,0:0:0:0:
324,368,151209,2,0,L|493:378,1,169.999995231629,0|8,3:0|0:2,0:0:0:0:
409,189,151618,2,0,P|399:230|408:272,1,84.9999976158143,0|8,0:0|0:2,0:0:0:0:
479,127,151891,2,0,P|403:97|330:136,1,169.999995231629,0|8,0:0|0:2,0:0:0:0:
181,247,152300,2,0,P|108:286|32:256,1,169.999995231629
16,136,152709,6,0,L|104:116,3,84.9999976158143
181,247,153254,2,0,L|263:265,3,84.9999976158143,8|0|0|0,0:2|0:0|0:0|0:0,0:0:0:0:
331,137,153800,6,0,L|248:118,1,84.9999976158143
156,100,154073,1,0,0:0:0:0:
216,28,154209,1,0,0:0:0:0:
181,247,154345,2,0,L|263:265,1,84.9999976158143
356,284,154618,1,0,0:0:0:0:
296,356,154754,1,0,0:0:0:0:
80,272,154891,6,0,P|52:192|80:116,1,169.999995231629,4|2,0:0|0:2,0:0:0:0:
431,115,155436,2,0,P|460:193|432:272,1,169.999995231629,4|2,0:0|0:2,0:0:0:0:
140,352,155982,2,0,B|160:272|160:272|148:232|148:232|160:184,1,169.999995231629,4|2,0:0|0:2,0:0:0:0:
372,32,156527,2,0,B|352:112|352:112|364:152|364:152|352:200,1,169.999995231629,4|2,0:0|0:2,0:0:0:0:
56,88,157073,6,0,P|148:104|212:56,1,169.999995231629,4|2,0:0|0:2,0:0:0:0:
456,300,157618,2,0,P|364:316|300:268,1,169.999995231629,4|2,0:0|0:2,0:0:0:0:
256,192,158164,1,4,0:0:0:0:
256,192,158436,1,2,0:2:0:0:
396,68,158709,1,4,0:0:0:0:
432,252,158982,1,2,0:2:0:0:
80,252,159254,6,0,L|64:56,1,169.999995231629,4|2,0:0|0:2,0:0:0:0:
432,252,159800,2,0,L|445:82,1,169.999995231629,4|2,0:0|0:2,0:0:0:0:
487,328,160345,2,0,P|406:341|345:286,1,169.999995231629,4|2,0:0|0:2,0:0:0:0:
24,328,160891,2,0,P|105:341|166:286,1,169.999995231629,4|2,0:0|0:2,0:0:0:0:
208,72,161436,6,0,L|8:92,1,169.999995231629,4|2,0:0|0:2,0:0:0:0:
304,192,161982,2,0,L|504:212,1,169.999995231629,4|2,0:0|0:2,0:0:0:0:
208,312,162527,1,4,0:0:0:0:
208,312,162800,1,2,0:2:0:0:
24,352,163073,1,4,0:0:0:0:
80,172,163345,1,2,0:2:0:0:
304,312,163618,6,0,P|384:327|447:274,1,169.999995231629,4|2,0:0|0:2,0:0:0:0:
360,232,164027,1,0,0:0:0:0:
272,188,164164,2,0,P|335:135|415:151,1,169.999995231629,4|2,0:0|0:2,0:0:0:0:
216,268,164573,1,0,0:0:0:0:
124,288,164709,6,0,P|84:220|100:124,1,169.999995231629,4|2,0:0|0:2,0:0:0:0:
156,48,165118,1,0,0:0:0:0:
256,22,165254,2,0,L|256:192,1,169.999995231629,4|2,0:0|0:2,0:0:0:0:
256,362,165664,1,0,0:0:0:0:
340,320,165800,6,0,P|404:292|436:284,1,84.9999976158143,4|0,0:0|0:0,0:0:0:0:
171,319,166073,2,0,P|133:301|93:287,1,84.9999976158143,4|0,0:0|0:0,0:0:0:0:
376,204,166345,2,0,P|440:176|472:168,1,84.9999976158143,4|0,0:0|0:0,0:0:0:0:
136,204,166618,2,0,P|72:176|40:168,1,84.9999976158143,4|0,0:0|0:0,0:0:0:0:
328,24,166891,6,0,P|356:92|360:132,1,84.9999976158143,4|0,0:0|0:0,0:0:0:0:
184,24,167164,2,0,P|156:92|152:132,1,84.9999976158143,4|0,0:0|0:0,0:0:0:0:
454,171,167436,2,0,P|443:212|424:249,1,84.9999976158143,4|0,0:0|0:0,0:0:0:0:
58,171,167709,2,0,P|68:212|87:249,1,84.9999976158143,4|0,0:0|0:0,0:0:0:0:
256,100,167982,5,0,0:0:0:0:
356,192,168118,1,0,0:0:0:0:
256,284,168254,2,0,P|176:292|144:300,1,84.9999976158143,2|0,0:2|0:0,0:0:0:0:
156,192,168527,5,0,0:0:0:0:
256,376,168664,1,0,0:0:0:0:
356,192,168800,2,0,P|352:148|356:104,1,84.9999976158143,2|0,0:2|0:0,0:0:0:0:
464,56,169073,5,0,0:0:0:0:
464,56,169209,1,0,0:0:0:0:
272,200,169345,1,2,0:2:0:0:
272,200,169482,1,0,0:0:0:0:
440,224,169618,1,0,0:0:0:0:
440,224,169755,1,0,0:0:0:0:
296,32,169891,1,2,0:2:0:0:
296,32,170027,1,0,0:0:0:0:
356,192,170164,6,0,L|368:256,7,42.4999988079071
256,276,170709,2,0,L|256:318,7,42.4999988079071
156,192,171254,1,0,0:0:0:0:
139,194,171322,1,0,0:0:0:0:
122,197,171390,1,0,0:0:0:0:
105,200,171458,1,0,0:0:0:0:
88,203,171526,1,0,0:0:0:0:
72,206,171594,1,0,0:0:0:0:
55,209,171663,1,0,0:0:0:0:
38,212,171731,1,0,0:0:0:0:
21,214,171800,6,2,P|0:143|40:81,1,152.999991039276,2|0,0:0|2:0,2:0:0:0:
212,124,172073,2,0,P|280:136|364:88,1,152.999991039276,2|0,0:2|2:0,0:0:0:0:
299,259,172345,6,2,P|225:248|158:283,1,152.999991039276,6|0,0:0|3:0,0:0:0:0:
324,344,172618,2,0,L|452:356,1,101.999994026184
505,84,172891,2,2,L|353:99,1,152.999991039276,10|0,0:0|3:0,0:0:0:0:
271,63,173164,2,2,L|286:214,1,152.999991039276,2|0,0:0|3:0,0:0:0:0:
287,216,173436,5,4,0:0:0:0:
180,312,173573,1,0,0:0:0:0:
116,184,173709,1,2,0:2:0:0:
8,279,173845,1,0,0:0:0:0:
180,312,173982,2,2,P|208:256|204:164,1,152.999991039276,10|0,0:0|3:0,0:0:0:0:
205,167,174254,2,0,P|164:112|144:48,1,101.999994026184,0|0,3:0|0:0,0:0:0:0:
307,217,174527,6,2,P|359:165|463:185,1,152.999991039276,6|0,0:0|3:0,0:0:0:0:
496,228,174800,2,0,L|512:356,1,101.999994026184
283,368,175073,2,2,P|208:358|131:351,1,152.999991039276,10|0,0:0|3:0,0:0:0:0:
95,271,175345,2,2,P|172:278|248:288,1,152.999991039276,2|0,0:0|3:0,0:0:0:0:
336,300,175618,5,4,0:0:0:0:
228,136,175754,1,0,0:0:0:0:
372,196,175891,1,2,0:2:0:0:
247,288,176027,1,0,0:0:0:0:
228,136,176164,2,2,P|320:120|412:96,1,152.999991039276,10|0,0:0|3:0,0:0:0:0:
377,105,176436,2,0,P|380:48|352:0,1,101.999994026184,0|0,3:0|0:0,0:0:0:0:
135,105,176709,6,2,P|116:180|172:268,1,152.999991039276,6|0,0:0|3:0,0:0:0:0:
216,300,176982,2,0,P|298:308|330:316,1,101.999994026184
212,172,177254,1,8,0:0:0:0:
32,192,177391,1,2,0:2:0:0:
136,336,177527,1,2,0:2:0:0:
212,172,177664,1,0,0:0:0:0:
32,192,177800,6,2,L|48:348,1,152.999991039276,6|0,0:0|3:0,0:0:0:0:
136,336,178073,2,0,P|186:343|234:359,1,101.999994026184
420,156,178345,1,8,0:0:0:0:
488,64,178482,1,2,0:2:0:0:
376,48,178618,2,0,P|325:40|277:24,1,101.999994026184,2|0,0:2|0:0,0:0:0:0:
364,240,178891,6,2,P|437:256|499:216,1,152.999991039276,6|0,0:0|3:0,0:0:0:0:
499,216,179164,2,0,P|483:264|475:314,1,101.999994026184,2|0,0:2|0:0,0:0:0:0:
234,359,179436,2,2,P|214:191|206:163,1,152.999991039276,6|0,0:0|3:0,0:0:0:0:
217,207,179709,2,0,P|152:204|108:192,1,101.999994026184,2|0,0:2|0:0,0:0:0:0:
292,52,179982,6,2,P|389:40|461:12,1,152.999991039276,6|0,0:0|3:0,0:0:0:0:
440,22,180254,2,0,P|464:80|468:140,1,101.999994026184,2|0,0:2|0:0,0:0:0:0:
364,240,180527,2,0,P|444:256|480:276,1,101.999994026184,8|0,0:0|0:0,0:0:0:0:
148,144,180800,2,0,P|97:137|50:119,1,101.999994026184,10|0,0:2|0:0,0:0:0:0:
199,244,181073,6,2,P|255:194|260:120,1,152.999991039276,6|0,0:0|3:0,0:0:0:0:
260,120,181345,2,0,P|224:40|212:8,1,101.999994026184
72,232,181618,2,2,P|103:301|130:373,1,152.999991039276,10|0,0:0|3:0,0:0:0:0:
4,175,181891,2,0,P|73:148|141:177,1,152.999991039276,2|0,0:0|3:0,0:0:0:0:
200,244,182164,5,4,0:0:0:0:
200,112,182300,1,0,0:0:0:0:
312,312,182436,1,2,0:2:0:0:
312,180,182573,1,0,0:2:0:0:
200,376,182709,2,2,L|40:356,1,152.999991039276,10|0,0:0|3:0,0:0:0:0:
48,357,182982,2,0,P|56:292|60:232,1,101.999994026184,0|0,3:0|0:0,0:0:0:0:
200,112,183254,6,2,P|274:115|323:60,1,152.999991039276,6|0,0:0|3:0,0:0:0:0:
240,32,183527,2,0,P|190:22|144:43,1,101.999994026184
300,204,183800,2,2,B|360:208|360:208|380:224|380:224|447:228,1,152.999991039276,10|0,0:0|3:0,0:0:0:0:
212,204,184073,2,2,B|152:208|152:208|132:224|132:224|64:228,1,152.999991039276,2|0,0:0|3:0,0:0:0:0:
72,316,184345,6,0,L|199:308,1,101.999994026184,4|0,0:0|0:0,0:0:0:0:
440,316,184618,2,0,L|312:308,1,101.999994026184,2|0,0:2|0:0,0:0:0:0:
188,44,184891,2,2,P|256:76|328:40,1,152.999991039276,10|0,0:0|3:0,0:0:0:0:
322,46,185164,2,0,P|339:88|331:160,1,101.999994026184,0|0,3:0|0:0,0:0:0:0:
190,338,185436,6,2,L|8:320,1,152.999991039276,6|0,0:0|3:0,0:0:0:0:
16,236,185709,2,0,P|76:228|136:192,1,101.999994026184
192,132,185982,1,8,0:0:0:0:
190,338,186118,1,2,0:2:0:0:
16,236,186254,2,0,L|4:112,1,101.999994026184,2|0,0:2|0:0,0:0:0:0:
256,72,186527,6,2,P|280:142|241:204,1,152.999991039276,6|0,0:0|3:0,0:0:0:0:
192,132,186799,2,0,P|168:88|176:32,1,101.999994026184
320,252,187073,2,0,P|344:296|336:352,1,101.999994026184,8|2,0:0|0:2,0:0:0:0:
192,132,187345,1,2,0:2:0:0:
339,37,187482,1,0,0:0:0:0:
420,192,187618,6,2,P|488:176|488:72,1,152.999991039276,6|0,0:0|3:0,0:0:0:0:
507,102,187891,2,0,P|456:93|407:81,1,101.999994026184,2|0,0:2|0:0,0:0:0:0:
92,192,188164,2,2,P|24:176|24:72,1,152.999991039276,6|0,0:0|3:0,0:0:0:0:
5,102,188437,2,0,P|55:93|104:81,1,101.999994026184,2|0,0:2|0:0,0:0:0:0:
381,340,188709,6,2,P|401:260|425:176,1,152.999991039276,6|0,0:0|3:0,0:0:0:0:
420,192,188982,2,0,P|369:200|320:212,1,101.999994026184,2|0,0:2|0:0,0:0:0:0:
176,56,189254,1,8,0:0:0:0:
176,56,189391,1,0,0:0:0:0:
336,56,189527,1,10,0:2:0:0:
336,56,189664,1,0,0:0:0:0:
256,328,189800,6,2,P|180:296|96:320,1,152.999991039276,6|0,0:0|3:0,0:0:0:0:
36,352,190073,2,0,P|16:304|20:232,1,101.999994026184
256,40,190345,2,2,P|269:112|208:172,1,152.999991039276,10|0,0:0|3:0,0:0:0:0:
184,88,190618,2,2,P|108:76|8:64,1,152.999991039276,2|0,0:0|3:0,0:0:0:0:
32,66,190891,5,4,0:0:0:0:
14,254,191027,1,0,0:0:0:0:
184,340,191164,2,0,P|240:324|304:328,1,101.999994026184,2|0,0:2|0:0,0:0:0:0:
468,125,191436,2,2,P|392:127|328:87,1,152.999991039276,10|0,0:0|3:0,0:0:0:0:
328,87,191709,2,0,P|308:192|304:220,1,101.999994026184,0|0,3:2|0:2,0:2:0:0:
454,329,191982,6,2,P|508:278|500:204,1,152.999991039276,6|0,0:0|3:0,0:0:0:0:
468,125,192254,1,0,0:0:0:0:
236,148,192391,1,0,0:0:0:0:
216,380,192527,2,2,P|290:361|365:350,1,152.999991039276,10|0,0:0|3:0,0:0:0:0:
348,264,192800,2,2,P|329:189|318:114,1,152.999991039276,2|0,0:0|3:0,0:0:0:0:
304,28,193073,5,4,0:0:0:0:
424,52,193209,1,0,0:0:0:0:
236,148,193345,2,0,P|186:161|136:163,1,101.999994026184,2|0,0:2|0:0,0:0:0:0:
7,113,193618,2,2,P|18:188|32:263,1,152.999991039276,10|0,0:0|3:0,0:0:0:0:
31,263,193891,2,0,P|81:265|130:278,1,101.999994026184,0|0,3:0|0:0,0:0:0:0:
381,278,194164,6,2,P|329:344|256:352,1,152.999991039276,6|0,0:0|3:0,0:0:0:0:
216,280,194436,2,0,P|215:228|232:176,1,101.999994026184
280,76,194709,1,8,0:0:0:0:
444,52,194845,1,2,0:2:0:0:
468,216,194982,1,2,0:2:0:0:
304,240,195118,1,0,0:0:0:0:
99,141,195254,6,2,P|172:131|228:179,1,152.999991039276,6|0,0:0|3:0,0:0:0:0:
148,216,195527,1,0,0:0:0:0:
12,304,195664,1,0,0:0:0:0:
0,140,195800,2,0,P|24:80|40:24,1,101.999994026184,8|2,0:0|0:2,0:0:0:0:
240,32,196073,1,2,0:2:0:0:
148,216,196209,1,0,0:0:0:0:
34,44,196345,6,2,P|88:120|168:104,1,152.999991039276,6|0,0:0|3:0,0:0:0:0:
140,120,196618,2,0,P|194:108|248:108,1,101.999994026184,2|0,0:2|0:0,0:0:0:0:
272,277,196891,2,2,P|344:266|378:200,1,152.999991039276,6|0,0:0|3:0,0:0:0:0:
378,200,197164,2,0,P|366:145|366:92,1,101.999994026184,2|0,0:2|0:0,0:0:0:0:
184,340,197436,6,2,L|4:324,1,152.999991039276,6|0,0:0|3:0,0:0:0:0:
31,326,197709,2,0,L|20:200,1,101.999994026184,2|0,0:2|0:0,0:0:0:0:
176,43,197982,2,0,P|225:59|276:64,1,101.999994026184,8|0,0:0|0:0,0:0:0:0:
512,148,198254,1,10,0:2:0:0:
468,252,198391,1,0,0:0:0:0:
400,164,198527,6,2,P|372:88|380:16,1,152.999991039276,6|0,0:0|3:0,0:0:0:0:
464,0,198800,1,0,0:0:0:0:
512,148,198936,1,0,0:0:0:0:
383,244,199073,2,2,P|308:231|232:220,1,152.999991039276,10|0,0:0|3:0,0:0:0:0:
340,320,199345,2,2,P|415:330|491:343,1,152.999991039276,2|0,0:0|3:0,0:0:0:0:
491,343,199618,6,0,P|496:276|476:228,1,101.999994026184,4|0,0:0|0:0,0:0:0:0:
237,120,199891,2,0,P|224:169|232:220,1,101.999994026184,2|0,0:2|0:0,0:0:0:0:
280,16,200164,2,2,B|200:0|204:40|128:28,1,152.999991039276,10|0,0:0|3:0,0:0:0:0:
44,8,200436,2,0,L|52:120,1,101.999994026184,0|0,3:0|0:0,0:0:0:0:
344,288,200709,6,2,L|353:135,1,152.999991039276,6|0,0:0|3:0,0:0:0:0:
440,139,200982,1,0,0:0:0:0:
256,284,201118,1,0,0:0:0:0:
72,139,201254,2,2,P|132:92|212:128,1,152.999991039276,10|2,0:0|3:0,0:0:0:0:
216,200,201527,2,2,P|156:247|76:211,1,152.999991039276,2|0,0:0|3:0,0:0:0:0:
72,139,201800,6,0,L|48:15,1,101.999994026184,4|0,0:0|0:0,0:0:0:0:
216,200,202073,2,0,L|235:300,1,101.999994026184,2|0,0:2|0:0,0:0:0:0:
328,88,202345,2,2,L|477:118,1,152.999991039276,10|0,0:0|3:0,0:0:0:0:
477,118,202618,2,0,P|504:56|496:8,1,101.999994026184,0|0,3:0|0:0,0:0:0:0:
365,230,202891,6,2,L|215:199,1,152.999991039276,6|0,0:0|3:0,0:0:0:0:
128,184,203164,1,0,0:0:0:0:
312,308,203300,1,0,0:0:0:0:
328,88,203436,2,0,P|248:104|208:104,1,101.999994026184,8|2,0:0|0:2,0:0:0:0:
104,308,203709,2,0,P|154:312|204:324,1,101.999994026184,2|0,0:2|0:0,0:0:0:0:
393,147,203982,6,2,P|415:76|375:14,1,152.999991039276,6|0,0:0|3:0,0:0:0:0:
328,88,204254,1,2,0:2:0:0:
459,207,204391,1,0,0:0:0:0:
290,260,204527,1,8,0:0:0:0:
244,115,204664,1,2,0:2:0:0:
393,147,204800,2,0,P|464:124|500:108,1,101.999994026184,2|0,0:2|0:0,0:0:0:0:
167,72,205073,6,2,P|160:145|214:196,1,152.999991039276,0|0,0:0|3:0,0:0:0:0:
244,115,205345,2,0,P|252:52|228:4,1,101.999994026184,2|0,0:2|0:0,0:0:0:0:
48,184,205618,2,2,L|64:344,1,152.999991039276,0|0,0:0|3:0,0:0:0:0:
63,336,205891,2,0,P|136:344|184:356,1,101.999994026184,2|0,0:2|0:0,0:0:0:0:
464,184,206164,6,2,L|448:344,1,152.999991039276,0|0,0:0|3:0,0:0:0:0:
448,336,206437,2,0,P|376:344|328:356,1,101.999994026184,2|0,0:2|0:0,0:0:0:0:
184,232,206709,1,0,0:2:0:0:
328,232,206845,1,0,0:0:0:0:
144,232,206982,1,2,0:2:0:0:
368,232,207118,1,0,0:0:0:0:
256,40,207254,5,4,0:0:0:0:
