osu file format v14

[General]
AudioFilename: Pegboard Nerds - We Are One (feat. Splitbreed)~1.mp3
AudioLeadIn: 0
PreviewTime: 101977
Countdown: 0
SampleSet: Normal
StackLeniency: 0.3
Mode: 0
LetterboxInBreaks: 1
WidescreenStoryboard: 0

[Editor]
DistanceSpacing: 1.4
BeatDivisor: 8
GridSize: 4
TimelineZoom: 1.4

[Metadata]
Title:We Are One (Original Vocal Mix)
TitleUnicode:We Are One (Original Vocal Mix)
Artist:Pegboard Nerds
ArtistUnicode:Pegboard Nerds
Creator:Frey
Version:Hard
Source:
Tags:12 aftermath dubstep drumstep glitch hop
BeatmapID:1279813
BeatmapSetID:605745

[Difficulty]
HPDrainRate:5.5
CircleSize:4
OverallDifficulty:6
ApproachRate:7.5
SliderMultiplier:2.5
SliderTickRate:1

[Events]
//Background and Video events
0,0,"58286288_p2.jpg",0,0
//Break Periods
2,2364,18793
2,80909,88611
2,137636,145339
//Storyboard Layer 0 (Background)
//Storyboard Layer 1 (Fail)
//Storyboard Layer 2 (Pass)
//Storyboard Layer 3 (Foreground)
//Storyboard Sound Samples

[TimingPoints]
2164,545.454545454546,4,1,1,70,1,0
19618,-100,4,1,1,50,0,0
28345,-100,4,1,1,60,0,0
30527,-100,4,1,1,70,0,0
34891,-100,4,1,1,75,0,0
80709,-100,4,1,0,75,0,0
89436,-100,4,1,1,75,0,0
102527,-100,4,1,1,80,0,1
137436,-100,4,1,0,75,0,0
154891,-100,4,1,1,75,0,0
172345,-100,4,1,1,80,0,1
207254,-100,4,1,0,75,0,0

[Colours]
Combo1 : 238,100,138
Combo2 : 188,253,38
Combo3 : 190,68,225
Combo4 : 28,253,197

[HitObjects]
256,192,527,12,4,2164,3:2:0:0:
112,260,19618,6,0,P|104:340|148:372,1,125,6|0,0:2|0:0,0:0:0:0:
256,344,20164,2,0,P|264:264|220:232,1,125
152,144,20709,2,0,P|76:132|20:120,1,125,2|0,0:2|0:0,0:0:0:0:
68,4,21254,2,0,P|129:16|191:25,1,125
321,25,21800,6,0,P|383:16|445:4,1,125,2|0,0:2|0:0,0:0:0:0:
484,122,22345,2,0,P|422:134|361:144,1,125,2|0,0:2|0:0,0:0:0:0:
289,192,22891,5,2,0:2:0:0:
325,272,23164,1,0,0:0:0:0:
397,224,23436,1,2,0:2:0:0:
361,144,23709,1,2,0:2:0:0:
280,104,23982,6,0,P|219:94|161:116,1,125,2|0,0:2|0:0,0:0:0:0:
68,196,24527,2,0,P|70:263|84:324,1,125
199,363,25073,2,0,P|196:295|183:235,1,125,2|0,0:2|0:0,0:0:0:0:
132,128,25618,2,0,P|160:48|224:32,1,125
321,32,26164,6,0,P|370:67|381:128,1,125,2|0,0:2|0:0,0:0:0:0:
328,240,26709,2,0,P|316:301|314:364,1,125,2|0,0:2|0:0,0:0:0:0:
402,372,27254,5,2,0:2:0:0:
482,336,27527,1,0,0:0:0:0:
486,248,27800,1,2,0:2:0:0:
410,204,28073,1,2,0:2:0:0:
328,240,28345,6,0,P|216:228|192:216,1,125,4|2,0:2|0:2,0:0:0:0:
88,260,28891,2,0,P|77:199|108:146,1,125,4|2,0:0|0:2,0:0:0:0:
212,72,29436,2,0,P|278:66|372:56,1,125,4|2,0:0|0:2,0:0:0:0:
460,80,29982,2,0,P|452:151|444:240,1,125,4|2,0:0|0:2,0:0:0:0:
436,328,30527,6,0,P|376:308|316:312,1,125,4|2,0:0|0:2,0:0:0:0:
196,352,31073,2,0,P|134:356|75:336,1,125,4|2,0:0|0:2,0:0:0:0:
12,276,31618,5,4,0:0:0:0:
96,252,31891,1,2,0:2:0:0:
32,188,32164,1,4,0:0:0:0:
116,164,32437,1,2,0:2:0:0:
51,99,32709,6,0,P|104:70|162:86,1,125,4|4,0:0|0:0,0:0:0:0:
255,171,33254,2,0,P|309:201|367:183,1,125,4|4,0:0|0:0,0:0:0:0:
320,64,33800,2,0,P|416:76|456:80,1,125,4|4,0:0|0:0,0:0:0:0:
444,204,34345,2,0,P|432:300|428:340,1,125,4|4,0:0|0:0,0:0:0:0:
256,368,34891,6,0,L|184:352,1,62.5,4|4,0:0|0:0,0:0:0:0:
112,328,35164,2,0,P|100:256|100:232,1,62.5,2|0,0:2|0:0,0:0:0:0:
136,188,35436,2,0,P|131:157|124:126,1,62.5,4|4,0:0|0:0,0:0:0:0:
64,64,35709,2,0,P|32:61|2:55,1,62.5,2|0,0:2|0:0,0:0:0:0:
148,40,35982,2,0,P|178:45|209:48,1,62.5,4|4,0:0|0:0,0:0:0:0:
280,100,36254,2,0,P|311:102|341:108,1,62.5,2|0,0:2|0:0,0:0:0:0:
424,80,36527,5,2,0:0:0:0:
300,200,36800,1,2,0:2:0:0:
209,48,37073,6,0,B|132:12|24:96|40:184,2,250,4|8|0,0:0|0:0|0:0,0:0:0:0:
280,100,38300,1,4,0:0:0:0:
331,171,38436,2,0,P|326:202|325:233,1,62.5,2|0,0:2|0:0,0:0:0:0:
412,212,38709,2,0,P|420:300|348:360,1,187.5,8|0,0:0|0:0,0:0:0:0:
264,348,39254,6,0,P|212:284|232:220,1,125,4|2,0:0|0:2,0:0:0:0:
260,168,39664,1,0,0:0:0:0:
341,139,39800,2,0,P|304:91|244:81,2,125,8|2|4,0:0|0:2|0:0,0:0:0:0:
388,216,40482,1,0,0:0:0:0:
476,200,40618,2,0,L|496:60,1,125,2|8,0:2|0:0,0:0:0:0:
332,8,41164,1,2,2:0:0:0:
260,168,41436,6,0,P|271:229|280:291,1,125,4|2,0:0|0:2,0:0:0:0:
220,356,41845,1,0,0:0:0:0:
131,366,41982,2,0,P|119:304|111:243,1,125,8|2,0:0|0:2,0:0:0:0:
100,156,42391,1,0,0:0:0:0:
147,84,42527,2,0,P|166:58|187:36,1,62.5,4|0,0:0|0:0,0:0:0:0:
220,140,42800,2,0,P|188:180|156:208,1,62.5,2|0,0:2|0:0,0:0:0:0:
111,243,43073,2,0,P|31:203|23:113,1,187.5,8|0,0:0|0:0,0:0:0:0:
68,40,43618,6,0,P|136:32|196:16,1,125,4|2,0:0|0:2,0:0:0:0:
256,76,44027,1,0,0:0:0:0:
321,17,44164,2,0,P|381:33|444:40,1,125,8|2,0:0|0:2,0:0:0:0:
484,120,44573,1,0,0:0:0:0:
452,200,44709,2,0,P|432:256|428:288,1,62.5
404,344,44982,1,2,0:2:0:0:
336,180,45254,1,8,0:0:0:0:
336,180,45800,6,0,B|313:270|201:294|137:222,1,250,4|8,0:0|0:0,0:0:0:0:
128,48,46618,2,0,P|200:40|220:36,1,62.5
272,80,46891,2,0,P|302:74|333:73,1,62.5,4|0,0:0|0:0,0:0:0:0:
264,168,47164,2,0,P|233:163|201:161,1,62.5,0|0,0:0|0:0,0:0:0:0:
124,124,47436,2,0,P|69:97|50:38,1,125,8|0,0:0|0:0,0:0:0:0:
13,211,47982,6,0,P|75:216|138:223,1,125,4|0,0:0|0:0,0:0:0:0:
208,276,48391,1,0,0:0:0:0:
128,312,48527,2,0,P|65:305|3:300,1,125,8|0,0:0|0:0,0:0:0:0:
22,121,49073,2,0,P|80:72|96:56,1,62.5,4|0,0:0|0:0,0:0:0:0:
132,20,49345,1,0,0:0:0:0:
156,104,49482,1,0,0:0:0:0:
216,39,49618,2,0,P|243:94|228:153,1,125,8|0,0:0|0:0,0:0:0:0:
136,304,50164,6,0,P|120:240|112:180,1,125,4|0,0:0|0:0,0:0:0:0:
156,104,50573,1,0,0:0:0:0:
228,153,50709,2,0,P|290:142|351:129,1,125,8|0,0:0|0:0,0:0:0:0:
416,68,51118,1,0,0:0:0:0:
504,80,51254,2,0,P|492:192|476:252,1,125,4|0,0:0|0:0,0:0:0:0:
368,332,51800,2,0,P|336:260|340:204,1,125,8|0,0:0|0:0,0:0:0:0:
351,129,52209,1,0,0:0:0:0:
415,67,52345,6,0,P|361:40|301:54,1,125,4|0,0:0|0:0,0:0:0:0:
256,128,52754,1,0,0:0:0:0:
212,204,52891,2,0,P|152:218|97:190,1,125,8|0,0:0|0:0,0:0:0:0:
68,108,53300,1,0,0:0:0:0:
172,52,53436,5,4,0:0:0:0:
416,344,54527,6,0,P|408:288|440:204,1,125,4|2,0:0|0:2,0:0:0:0:
480,152,54936,1,0,0:0:0:0:
436,76,55073,2,0,L|300:84,1,125,8|2,0:0|0:2,0:0:0:0:
200,216,55618,1,4,0:0:0:0:
112,232,55754,2,0,L|88:100,1,125
132,32,56164,2,0,P|190:16|252:48,1,125,8|0,0:0|0:0,0:0:0:0:
282,124,56573,1,0,0:0:0:0:
344,60,56709,6,0,P|371:114|356:173,1,125,4|0,0:0|0:0,0:0:0:0:
300,240,57118,1,0,0:0:0:0:
212,228,57254,2,0,P|116:216|60:208,1,125,8|0,0:0|0:0,0:0:0:0:
172,368,57800,1,4,0:0:0:0:
260,356,57936,2,0,P|356:344|412:336,1,125
473,353,58345,2,0,P|478:291|452:236,1,125,10|0,0:0|0:0,0:0:0:0:
376,192,58754,1,0,0:0:0:0:
452,148,58891,6,0,P|480:80|472:28,1,125,4|0,0:0|0:0,0:0:0:0:
384,20,59300,1,0,0:0:0:0:
304,60,59436,2,0,B|252:68|252:68|224:60|224:60|156:72,1,125,8|0,0:0|0:0,0:0:0:0:
40,172,59982,1,4,0:0:0:0:
28,260,60118,2,0,L|160:276,1,125
165,160,60527,2,0,P|210:201|271:200,1,125,8|0,0:0|0:0,0:0:0:0:
242,118,60936,1,0,0:0:0:0:
336,36,61073,6,0,L|356:160,1,125,4|0,0:0|0:0,0:0:0:0:
372,248,61482,1,0,0:0:0:0:
440,192,61618,2,0,L|420:68,1,125,8|0,0:0|0:0,0:0:0:0:
336,36,62027,1,0,0:0:0:0:
256,76,62164,2,0,P|160:60|128:24,1,125,4|0,0:0|0:0,0:0:0:0:
56,68,62573,1,0,0:0:0:0:
16,144,62709,2,0,L|8:216,1,62.5,8|0,0:0|0:0,0:0:0:0:
72,268,62982,2,0,L|135:262,1,62.5
180,152,63254,6,0,B|304:128|284:216|420:192,1,250,4|8,0:0|0:0,0:0:0:0:
260,272,64073,2,0,P|228:272|172:292,1,62.5
116,312,64345,2,0,P|114:280|102:252,1,62.5,4|0,0:0|0:0,0:0:0:0:
29,204,64618,2,0,P|17:175|16:144,1,62.5,0|0,0:0|0:0,0:0:0:0:
36,56,64891,2,0,P|124:48|156:80,1,125,8|2,0:0|0:2,0:0:0:0:
180,152,65300,1,0,0:0:0:0:
268,144,65436,6,0,L|452:124,1,125,4|0,0:0|0:0,0:0:0:0:
464,76,65845,1,0,0:0:0:0:
475,165,65982,2,0,L|483:245,1,62.5,8|0,0:0|0:0,0:0:0:0:
400,304,66254,2,0,L|337:297,1,62.5,2|0,0:2|0:0,0:0:0:0:
263,346,66527,2,0,P|246:288|274:235,1,125,4|0,0:0|0:0,0:0:0:0:
360,212,66936,1,0,0:0:0:0:
352,124,67073,2,0,L|284:112,1,62.5,8|0,0:0|0:0,0:0:0:0:
220,164,67345,2,0,L|158:174,1,62.5
72,148,67618,6,0,P|56:208|72:268,1,125,4|0,0:0|0:0,0:0:0:0:
128,336,68027,1,0,0:0:0:0:
216,324,68164,2,0,P|232:248|236:228,1,62.5,8|0,0:0|0:0,0:0:0:0:
248,176,68436,2,0,P|316:216|336:220,1,62.5
384,184,68709,2,0,P|400:112|396:48,1,125,4|0,0:0|0:0,0:0:0:0:
324,16,69118,1,0,0:0:0:0:
236,24,69254,2,0,P|244:108|248:120,1,62.5,8|0,0:0|0:0,0:0:0:0:
248,176,69527,2,0,P|216:172|185:173,1,62.5,0|0,0:0|0:0,0:0:0:0:
112,124,69800,6,0,P|51:130|2:93,1,125,4|0,0:0|0:0,0:0:0:0:
76,44,70209,1,0,0:0:0:0:
164,52,70345,2,0,P|227:57|336:68,1,125,4|0,0:0|0:0,0:0:0:0:
368,28,70754,1,0,0:0:0:0:
456,40,70891,2,0,P|464:128|432:160,1,125,4|0,0:0|0:0,0:0:0:0:
372,200,71300,1,0,0:0:0:0:
284,188,71436,2,0,L|268:272,1,62.5,8|0,0:0|0:0,0:0:0:0:
316,324,71709,2,0,L|377:335,1,62.5
456,296,71982,6,0,P|512:212|424:108,1,250,4|8,0:0|0:0,0:0:0:0:
256,124,72800,2,0,P|251:93|249:61,1,62.5
324,20,73073,2,0,P|331:82|339:144,1,125,4|0,0:0|0:0,0:0:0:0:
168,104,73618,1,10,0:0:0:0:
60,244,73891,2,0,P|80:292|104:320,1,62.5,0|0,0:0|0:0,0:0:0:0:
168,328,74164,6,0,P|216:308|244:284,1,62.5,4|0,0:0|0:0,0:0:0:0:
259,221,74436,2,0,P|304:262|309:323,1,125,0|8,0:0|0:0,0:0:0:0:
172,212,74982,2,0,L|160:136,1,62.5,0|0,0:0|0:0,0:0:0:0:
152,64,75254,2,0,L|240:72,1,62.5,4|0,0:0|0:0,0:0:0:0:
296,108,75527,2,0,L|420:96,1,125,0|10,0:0|0:0,0:0:0:0:
512,244,76073,2,0,P|505:291|504:348,1,62.5,0|0,0:0|0:0,0:0:0:0:
420,288,76345,6,0,L|295:276,1,125,4|0,0:0|0:0,0:0:0:0:
224,328,76754,1,0,0:0:0:0:
136,316,76891,2,0,P|133:253|150:194,1,125,8|0,0:0|0:0,0:0:0:0:
184,112,77300,1,0,0:0:0:0:
268,88,77436,2,0,P|285:147|282:209,1,125,4|4,0:0|0:0,0:0:0:0:
136,316,77982,2,0,P|64:328|52:332,1,62.5,8|0,0:0|0:0,0:0:0:0:
2,226,78254,2,0,P|32:233|64:236,1,62.5
120,168,78527,6,0,P|188:176|248:140,1,125,4|0,0:0|0:0,0:0:0:0:
276,72,78936,1,0,0:0:0:0:
360,52,79073,2,0,P|376:124|400:208,1,125,4|0,0:0|0:0,0:0:0:0:
416,256,79482,1,4,0:0:0:0:
492,303,79618,2,0,P|502:274|504:243,1,62.5,4|4,0:0|0:0,0:0:0:0:
480,160,79891,1,0,0:0:0:0:
416,0,80164,1,4,0:0:0:0:
308,140,80436,2,0,P|275:147|216:168,1,62.5
148,100,80709,5,4,0:0:0:0:
168,284,89436,6,0,P|156:172|152:144,1,125,4|2,0:0|0:2,0:0:0:0:
83,55,89982,2,0,P|135:23|193:39,1,125,4|2,0:0|0:2,0:0:0:0:
256,148,90527,1,4,0:0:0:0:
319,39,90800,1,2,0:2:0:0:
428,104,91073,2,0,P|452:160|436:224,1,125,4|2,0:0|0:2,0:0:0:0:
316,252,91618,6,0,P|256:244|192:252,1,125,4|2,0:0|0:2,0:0:0:0:
92,328,92164,2,0,P|61:274|71:213,1,125,4|2,0:0|0:2,0:0:0:0:
188,164,92709,1,4,0:0:0:0:
256,60,92982,1,2,0:2:0:0:
140,12,93254,2,0,P|72:24|0:32,1,125,4|2,0:0|0:2,0:0:0:0:
8,156,93800,6,0,P|56:196|116:168,1,125,4|2,0:0|0:2,0:0:0:0:
195,88,94345,2,0,P|257:82|313:108,1,125,4|2,0:0|0:2,0:0:0:0:
236,208,94891,1,4,0:0:0:0:
255,331,95164,1,2,0:2:0:0:
368,272,95436,2,0,L|492:252,1,125,4|2,0:0|0:2,0:0:0:0:
424,92,95982,6,0,L|362:101,1,62.5,4|0,0:0|0:0,0:0:0:0:
276,120,96254,2,0,P|266:155|264:192,1,62.5,4|0,0:0|0:0,0:0:0:0:
306,259,96527,2,0,P|335:267|367:271,1,62.5,4|0,0:0|0:0,0:0:0:0:
317,344,96800,2,0,P|285:340|256:332,1,62.5,4|0,0:0|0:0,0:0:0:0:
164,288,97073,6,0,P|148:204|152:188,1,62.5,4|0,0:0|0:0,0:0:0:0:
156,140,97345,2,0,P|125:142|97:155,1,62.5,4|0,0:0|0:0,0:0:0:0:
28,212,97618,2,0,P|15:183|10:152,1,62.5,4|0,0:0|0:0,0:0:0:0:
76,68,97891,2,0,P|104:54|135:52,1,62.5,4|0,0:0|0:0,0:0:0:0:
220,80,98164,6,0,P|248:93|278:102,3,62.5,0|0|2|0,0:0|0:0|0:2|0:0,0:0:0:0:
372,156,98709,2,0,P|359:184|350:214,3,62.5,0|0|2|0,0:0|0:0|0:2|0:0,0:0:0:0:
292,304,99254,2,0,P|264:291|234:282,3,62.5,0|0|2|0,0:0|0:0|0:2|0:0,0:0:0:0:
140,228,99800,2,0,P|153:200|162:170,3,62.5,0|0|2|0,0:0|0:0|0:2|0:0,0:0:0:0:
256,112,100345,6,0,P|288:116|320:112,1,62.5
288,28,100618,2,0,P|257:23|226:28,1,62.5
152,80,100891,2,0,P|122:70|91:65,1,62.5
101,155,101164,2,0,P|130:164|161:169,1,62.5
212,240,101436,2,0,P|208:272|212:304,1,62.5
299,238,101709,2,0,P|302:269|299:301,1,62.5,0|0,0:0|0:0,0:0:0:0:
256,164,101982,5,2,0:0:0:0:
420,108,102254,1,2,0:2:0:0:
492,268,102527,6,0,P|400:276|368:244,1,125,6|0,0:0|0:0,0:0:0:0:
344,180,102936,1,0,0:0:0:0:
256,164,103073,2,0,P|184:173|84:184,1,125,10|2,0:0|0:0,0:0:0:0:
52,336,103618,2,0,P|57:305|65:275,1,62.5,4|0,0:0|0:0,0:0:0:0:
44,188,103891,2,0,P|60:96|60:76,1,62.5,2|0,0:2|0:0,0:0:0:0:
0,59,104164,2,0,P|86:40|143:109,1,187.5,10|0,0:0|0:0,0:0:0:0:
156,196,104709,6,0,L|172:340,1,125,6|0,0:0|0:0,0:0:0:0:
256,340,105118,1,0,0:0:0:0:
342,320,105254,2,0,L|356:196,1,125,10|2,0:0|0:0,0:0:0:0:
300,28,105800,2,0,P|228:40|216:40,1,62.5,4|0,0:0|0:0,0:0:0:0:
212,124,106073,2,0,P|284:136|296:136,1,62.5,2|0,0:2|0:0,0:0:0:0:
352,100,106345,2,0,P|456:120|468:200,1,187.5,10|0,0:0|0:0,0:0:0:0:
436,268,106891,6,0,L|300:284,1,125,6|0,0:0|0:0,0:0:0:0:
256,352,107300,2,0,B|200:360|188:316|132:324,1,125,0|2,0:0|0:2,0:0:0:0:
56,360,107709,2,0,L|44:260,1,62.5,2|0,0:2|0:0,0:0:0:0:
36,212,107982,2,0,P|92:176|156:208,1,125,6|0,0:0|0:0,0:0:0:0:
208,252,108391,2,0,L|332:237,1,125,0|2,0:0|0:2,0:0:0:0:
416,264,108800,2,0,L|428:164,1,62.5,2|0,0:2|0:0,0:0:0:0:
436,115,109073,6,0,P|376:131|316:114,1,125,6|2,0:0|0:2,0:0:0:0:
256,52,109482,1,0,0:0:0:0:
195,114,109618,2,0,P|135:131|75:115,1,125,6|2,0:0|0:2,0:0:0:0:
12,176,110027,1,0,0:0:0:0:
24,264,110164,2,0,P|89:270|236:292,1,187.5,6|0,0:0|0:0,0:0:0:0:
256,363,110709,2,0,P|295:317|293:256,1,125,8|8,0:0|0:0,0:0:0:0:
196,104,111254,6,0,P|253:98|324:88,1,125,6|0,0:0|0:0,0:0:0:0:
384,24,111664,1,0,0:0:0:0:
456,72,111800,2,0,P|474:131|472:196,1,125,10|2,0:0|0:0,0:0:0:0:
364,332,112345,2,0,P|356:252|356:236,1,62.5
324,160,112618,2,0,P|396:176|408:180,1,62.5,2|0,0:2|0:0,0:0:0:0:
472,193,112891,2,0,P|504:284|432:356,1,187.5,10|0,0:0|0:0,0:0:0:0:
364,332,113436,6,0,P|276:312|192:288,1,125,6|0,0:0|0:0,0:0:0:0:
196,228,113845,1,0,0:0:0:0:
216,140,113982,2,0,P|154:153|94:169,1,125,10|2,0:0|0:0,0:0:0:0:
12,324,114527,2,0,P|1:294|0:263,1,62.5,4|0,0:0|0:0,0:0:0:0:
87,276,114800,2,0,P|118:280|147:292,1,62.5,2|0,0:2|0:0,0:0:0:0:
216,348,115073,2,0,P|300:336|324:232,1,187.5,10|0,0:0|0:0,0:0:0:0:
296,168,115618,6,0,L|312:0,1,125,6|0,0:0|0:0,0:0:0:0:
392,20,116027,2,0,L|380:144,1,125,0|2,0:2|0:2,0:0:0:0:
329,247,116436,2,0,P|253:259|241:263,1,62.5,2|0,0:2|0:2,0:0:0:0:
180,276,116709,2,0,P|144:192|184:120,1,125,6|0,0:0|0:0,0:0:0:0:
192,84,117118,2,0,P|260:80|324:56,1,125,0|2,0:0|0:2,0:0:0:0:
392,20,117527,2,0,L|464:32,1,62.5,2|0,0:2|0:0,0:0:0:0:
504,104,117800,6,0,P|492:184|484:276,1,125,6|2,0:0|0:2,0:0:0:0:
408,188,118209,1,0,0:0:0:0:
328,148,118345,2,0,P|316:228|308:320,1,125,6|2,0:0|0:2,0:0:0:0:
300,360,118754,1,0,0:0:0:0:
220,320,118891,2,0,P|226:257|236:196,1,125,6|2,0:0|0:2,0:0:0:0:
248,108,119300,1,0,0:0:0:0:
180,52,119436,2,0,L|108:60,1,62.5,8|0,0:0|0:0,0:0:0:0:
64,128,119709,2,0,L|70:190,1,62.5,10|0,0:2|0:0,0:0:0:0:
152,269,119982,6,0,P|209:250|236:195,1,125,6|0,0:0|0:0,0:0:0:0:
248,108,120391,1,0,0:0:0:0:
312,48,120527,2,0,P|400:72|480:84,1,125,10|2,0:0|0:0,0:0:0:0:
496,244,121073,2,0,P|452:316|440:344,1,62.5,4|0,0:0|0:0,0:0:0:0:
416,372,121345,2,0,P|375:297|357:273,1,62.5,2|0,0:2|0:0,0:0:0:0:
346,238,121618,2,0,P|267:208|296:129,1,187.5,10|0,0:0|0:0,0:0:0:0:
380,156,122164,6,0,L|508:140,1,125,2|0,0:0|0:0,0:0:0:0:
492,52,122573,1,0,0:0:0:0:
412,20,122709,2,0,L|287:35,1,125,10|2,0:0|0:0,0:0:0:0:
180,172,123254,2,0,P|165:144|160:113,1,62.5,4|0,0:0|0:0,0:0:0:0:
251,115,123527,2,0,P|265:142|269:173,1,62.5,2|0,0:2|0:0,0:0:0:0:
224,248,123800,2,0,B|140:264|140:264|100:248|100:248|40:260,1,187.5,10|0,0:0|0:0,0:0:0:0:
32,348,124345,6,0,B|89:336|89:336|160:364,1,125,6|0,0:0|0:0,0:0:0:0:
234,338,124754,2,0,P|290:312|312:232,1,125,0|2,0:0|0:2,0:0:0:0:
224,248,125164,2,0,P|212:184|216:160,1,62.5,2|0,0:2|0:0,0:0:0:0:
220,100,125436,2,0,P|288:76|332:104,1,125,6|0,0:0|0:0,0:0:0:0:
376,176,125845,2,0,P|424:208|496:192,1,125,0|2,0:0|0:2,0:0:0:0:
512,112,126254,2,0,P|509:80|499:51,1,62.5,2|0,0:2|0:0,0:0:0:0:
420,16,126527,6,0,P|284:8|272:8,1,125,6|2,0:0|0:2,0:0:0:0:
220,52,126936,1,0,0:0:0:0:
184,132,127073,2,0,P|186:194|191:256,1,125,6|2,0:0|0:2,0:0:0:0:
268,300,127482,1,0,0:0:0:0:
356,292,127618,2,0,B|408:248|404:164|352:128,1,187.5,6|0,0:0|0:0,0:0:0:0:
284,72,128164,2,0,P|221:67|160:57,1,125,8|8,0:0|0:0,0:0:0:0:
40,184,128709,6,0,P|188:164|204:160,1,125,6|0,0:0|0:0,0:0:0:0:
240,216,129118,1,0,0:0:0:0:
196,292,129254,2,0,P|108:284|84:244,1,125,10|2,0:0|0:0,0:0:0:0:
112,84,129800,2,0,P|176:74|208:76,1,62.5,4|0,0:0|0:0,0:0:0:0:
240,132,130073,2,0,P|304:141|336:140,1,62.5,2|0,0:2|0:0,0:0:0:0:
356,72,130345,2,0,P|389:154|331:222,1,187.5,10|0,0:0|0:0,0:0:0:0:
220,247,130891,6,0,P|204:304|246:346,1,125,6|0,0:0|0:0,0:0:0:0:
328,312,131300,1,0,0:0:0:0:
330,222,131436,2,0,P|303:168|271:76,1,125,10|2,0:0|0:0,0:0:0:0:
116,172,131982,2,0,P|86:162|59:146,1,62.5,4|0,0:0|0:0,0:0:0:0:
120,84,132254,2,0,P|192:124|208:144,1,62.5,2|0,0:2|0:0,0:0:0:0:
224,184,132527,2,0,P|236:260|132:320,1,187.5,10|0,0:0|0:0,0:0:0:0:
68,336,133073,6,0,P|48:220|44:164,1,125,6|0,0:0|3:0,0:0:0:0:
36,124,133482,2,0,P|152:104|208:100,1,125,0|2,0:0|0:2,0:0:0:0:
248,92,133891,2,0,P|240:61|236:30,1,62.5,2|0,0:2|0:0,0:0:0:0:
320,144,134164,2,0,P|340:260|344:316,1,125,6|0,0:0|0:0,0:0:0:0:
295,343,134573,2,0,P|355:356|407:325,1,125,0|2,0:0|0:2,0:0:0:0:
456,252,134982,2,0,P|451:221|444:190,1,62.5,2|0,0:2|0:0,0:0:0:0:
412,84,135254,6,0,P|332:48|284:76,1,125,6|2,0:0|0:2,0:0:0:0:
256,136,135664,1,0,0:0:0:0:
208,212,135800,2,0,P|148:222|98:187,1,125,6|2,0:0|0:2,0:0:0:0:
80,100,136209,1,0,0:0:0:0:
144,40,136345,2,0,L|232:32,3,62.5,0|0|2|0,0:2|0:0|0:2|0:0,0:0:0:0:
304,96,136891,2,0,L|366:101,3,62.5,0|0|2|0,0:0|0:0|0:2|0:0,0:0:0:0:
256,192,137436,5,4,0:2:0:0:
168,128,146164,6,0,L|152:292,2,125,0|0|8,0:0|0:0|0:2,0:0:0:0:
338,66,147254,2,0,L|346:154,1,62.5,0|8,0:2|0:2,0:0:0:0:
348,172,147527,2,0,P|416:172|476:192,1,125
496,224,147936,2,0,P|509:289|476:340,1,125,0|0,0:0|0:0,0:0:0:0:
448,368,148345,6,0,P|380:368|320:348,1,125,0|0,0:0|0:0,0:0:0:0:
292,268,148891,2,0,P|216:216|124:248,1,187.5,8|8,0:2|0:2,0:0:0:0:
108,280,149436,2,0,L|20:288,1,62.5,0|8,0:0|0:2,0:0:0:0:
0,288,149709,2,0,L|12:152,1,125,0|8,0:0|0:2,0:0:0:0:
16,120,150118,2,0,B|84:128|72:93|140:100,1,125,0|0,0:0|0:0,0:0:0:0:
180,116,150527,6,0,P|232:60|216:12,2,125,0|0|8,0:0|0:0|0:2,0:0:0:0:
60,248,151618,2,0,L|72:320,1,62.5,0|8,0:0|0:2,0:0:0:0:
104,336,151891,2,0,P|164:341|244:348,1,125,0|8,0:0|0:2,0:0:0:0:
264,320,152300,2,0,P|256:236|272:200,1,125,0|0,0:0|0:0,0:0:0:0:
292,160,152709,6,0,P|352:154|432:148,1,125
474,211,153254,2,0,P|499:125|436:61,1,187.5,8|0,0:2|0:0,0:0:0:0:
392,60,153800,2,0,P|316:48|296:40,3,62.5
300,20,154345,2,0,P|224:32|204:40,3,62.5
200,48,154891,6,0,P|180:108|200:164,1,125,4|2,0:0|0:2,0:0:0:0:
312,220,155436,2,0,P|333:278|313:337,1,125,4|2,0:0|0:2,0:0:0:0:
196,376,155982,2,0,P|88:364|36:364,1,125,4|2,0:0|0:2,0:0:0:0:
148,264,156527,2,0,P|144:201|135:139,1,125,4|2,0:0|0:2,0:0:0:0:
24,84,157073,5,4,0:0:0:0:
136,28,157345,1,2,0:2:0:0:
224,120,157618,2,0,B|280:124|284:84|348:88,1,125,4|2,0:0|0:2,0:0:0:0:
376,208,158164,2,0,P|444:212|492:176,1,125,4|2,0:0|0:2,0:0:0:0:
455,60,158709,2,0,P|387:56|339:92,1,125,4|2,0:0|0:2,0:0:0:0:
284,196,159254,6,0,P|288:288|292:344,1,125,4|2,0:0|0:2,0:0:0:0:
180,380,159800,1,4,0:0:0:0:
172,256,160073,1,2,0:2:0:0:
284,196,160345,2,0,P|392:184|424:176,1,125,4|2,0:0|0:2,0:0:0:0:
472,72,160891,2,0,P|364:84|332:92,1,125,4|2,0:0|0:2,0:0:0:0:
228,124,161436,6,0,P|120:112|88:104,1,125,4|2,0:0|0:2,0:0:0:0:
20,16,161982,2,0,P|-7:70|5:131,1,125,4|2,0:0|0:2,0:0:0:0:
68,240,162527,2,0,P|132:244|191:224,1,125,4|2,0:0|0:2,0:0:0:0:
304,172,163073,1,4,0:0:0:0:
292,296,163345,1,2,0:2:0:0:
189,225,163618,6,0,P|172:166|193:108,1,125,4|2,0:0|0:2,0:0:0:0:
296,40,164164,2,0,L|448:28,1,125,4|2,0:0|0:2,0:0:0:0:
496,128,164709,2,0,L|508:280,1,125,4|2,0:0|0:2,0:0:0:0:
404,180,165254,2,0,P|328:148|272:168,1,125,4|2,0:0|0:2,0:0:0:0:
172,284,165800,6,0,P|124:276|88:268,1,62.5,4|0,0:0|0:0,0:0:0:0:
32,316,166073,2,0,P|23:286|22:254,1,62.5,4|0,0:0|0:0,0:0:0:0:
84,192,166345,2,0,P|83:160|74:130,1,62.5,4|0,0:0|0:0,0:0:0:0:
11,68,166618,2,0,P|36:48|66:43,1,62.5,4|0,0:0|0:0,0:0:0:0:
176,76,166891,6,0,L|260:84,1,62.5,4|0,0:0|0:0,0:0:0:0:
272,164,167164,2,0,L|334:158,1,62.5,4|0,0:0|0:0,0:0:0:0:
411,115,167436,2,0,P|422:145|422:176,1,62.5,4|0,0:0|0:0,0:0:0:0:
364,244,167709,2,0,P|363:275|374:304,1,62.5,4|0,0:0|0:0,0:0:0:0:
440,364,167982,6,0,L|504:372,3,62.5,0|0|2|0,0:0|0:0|0:2|0:0,0:0:0:0:
512,272,168527,2,0,L|449:264,3,62.5,0|0|2|0,0:0|0:0|0:2|0:0,0:0:0:0:
344,304,169073,2,0,L|280:312,3,62.5,0|0|2|0,0:0|0:0|0:2|0:0,0:0:0:0:
272,212,169618,2,0,L|334:204,3,62.5,0|0|2|0,0:0|0:0|0:2|0:0,0:0:0:0:
404,152,170164,6,0,P|398:121|396:90,1,62.5,0|0,0:0|0:0,0:0:0:0:
307,99,170436,2,0,P|299:31|299:19,1,62.5,0|0,0:0|0:0,0:0:0:0:
212,37,170709,2,0,P|210:68|205:99,1,62.5,0|0,0:0|0:0,0:0:0:0:
115,90,170981,2,0,P|113:121|108:152,1,62.5,0|0,0:0|0:0,0:0:0:0:
64,228,171254,2,0,P|136:244|152:252,1,62.5,0|0,0:0|0:0,0:0:0:0:
188,332,171527,2,0,P|260:316|276:308,1,62.5,0|0,0:0|0:0,0:0:0:0:
328,280,171800,5,2,0:0:0:0:
256,120,172073,1,2,0:2:0:0:
432,136,172345,6,0,P|448:200|448:268,1,125,6|0,0:0|0:0,0:0:0:0:
400,332,172754,1,0,0:0:0:0:
328,280,172891,2,0,P|312:216|312:148,1,125,10|2,0:0|0:0,0:0:0:0:
448,48,173436,2,0,P|508:60|524:60,1,62.5,4|0,0:0|0:0,0:0:0:0:
493,148,173709,2,0,P|461:144|431:135,1,62.5,2|0,0:2|0:0,0:0:0:0:
364,80,173982,2,0,P|275:68|219:139,1,187.5,10|0,0:0|0:0,0:0:0:0:
184,220,174527,6,0,P|124:240|56:236,1,125,6|0,0:0|0:0,0:0:0:0:
12,312,174936,1,0,0:0:0:0:
80,368,175073,2,0,P|140:348|208:352,1,125,10|2,0:0|0:0,0:0:0:0:
352,256,175618,2,0,L|364:156,1,62.5,4|0,0:0|0:0,0:0:0:0:
312,120,175891,2,0,P|280:120|250:113,1,62.5,2|0,0:2|0:0,0:0:0:0:
196,184,176164,2,0,P|157:103|212:33,1,187.5,10|0,0:0|0:0,0:0:0:0:
296,8,176709,6,0,P|416:20|460:28,1,125,6|0,0:0|0:0,0:0:0:0:
456,104,177118,2,0,P|444:224|436:268,1,125,0|2,0:0|0:2,0:0:0:0:
360,204,177527,2,0,P|292:220|268:220,1,62.5,2|0,0:2|0:0,0:0:0:0:
194,181,177800,2,0,P|174:93|178:57,1,125,6|0,0:0|0:0,0:0:0:0:
98,23,178209,2,0,P|87:84|92:147,1,125,0|2,0:0|0:2,0:0:0:0:
120,232,178618,2,0,L|97:290,1,62.5,2|0,0:2|0:0,0:0:0:0:
156,380,178891,6,0,L|200:263,1,125,6|2,0:0|0:2,0:0:0:0:
232,180,179300,1,0,0:0:0:0:
180,108,179436,2,0,P|260:88|340:60,1,125,6|2,0:0|0:2,0:0:0:0:
360,12,179845,1,0,0:0:0:0:
444,32,179982,2,0,P|484:116|428:188,1,187.5,6|0,0:0|0:0,0:0:0:0:
352,213,180527,2,0,P|272:193|192:165,1,125,8|10,0:0|0:2,0:0:0:0:
328,328,181073,6,0,P|408:308|488:280,1,125,6|0,0:0|0:0,0:0:0:0:
508,232,181482,1,0,0:0:0:0:
433,185,181618,2,0,P|405:81|397:21,1,125,10|2,0:0|0:0,0:0:0:0:
260,168,182164,2,0,P|290:160|320:148,1,62.5,4|0,0:0|0:0,0:0:0:0:
292,64,182436,2,0,P|263:75|232:83,1,62.5,2|0,0:2|0:2,0:0:0:0:
172,148,182709,2,0,P|76:148|40:64,1,187.5,10|0,0:0|0:0,0:0:0:0:
92,4,183254,6,0,P|160:8|240:12,1,125,6|0,0:0|0:0,0:0:0:0:
292,64,183664,1,0,0:0:0:0:
312,148,183800,2,0,P|376:132|440:140,1,125,10|2,0:0|0:0,0:0:0:0:
344,288,184345,2,0,L|256:304,1,62.5,4|0,0:0|0:0,0:0:0:0:
216,244,184618,2,0,L|128:260,1,62.5,2|0,0:2|0:0,0:0:0:0:
104,328,184891,2,0,P|68:245|120:173,1,187.5,10|0,0:0|0:0,0:0:0:0:
200,136,185436,6,0,L|180:12,1,125,6|0,0:0|0:0,0:0:0:0:
100,49,185845,2,0,L|120:173,1,125,0|2,0:0|0:2,0:0:0:0:
192,224,186254,2,0,P|236:228|280:244,1,62.5,2|0,0:2|0:0,0:0:0:0:
312,136,186527,2,0,P|372:168|432:152,1,125,6|0,0:0|0:0,0:0:0:0:
483,91,186936,2,0,P|512:146|499:206,1,125,0|2,0:0|0:2,0:0:0:0:
420,244,187345,2,0,L|412:328,1,62.5,2|0,0:2|0:0,0:0:0:0:
324,372,187618,6,0,L|152:352,1,125,6|2,0:0|0:2,0:0:0:0:
136,296,188027,1,0,0:0:0:0:
211,250,188164,2,0,P|164:212|103:215,1,125,6|2,0:0|0:2,0:0:0:0:
48,284,188573,1,0,0:0:0:0:
16,204,188709,2,0,B|32:136|32:136|64:108|64:108|84:16,1,187.5,6|0,0:0|0:0,0:0:0:0:
164,56,189254,2,0,B|228:60|228:32|288:36,1,125,8|10,0:0|0:2,0:0:0:0:
459,7,189800,6,0,P|467:68|435:121,1,125,6|0,0:0|0:0,0:0:0:0:
356,160,190209,1,0,0:0:0:0:
280,116,190345,2,0,P|272:176|304:229,1,125,10|2,0:0|0:0,0:0:0:0:
464,304,190891,2,0,P|452:224|452:204,1,62.5,4|0,0:0|0:0,0:0:0:0:
512,180,191164,2,0,P|507:149|501:118,1,62.5,2|0,0:2|0:0,0:0:0:0:
488,32,191436,2,0,P|400:0|312:44,1,187.5,10|0,0:0|0:2,0:0:0:0:
280,116,191982,6,0,L|128:100,1,125,6|0,0:0|0:0,0:0:0:0:
80,56,192391,1,0,0:0:0:0:
20,120,192527,2,0,L|33:244,1,125,10|2,0:0|0:0,0:0:0:0:
176,344,193073,2,0,P|144:342|114:336,1,62.5,4|0,0:0|0:0,0:0:0:0:
156,260,193345,2,0,P|232:272|252:280,1,62.5,2|0,0:2|0:0,0:0:0:0:
288,320,193618,2,0,P|392:288|384:224,1,187.5,10|0,0:0|0:0,0:0:0:0:
344,152,194164,6,0,P|232:164|200:176,1,125,6|0,0:0|0:0,0:0:0:0:
160,232,194573,2,0,P|132:177|146:117,1,125,0|2,0:0|0:2,0:0:0:0:
208,56,194982,2,0,P|260:64|288:76,1,62.5,2|0,0:2|0:0,0:0:0:0:
344,152,195254,2,0,P|428:140|456:96,1,125,6|0,0:0|0:0,0:0:0:0:
460,24,195664,2,0,P|348:12|316:4,1,125,0|2,0:0|0:2,0:0:0:0:
269,67,196073,2,0,P|261:119|249:147,1,62.5,2|0,0:2|0:0,0:0:0:0:
228,212,196345,6,0,P|140:208|112:172,1,125,6|2,0:0|0:2,0:0:0:0:
96,100,196754,1,0,0:0:0:0:
32,160,196891,2,0,P|19:221|9:283,1,125,6|2,0:0|0:2,0:0:0:0:
52,360,197300,1,0,0:0:0:0:
140,348,197436,2,0,L|304:320,1,125,6|2,0:0|0:2,0:0:0:0:
312,252,197845,1,0,0:0:0:0:
240,200,197982,2,0,L|116:221,1,125,8|10,0:0|0:2,0:0:0:0:
228,84,198527,6,0,P|280:112|344:100,1,125,6|0,0:0|0:0,0:0:0:0:
408,44,198936,1,0,0:0:0:0:
496,36,199073,2,0,P|504:116|504:184,1,125,10|2,0:0|0:0,0:0:0:0:
440,324,199618,2,0,P|408:260|404:240,1,62.5,4|0,0:0|0:0,0:0:0:0:
400,180,199891,2,0,P|371:192|345:209,1,62.5,2|0,0:2|0:0,0:0:0:0:
288,276,200164,2,0,B|184:296|216:212|116:232,1,187.5,10|0,0:0|0:0,0:0:0:0:
60,300,200709,6,0,P|28:247|40:187,1,125,6|0,0:0|0:0,0:0:0:0:
88,116,201118,1,0,0:0:0:0:
164,156,201254,2,0,B|213:147|213:147|240:156|240:156|300:144,1,125,10|2,0:0|0:0,0:0:0:0:
440,56,201800,2,0,L|352:40,1,62.5,4|0,0:0|0:0,0:0:0:0:
396,132,202073,2,0,L|457:143,1,62.5,2|0,0:2|0:0,0:0:0:0:
492,252,202345,2,0,P|402:272|325:224,1,187.5,10|0,0:0|0:0,0:0:0:0:
286,146,202891,6,0,P|225:141|180:182,1,125,6|0,0:0|0:0,0:0:0:0:
152,264,203300,2,0,L|0:248,1,125,0|2,0:0|0:2,0:0:0:0:
32,164,203709,2,0,L|117:174,1,62.5,2|0,0:2|0:0,0:0:0:0:
180,182,203982,2,0,P|172:90|172:46,1,125,6|2,0:0|0:2,0:0:0:0:
248,12,204391,2,0,P|316:20|344:84,1,125,0|2,0:0|0:2,0:0:0:0:
360,152,204800,2,0,P|365:203|368:244,1,62.5,2|0,0:2|0:0,0:0:0:0:
426,277,205073,6,0,P|371:303|313:285,1,125,0|2,0:0|0:2,0:0:0:0:
256,216,205482,1,0,0:0:0:0:
200,148,205618,2,0,P|141:129|86:155,1,125,0|2,0:0|0:2,0:0:0:0:
44,232,206027,1,0,0:0:0:0:
100,300,206164,2,0,P|158:318|213:292,1,125,0|2,0:0|0:2,0:0:0:0:
256,216,206573,1,0,0:0:0:0:
312,148,206709,2,0,P|314:113|318:85,1,62.5,0|0,0:2|0:0,0:0:0:0:
200,148,206982,2,0,P|197:113|193:85,1,62.5,2|0,0:2|0:0,0:0:0:0:
256,8,207254,5,4,0:0:0:0:
