osu file format v14

[General]
AudioFilename: Pegboard Nerds-Try This.mp3
AudioLeadIn: 0
PreviewTime: 66239
Countdown: 0
SampleSet: Soft
StackLeniency: 0.7
Mode: 0
LetterboxInBreaks: 0
WidescreenStoryboard: 0

[Editor]
DistanceSpacing: 1.2
BeatDivisor: 4
GridSize: 4
TimelineZoom: 1

[Metadata]
Title:Try This
TitleUnicode:Try This
Artist:Pegboard Nerds
ArtistUnicode:Pegboard Nerds
Creator:Nozhomi
Version:wubwub
Source:
Tags:drumstep eletronic monstercat
BeatmapID:700439
BeatmapSetID:313783

[Difficulty]
HPDrainRate:6.6
CircleSize:4.3
OverallDifficulty:8
ApproachRate:9.3
SliderMultiplier:2
SliderTickRate:1

[Events]
//Background and Video events
0,0,"bgloli.jpg",0,0
//Break Periods
2,63825,65721
2,174170,176066
//Storyboard Layer 0 (Background)
//Storyboard Layer 1 (Fail)
//Storyboard Layer 2 (Pass)
//Storyboard Layer 3 (Foreground)
//Storyboard Sound Samples

[TimingPoints]
2877,344.827586206897,4,2,1,80,1,0
2877,-200,4,2,1,80,0,0
8394,-133.333333333333,4,2,1,50,0,0
9083,-133.333333333333,4,2,1,60,0,0
9773,-133.333333333333,4,2,1,70,0,0
10463,-133.333333333333,4,2,1,80,0,0
11152,-100,4,2,1,80,0,0
13394,-83.3333333333333,4,2,1,80,0,0
13911,-100,4,2,1,80,0,0
16325,-83.3333333333333,4,2,1,80,0,0
16670,-100,4,2,1,80,0,0
22187,-100,4,2,1,80,0,0
27359,-71.4285714285714,4,2,1,80,0,0
27704,-100,4,2,1,80,0,0
32187,-71.4285714285714,4,2,1,80,0,0
32532,-100,4,2,1,80,0,0
32877,-71.4285714285714,4,2,1,80,0,0
33221,-100,4,2,1,80,0,0
38394,-71.4285714285714,4,2,1,80,0,0
38739,-100,4,2,1,80,0,0
44256,-166.666666666667,4,2,1,80,0,0
44945,-100,4,2,1,80,0,0
47014,-166.666666666667,4,2,1,80,0,0
47704,-100,4,2,1,80,0,0
49773,-166.666666666667,4,2,1,80,0,0
50463,-100,4,2,1,80,0,0
52532,-166.666666666667,4,2,1,80,0,0
53221,-100,4,2,1,80,0,0
53911,-166.666666666667,4,2,1,80,0,0
54601,-62.5,4,2,1,80,0,0
54945,-100,4,2,1,80,0,0
55290,-100,4,2,1,80,0,0
66325,-166.666666666667,4,2,1,90,0,1
66842,-71.4285714285714,4,2,1,90,0,1
68566,-100,4,2,1,90,0,1
68739,-76.9230769230769,4,2,1,90,0,1
68911,-62.5,4,2,1,90,0,1
69083,-166.666666666667,4,2,1,90,0,1
69428,-71.4285714285714,4,2,1,90,0,1
71497,-50,4,2,1,90,0,1
71842,-166.666666666667,4,2,1,90,0,1
72359,-71.4285714285714,4,2,1,90,0,1
74083,-100,4,2,1,90,0,1
74256,-76.9230769230769,4,2,1,90,0,1
74428,-62.5,4,2,1,90,0,1
77359,-166.666666666667,4,2,1,90,0,1
77877,-71.4285714285714,4,2,1,90,0,1
79601,-100,4,2,1,90,0,1
79773,-76.9230769230769,4,2,1,90,0,1
79945,-62.5,4,2,1,90,0,1
80118,-166.666666666667,4,2,1,90,0,1
80463,-71.4285714285714,4,2,1,90,0,1
82532,-50,4,2,1,90,0,1
82877,-166.666666666667,4,2,1,90,0,1
83394,-71.4285714285714,4,2,1,90,0,1
85118,-100,4,2,1,90,0,1
85290,-76.9230769230769,4,2,1,90,0,1
85463,-62.5,4,2,1,90,0,1
85635,-100,4,2,1,90,0,1
88221,-100,4,2,1,90,0,0
88394,-166.666666666667,4,2,1,90,0,1
88911,-100,4,2,1,90,0,1
91152,-71.4285714285714,4,2,1,90,0,1
91325,-100,4,2,1,90,0,1
91670,-71.4285714285714,4,2,1,90,0,1
93911,-166.666666666667,4,2,1,90,0,1
94428,-100,4,2,1,90,0,1
96325,-50,4,2,1,90,0,1
96670,-71.4285714285714,4,2,1,90,0,1
99083,-50,4,2,1,90,0,1
99428,-166.666666666667,4,2,1,90,0,1
99945,-100,4,2,1,90,0,1
102187,-71.4285714285714,4,2,1,90,0,1
102359,-100,4,2,1,90,0,1
102704,-71.4285714285714,4,2,1,90,0,1
104945,-166.666666666667,4,2,1,90,0,1
105463,-100,4,2,1,90,0,1
107359,-50,4,2,1,90,0,1
107704,-100,4,2,1,80,0,0
110463,-200,4,2,1,80,0,0
111842,-200,4,2,1,60,0,0
113221,-200,4,2,1,50,0,0
114601,-200,4,2,1,40,0,0
115980,-200,4,2,1,35,0,0
117359,-200,4,2,1,30,0,0
118739,-200,4,2,1,20,0,0
121411,-200,4,2,1,40,0,0
127014,-200,4,2,1,50,0,0
129773,-200,4,2,1,60,0,0
131152,-83.3333333333333,4,2,1,80,0,0
131497,-100,4,2,1,80,0,0
132532,-100,4,2,1,80,0,0
137704,-71.4285714285714,4,2,1,80,0,0
138049,-100,4,2,1,80,0,0
142532,-71.4285714285714,4,2,1,80,0,0
142877,-100,4,2,1,80,0,0
143221,-71.4285714285714,4,2,1,80,0,0
143566,-100,4,2,1,80,0,0
148739,-71.4285714285714,4,2,1,80,0,0
149083,-100,4,2,1,80,0,0
154256,-71.4285714285714,4,2,1,80,0,0
154601,-100,4,2,1,80,0,0
176670,-166.666666666667,4,2,1,90,0,1
177187,-71.4285714285714,4,2,1,90,0,1
178911,-100,4,2,1,90,0,1
179083,-76.9230769230769,4,2,1,90,0,1
179256,-62.5,4,2,1,90,0,1
179428,-166.666666666667,4,2,1,90,0,1
179773,-71.4285714285714,4,2,1,90,0,1
181842,-50,4,2,1,90,0,1
182187,-166.666666666667,4,2,1,90,0,1
182704,-71.4285714285714,4,2,1,90,0,1
184428,-100,4,2,1,90,0,1
184601,-76.9230769230769,4,2,1,90,0,1
184773,-62.5,4,2,1,90,0,1
187704,-166.666666666667,4,2,1,90,0,1
188221,-71.4285714285714,4,2,1,90,0,1
189945,-100,4,2,1,90,0,1
190118,-76.9230769230769,4,2,1,90,0,1
190290,-62.5,4,2,1,90,0,1
190463,-166.666666666667,4,2,1,90,0,1
190808,-71.4285714285714,4,2,1,90,0,1
192877,-50,4,2,1,90,0,1
193221,-166.666666666667,4,2,1,90,0,1
193739,-71.4285714285714,4,2,1,90,0,1
195463,-100,4,2,1,90,0,1
195635,-76.9230769230769,4,2,1,90,0,1
195808,-62.5,4,2,1,90,0,1
195980,-100,4,2,1,90,0,1
198566,-100,4,2,1,90,0,0
198739,-166.666666666667,4,2,1,90,0,1
199256,-100,4,2,1,90,0,1
201497,-71.4285714285714,4,2,1,90,0,1
201670,-100,4,2,1,90,0,1
202014,-71.4285714285714,4,2,1,90,0,1
204256,-166.666666666667,4,2,1,90,0,1
204773,-100,4,2,1,90,0,1
206670,-50,4,2,1,90,0,1
207014,-71.4285714285714,4,2,1,90,0,1
209428,-50,4,2,1,90,0,1
209773,-166.666666666667,4,2,1,90,0,1
210290,-100,4,2,1,90,0,1
212532,-71.4285714285714,4,2,1,90,0,1
212704,-100,4,2,1,90,0,1
213049,-71.4285714285714,4,2,1,90,0,1
215290,-166.666666666667,4,2,1,90,0,1
215808,-100,4,2,1,90,0,1
217704,-50,4,2,1,90,0,1
218049,-100,4,2,1,80,0,0
221497,-100,4,2,1,70,0,0
222187,-100,4,2,1,60,0,0
222877,-100,4,2,1,50,0,0
223566,-100,4,2,1,40,0,0
224256,-100,4,2,1,30,0,0
224859,-100,4,2,1,5,0,0

[Colours]
Combo1 : 204,168,57
Combo2 : 166,24,4
Combo3 : 84,218,198
Combo4 : 204,0,0

[HitObjects]
56,96,2877,5,0,0:0:0:0:
108,204,3049,1,0,0:0:0:0:
388,312,3394,1,0,0:0:0:0:
432,200,3566,1,0,0:0:0:0:
256,36,3911,1,0,0:0:0:0:
256,36,4083,2,0,B|212:72|224:128|224:128|240:180|208:228|208:228|204:272|136:288|136:288|144:248|102:196,1,400
8,136,5635,5,0,0:0:0:0:
120,92,5807,1,0,0:0:0:0:
400,200,6152,1,0,0:0:0:0:
288,244,6324,1,0,0:0:0:0:
4,344,6670,1,0,0:0:0:0:
4,344,6842,2,0,B|48:280|40:200|40:200|88:356|140:280|140:280|160:256|212:264,1,400
356,300,8394,5,0,0:0:0:0:
370,303,8480,1,0,0:0:0:0:
384,303,8566,1,0,0:0:0:0:
398,300,8652,1,0,0:0:0:0:
411,293,8739,1,0,0:0:0:0:
421,281,8825,1,0,0:0:0:0:
426,267,8911,1,0,0:0:0:0:
427,252,8997,1,0,0:0:0:0:
423,237,9083,1,0,0:0:0:0:
418,222,9170,1,0,0:0:0:0:
411,208,9256,1,0,0:0:0:0:
400,197,9342,1,0,0:0:0:0:
386,190,9428,1,0,0:0:0:0:
371,187,9514,1,0,0:0:0:0:
355,187,9601,1,0,0:0:0:0:
341,192,9687,1,0,0:0:0:0:
327,197,9773,5,0,0:0:0:0:
309,203,9859,1,0,0:0:0:0:
290,203,9945,1,0,0:0:0:0:
267,200,10032,1,0,0:0:0:0:
246,190,10118,1,0,0:0:0:0:
225,173,10204,1,0,0:0:0:0:
212,149,10290,1,0,0:0:0:0:
210,118,10377,1,0,0:0:0:0:
223,91,10463,1,0,0:0:0:0:
246,66,10549,1,0,0:0:0:0:
278,55,10635,1,0,0:0:0:0:
312,68,10721,1,0,0:0:0:0:
330,100,10808,1,0,0:0:0:0:
322,140,10894,1,0,0:0:0:0:
312,180,10980,1,0,0:0:0:0:
310,224,11066,1,0,0:0:0:0:
316,288,11152,6,0,P|412:324|396:268,1,200,4|0,0:0|0:0,0:0:0:0:
360,108,11713,1,0,0:0:0:0:
223,91,11842,2,0,L|203:19,2,66.6666666666667
248,188,12187,1,0,0:0:0:0:
156,320,12359,1,0,0:0:0:0:
41,192,12532,6,0,P|88:175|134:192,1,100
256,288,12877,1,0,0:0:0:0:
378,192,13092,1,0,0:0:0:0:
436,96,13221,1,0,0:0:0:0:
223,91,13394,2,0,B|272:104|272:104|296:88|296:88|344:96,2,119.999996337891
78,55,13911,6,0,B|92:96|120:112|120:112|80:164|124:248,1,200,4|0,0:0|0:0,0:0:0:0:
256,320,14471,1,0,0:0:0:0:
256,202,14601,2,0,L|256:130,2,66.6666666666667
256,320,14945,1,0,0:0:0:0:
395,233,15118,1,0,0:0:0:0:
336,76,15290,6,0,P|340:128|312:176,1,100
192,88,15635,1,0,0:0:0:0:
336,76,15808,1,0,0:0:0:0:
395,233,15980,2,0,P|427:240|459:233,2,66.6666666666667
283,155,16325,6,0,P|219:191|285:224,1,179.999994506836
356,136,16670,6,0,P|308:84|264:84,1,100,4|0,0:0|0:0,0:0:0:0:
136,120,17014,1,0,0:0:0:0:
240,276,17230,1,0,0:0:0:0:
356,136,17359,2,0,B|376:108|376:108|376:76,2,66.6666666666667
256,192,17704,1,0,0:0:0:0:
384,272,17877,1,0,0:0:0:0:
450,139,18049,6,0,P|403:123|355:135,1,100
228,216,18394,1,0,0:0:0:0:
68,192,18609,1,0,0:0:0:0:
164,76,18739,1,0,0:0:0:0:
256,192,18911,2,0,P|276:235|256:279,1,100
124,352,19256,1,0,0:0:0:0:
210,139,19428,6,0,P|256:122|302:139,1,100,4|0,0:0|0:0,0:0:0:0:
400,228,19773,1,0,0:0:0:0:
233,258,19945,2,0,P|196:226|187:177,1,100
215,49,20290,1,0,0:0:0:0:
324,178,20463,2,0,P|315:226|278:258,1,100
64,128,20808,6,0,L|180:152,1,100
324,178,21153,1,0,0:0:0:0:
132,232,21325,2,0,L|248:256,1,100
392,282,21670,1,0,0:0:0:0:
392,282,21756,1,0,0:0:0:0:
392,282,21842,1,0,0:0:0:0:
488,108,22014,1,0,0:0:0:0:
250,148,22187,6,0,B|228:152|208:168|208:168|176:132|136:120|88:156|94:196,1,200,4|0,0:0|0:0,0:0:0:0:
172,320,22704,1,0,0:0:0:0:
300,192,22877,2,0,P|320:148|299:104,1,100
184,28,23221,1,0,0:0:0:0:
208,168,23394,1,0,0:0:0:0:
388,72,23566,6,0,P|344:104|288:100,1,100
436,168,23911,2,0,P|485:190|510:240,1,100
484,80,24256,1,0,0:0:0:0:
388,268,24428,1,0,0:0:0:0:
292,112,24601,1,0,0:0:0:0:
480,136,24773,1,0,0:0:0:0:
355,296,24945,6,0,P|290:249|368:229,1,200,4|0,0:0|0:0,0:0:0:0:
252,348,25462,1,0,0:0:0:0:
232,207,25635,2,0,P|263:169|308:148,1,100
384,276,25979,1,0,0:0:0:0:
240,244,26152,1,0,0:0:0:0:
376,160,26324,6,0,P|356:97|315:80,1,100
212,304,26670,2,0,P|257:321|302:302,1,100
181,97,27014,2,0,P|143:128|137:177,1,100
371,260,27359,2,0,B|364:314|300:338|300:338|260:298|212:304,1,209.999993591309
136,316,27704,6,0,P|67:261|136:208,1,200,4|0,0:0|0:0,0:0:0:0:
284,224,28221,1,0,0:0:0:0:
383,351,28394,2,0,P|360:307|371:260,1,100
444,132,28738,1,0,0:0:0:0:
508,268,28911,1,0,0:0:0:0:
360,252,29083,6,0,L|248:224,1,100
412,196,29428,2,0,L|300:168,1,100
172,124,29773,1,0,0:0:0:0:
24,256,29945,1,0,0:0:0:0:
204,348,30118,1,0,0:0:0:0:
176,148,30290,1,0,0:0:0:0:
28,284,30462,5,4,0:0:0:0:
0,136,30635,1,0,0:0:0:0:
180,168,30808,2,0,B|220:176|240:200|240:200|220:136|248:72,1,200
384,4,31325,1,0,0:0:0:0:
304,136,31497,2,0,B|288:152|308:184|328:224|276:248,1,100
184,328,31842,21,0,0:0:0:0:
28,284,32014,1,0,0:0:0:0:
180,168,32187,2,0,P|225:209|179:251,1,139.999995727539
296,140,32532,6,0,P|320:209|296:278,1,150
240,84,32877,6,0,P|311:61|372:126,1,139.999995727539
319,198,33221,6,0,B|304:172|296:140|296:140|232:192|169:179,1,200,4|0,0:0|0:0,0:0:0:0:
32,116,33738,1,0,0:0:0:0:
64,284,33911,2,0,L|88:168,1,100
152,52,34255,1,0,0:0:0:0:
300,148,34428,1,0,0:0:0:0:
176,264,34600,6,0,P|147:301|175:338,1,100
336,120,34945,2,0,P|364:82|336:45,1,100
188,128,35290,1,0,0:0:0:0:
324,256,35463,1,0,0:0:0:0:
208,96,35636,1,0,0:0:0:0:
304,288,35807,1,0,0:0:0:0:
236,72,35980,6,0,P|276:144|352:172,1,150,4|0,0:0|0:0,0:0:0:0:
416,184,36325,2,0,P|366:186|328:217,1,100
479,229,36670,2,0,P|495:183|478:137,1,100
380,24,37014,1,0,0:0:0:0:
335,170,37187,1,0,0:0:0:0:
496,104,37359,6,0,P|449:120|401:108,1,100
232,56,37704,2,0,P|183:44|137:60,1,100
192,236,38049,1,0,0:0:0:0:
184,44,38222,1,0,0:0:0:0:
123,239,38394,2,0,P|193:305|260:238,1,209.999993591309
184,44,38739,6,0,B|216:80|256:80|256:80|312:48|380:76,1,200,4|0,0:0|0:0,0:0:0:0:
504,176,39256,1,0,0:0:0:0:
348,256,39429,2,0,P|323:214|339:168,1,100
424,32,39773,1,0,0:0:0:0:
508,180,39946,1,0,0:0:0:0:
339,169,40118,6,0,P|293:153|247:170,1,100
88,256,40463,2,0,P|134:272|180:255,1,100
264,104,40808,1,0,0:0:0:0:
92,108,40980,1,0,0:0:0:0:
180,255,41153,1,0,0:0:0:0:
240,96,41325,1,0,0:0:0:0:
44,136,41497,5,4,0:0:0:0:
164,264,41670,1,0,0:0:0:0:
216,96,41843,2,0,B|207:159|253:199|253:199|254:242|291:283,1,200
424,332,42360,1,0,0:0:0:0:
364,195,42532,2,0,P|363:147|328:114,1,100
288,308,42877,21,0,0:0:0:0:
432,200,43049,1,0,0:0:0:0:
232,240,43222,2,0,P|200:284|212:344,1,100
280,143,43566,2,0,P|310:105|309:56,1,100
62,159,43912,2,0,B|116:155|116:155|160:175|160:175|208:172,1,150
284,160,44256,6,0,L|312:252,1,89.9999972534181
372,192,44601,2,0,L|345:106,1,89.9999972534181
298,32,44945,6,0,P|256:55|214:31,1,100
256,192,45290,1,0,0:0:0:0:
297,352,45463,2,0,P|255:328|214:352,1,100
256,192,45808,1,0,0:0:0:0:
415,150,45980,2,0,P|392:191|416:233,1,100
256,192,46325,1,0,0:0:0:0:
96,150,46497,2,0,P|119:191|95:233,1,100
4,312,46842,1,0,0:0:0:0:
111,343,47014,6,0,P|154:356|198:347,1,89.9999972534181
256,304,47359,2,0,P|232:260|268:232,1,89.9999972534181
304,184,47704,6,0,P|240:196|204:184,1,100
104,120,48049,1,0,0:0:0:0:
358,137,48222,2,0,P|374:183|357:229,1,100
256,304,48567,1,0,0:0:0:0:
154,229,48739,2,0,P|137:183|154:137,1,100
256,64,49084,1,0,0:0:0:0:
384,192,49256,1,0,0:0:0:0:
232,236,49429,1,0,0:0:0:0:
308,96,49601,1,0,0:0:0:0:
480,260,49773,6,0,L|464:168,1,89.9999972534181
400,248,50118,2,0,L|415:336,1,89.9999972534181
296,292,50463,6,0,B|248:272|248:272|224:288|192:292,1,100
84,276,50807,1,0,0:0:0:0:
144,94,50980,2,0,P|177:131|188:180,1,100
176,300,51325,1,0,0:0:0:0:
395,144,51497,2,0,P|347:154|300:139,1,100,0|0,0:0|0:0,0:0:0:0:
202,68,51842,1,0,0:0:0:0:
227,336,52014,2,0,P|242:289|279:256,1,100
389,207,52359,1,0,0:0:0:0:
205,140,52532,6,0,P|180:105|202:68,1,89.9999972534181
292,100,52877,2,0,P|316:134|295:172,1,89.9999972534181
228,228,53221,6,0,P|284:228|332:260,1,100
400,340,53566,1,0,0:0:0:0:
284,372,53739,1,0,0:0:0:0:
228,228,53911,6,0,L|252:124,1,89.9999972534181
164,184,54256,2,0,L|143:271,1,89.9999972534181
136,144,54601,6,0,L|96:316,1,160
68,112,54945,6,0,P|120:70|203:108,1,150
260,168,55290,6,0,P|304:196|328:164,1,100
300,48,55634,1,0,0:0:0:0:
248,256,55807,1,0,0:0:0:0:
248,256,55979,2,0,P|296:272|356:244,1,100
412,160,56324,1,0,0:0:0:0:
28,48,56669,5,0,0:0:0:0:
88,152,56841,1,0,0:0:0:0:
210,107,57014,2,0,P|224:154|208:200,1,100
140,300,57359,1,0,0:0:0:0:
132,308,57703,1,0,0:0:0:0:
124,316,58048,6,0,B|176:328|176:328|236:308,1,100
332,268,58393,1,0,0:0:0:0:
244,188,58566,1,0,0:0:0:0:
332,116,58739,2,0,B|352:68|352:68|332:24,1,100
224,68,59083,1,0,0:0:0:0:
416,356,59428,5,0,0:0:0:0:
488,260,59600,1,0,0:0:0:0:
368,264,59772,2,0,P|318:263|281:231,1,100
262,59,60118,2,0,P|286:101|277:150,1,100
137,252,60463,2,0,P|162:210|208:193,1,100
396,224,60808,5,0,0:0:0:0:
417,235,60894,1,0,0:0:0:0:
440,242,60980,1,0,0:0:0:0:
464,244,61066,1,0,0:0:0:0:
487,235,61152,1,0,0:0:0:0:
496,211,61239,1,0,0:0:0:0:
488,187,61325,1,0,0:0:0:0:
467,172,61411,1,0,0:0:0:0:
450,153,61497,1,0,0:0:0:0:
443,129,61583,1,0,0:0:0:0:
456,107,61670,1,0,0:0:0:0:
479,99,61756,1,0,0:0:0:0:
501,110,61842,1,0,0:0:0:0:
494,134,61928,1,0,0:0:0:0:
470,142,62014,1,0,0:0:0:0:
444,141,62101,1,0,0:0:0:0:
419,134,62187,5,0,0:0:0:0:
395,126,62273,1,0,0:0:0:0:
370,123,62359,1,0,0:0:0:0:
345,126,62445,1,0,0:0:0:0:
319,141,62531,1,0,0:0:0:0:
299,163,62618,1,0,0:0:0:0:
285,189,62704,1,0,0:0:0:0:
264,210,62790,1,0,0:0:0:0:
234,228,62876,1,0,0:0:0:0:
199,227,62962,1,0,0:0:0:0:
168,208,63049,1,0,0:0:0:0:
159,174,63135,1,0,0:0:0:0:
164,139,63221,1,0,0:0:0:0:
192,110,63307,1,0,0:0:0:0:
210,74,63393,1,0,0:0:0:0:
192,37,63480,1,0,0:0:0:0:
152,32,63566,5,0,0:0:0:0:
76,268,66325,6,0,P|76:328|148:280,1,179.999994506836,4|0,0:0|0:0,0:0:0:0:
120,112,67014,1,0,0:0:0:0:
76,268,67187,1,0,0:0:0:0:
224,296,67359,2,0,L|296:312,1,69.9999978637696
368,332,67532,1,0,0:0:0:0:
452,152,67704,5,0,0:0:0:0:
284,176,67876,1,0,0:0:0:0:
412,288,68049,1,0,0:0:0:0:
408,96,68221,2,0,L|332:140,1,69.9999978637696
284,176,68394,1,0,0:0:0:0:
172,216,68566,2,0,P|150:203|135:183,1,50
212,133,68739,6,0,P|206:100|220:64,1,64.9999970245363
313,104,68911,6,0,P|344:68|388:56,1,80
452,152,69083,6,0,P|411:186|337:160,1,119.999996337891
192,48,69600,1,0,0:0:0:0:
388,16,69773,1,0,0:0:0:0:
330,259,69945,1,0,0:0:0:0:
100,188,70118,2,0,L|124:256,1,69.9999978637696
152,324,70290,1,0,0:0:0:0:
168,112,70463,6,0,L|192:180,1,69.9999978637696
220,248,70635,1,0,0:0:0:0:
416,212,70808,1,0,0:0:0:0:
236,36,70980,2,0,L|260:104,1,69.9999978637696
288,172,71152,1,0,0:0:0:0:
160,340,71325,1,0,0:0:0:0:
83,184,71497,6,0,P|16:90|128:120,1,300
256,192,71842,6,0,B|196:196|156:220|156:220|142:246|122:261|86:268,1,179.999994506836
16,104,72531,1,0,0:0:0:0:
200,108,72704,1,0,0:0:0:0:
256,280,72876,2,0,L|176:260,1,69.9999978637696
116,236,73049,1,0,0:0:0:0:
316,246,73221,6,0,P|323:279|315:313,1,69.9999978637696
272,376,73394,1,0,0:0:0:0:
116,236,73566,1,0,0:0:0:0:
283,184,73739,2,0,P|316:176|350:184,1,69.9999978637696
416,220,73910,1,0,0:0:0:0:
352,356,74083,2,0,L|364:284,1,50
344,124,74256,6,0,L|333:188,1,64.9999970245363
242,358,74428,6,0,L|257:273,1,80
290,69,74601,6,0,P|357:57|344:124,1,160
200,192,74945,1,0,0:0:0:0:
378,226,75118,2,0,P|390:293|324:280,1,160
256,136,75463,1,0,0:0:0:0:
221,314,75635,2,0,P|154:326|168:260,1,160
312,191,75980,5,0,0:0:0:0:
133,157,76152,2,0,P|121:90|188:104,1,160
256,248,76497,1,0,0:0:0:0:
416,104,76669,1,0,0:0:0:0:
492,300,76842,1,0,0:0:0:0:
492,300,76928,1,0,0:0:0:0:
492,300,77014,1,0,0:0:0:0:
256,248,77187,1,0,0:0:0:0:
104,332,77359,6,0,B|112:288|96:252|96:252|144:288|200:296,1,179.999994506836
332,300,78048,1,0,0:0:0:0:
232,136,78221,1,0,0:0:0:0:
96,252,78393,2,0,P|128:260|164:252,1,69.9999978637696
236,224,78566,1,0,0:0:0:0:
380,72,78738,5,0,0:0:0:0:
416,264,78910,1,0,0:0:0:0:
236,180,79083,1,0,0:0:0:0:
400,72,79255,2,0,L|406:149,1,69.9999978637696
412,220,79428,1,0,0:0:0:0:
308,336,79601,2,0,P|288:320|260:312,1,50
124,320,79773,6,0,P|160:315|196:285,1,64.9999970245363
236,180,79945,6,0,P|224:144|240:92,1,80
292,236,80118,6,0,P|240:260|172:226,1,119.999996337891
32,96,80634,1,0,0:0:0:0:
228,24,80807,1,0,0:0:0:0:
160,220,80979,1,0,0:0:0:0:
36,68,81152,2,0,P|68:88|104:96,1,69.9999978637696
176,104,81325,1,0,0:0:0:0:
372,76,81497,6,0,P|338:93|313:120,1,69.9999978637696
270,179,81670,1,0,0:0:0:0:
199,360,81841,1,0,0:0:0:0:
199,360,82014,2,0,P|200:322|189:287,1,69.9999978637696
160,220,82187,1,0,0:0:0:0:
4,128,82359,1,0,0:0:0:0:
4,128,82532,6,0,B|80:112|80:112|132:148|180:152|180:152|252:104|304:136,1,300
360,152,82877,6,0,P|424:191|360:231,1,179.999994506836
176,132,83565,1,0,0:0:0:0:
284,40,83738,1,0,0:0:0:0:
360,231,83911,2,0,P|357:272|335:310,1,69.9999978637696
309,365,84083,1,0,0:0:0:0:
307,175,84256,6,0,P|344:155|388:157,1,69.9999978637696
448,152,84428,1,0,0:0:0:0:
477,339,84600,1,0,0:0:0:0:
286,250,84773,2,0,P|251:227|229:188,1,69.9999978637696
195,138,84945,1,0,0:0:0:0:
447,152,85118,2,0,P|427:165|403:159,1,50
340,92,85290,6,0,P|305:81|288:108,1,64.9999970245363
313,208,85463,6,0,P|321:243|286:250,1,80
263,238,85635,5,0,0:0:0:0:
241,225,85721,1,0,0:0:0:0:
217,217,85807,1,0,0:0:0:0:
191,215,85894,1,0,0:0:0:0:
170,229,85980,1,0,0:0:0:0:
153,247,86066,1,0,0:0:0:0:
134,261,86152,1,0,0:0:0:0:
110,271,86239,1,0,0:0:0:0:
85,265,86325,5,0,0:0:0:0:
62,253,86411,1,0,0:0:0:0:
50,231,86497,1,0,0:0:0:0:
49,206,86583,1,0,0:0:0:0:
61,184,86669,1,0,0:0:0:0:
80,168,86756,1,0,0:0:0:0:
101,154,86842,1,0,0:0:0:0:
118,135,86928,1,0,0:0:0:0:
134,116,87014,6,0,P|143:93|132:71,1,50
185,213,87187,2,0,P|199:232|224:234,1,50
301,105,87359,2,0,P|276:108|263:128,1,50
342,258,87532,2,0,P|351:235|340:213,1,50
270,346,87704,2,0,P|284:365|309:367,1,50
448,312,87876,5,0,0:0:0:0:
448,312,87963,1,0,0:0:0:0:
448,312,88049,1,0,0:0:0:0:
301,105,88221,1,0,0:0:0:0:
185,213,88394,6,0,B|217:225|245:217|245:217|140:274,1,179.999994506836
268,284,89084,6,0,L|355:236,1,100
288,80,89429,1,0,0:0:0:0:
140,164,89601,1,0,0:0:0:0:
333,169,89773,6,0,L|245:217,1,100
180,60,90118,1,0,0:0:0:0:
340,160,90291,1,0,0:0:0:0:
148,172,90463,1,0,0:0:0:0:
300,88,90635,6,0,P|321:98|337:80,1,50
180,60,90808,2,0,P|160:73|167:95,1,50
252,228,90980,2,0,P|250:204|227:199,1,50
222,346,91152,6,0,P|255:353|289:345,1,69.9999978637696
332,283,91325,2,0,P|396:281|376:342,1,150
172,288,91670,2,0,P|163:254|171:220,1,69.9999978637696
196,148,91842,1,0,0:0:0:0:
448,268,92015,1,0,0:0:0:0:
206,347,92187,2,0,P|172:355|138:347,1,69.9999978637696
66,323,92359,1,0,0:0:0:0:
66,323,92445,1,0,0:0:0:0:
100,80,92533,6,0,L|114:161,1,69.9999978637696
124,224,92704,1,0,0:0:0:0:
336,224,92877,1,0,0:0:0:0:
184,78,93050,2,0,L|196:148,1,69.9999978637696
208,224,93222,1,0,0:0:0:0:
416,224,93394,1,0,0:0:0:0:
264,80,93566,2,0,L|278:161,1,69.9999978637696
296,224,93739,1,0,0:0:0:0:
457,304,93911,6,0,P|493:224|456:145,1,179.999994506836
283,212,94600,6,0,P|237:227|190:213,1,100
48,136,94945,1,0,0:0:0:0:
192,64,95117,1,0,0:0:0:0:
190,213,95290,6,0,B|184:252|188:273|188:273|160:264|128:276,1,100
16,348,95634,1,0,0:0:0:0:
163,367,95807,1,0,0:0:0:0:
236,148,95979,2,0,P|177:133|135:157,1,100
296,284,96325,6,0,B|336:328|376:328|376:328|392:280|444:272|444:272|388:228|417:172,1,300
417,173,96670,6,0,P|384:184|340:168,1,69.9999978637696
284,140,96842,1,0,0:0:0:0:
436,16,97014,1,0,0:0:0:0:
159,62,97187,2,0,P|185:85|193:131,1,69.9999978637696
196,193,97359,1,0,0:0:0:0:
0,136,97532,1,0,0:0:0:0:
191,340,97704,2,0,P|198:306|234:276,1,69.9999978637696
287,242,97876,1,0,0:0:0:0:
287,242,97963,1,0,0:0:0:0:
464,356,98049,6,0,L|436:288,1,69.9999978637696
408,220,98221,1,0,0:0:0:0:
256,36,98394,1,0,0:0:0:0:
256,36,98566,2,0,L|229:100,1,69.9999978637696
200,172,98738,1,0,0:0:0:0:
48,356,98911,1,0,0:0:0:0:
79,186,99083,6,0,P|159:114|23:126,1,300
91,119,99428,6,0,B|188:108|188:108|224:128|224:128|264:122,1,179.999994506836
440,176,100118,6,0,L|340:190,1,100
196,288,100463,1,0,0:0:0:0:
360,344,100635,1,0,0:0:0:0:
332,192,100807,6,0,P|284:168|272:216,1,100
360,344,101152,1,0,0:0:0:0:
440,176,101325,1,0,0:0:0:0:
316,60,101497,1,0,0:0:0:0:
252,320,101669,6,0,B|280:328|280:328|316:320,1,50
147,124,101842,2,0,B|126:144|126:144|115:179,1,50
368,131,102014,2,0,B|361:103|361:103|336:76,1,50
280,256,102187,6,0,P|296:224|272:216,1,69.9999978637696
224,231,102359,6,0,P|154:255|86:227,1,150
168,82,102705,6,0,L|158:152,1,69.9999978637696
148,228,102876,1,0,0:0:0:0:
364,164,103049,1,0,0:0:0:0:
108,40,103222,2,0,L|94:125,1,69.9999978637696
88,184,103394,1,0,0:0:0:0:
88,184,103480,1,0,0:0:0:0:
402,324,103567,6,0,P|364:320|332:328,1,69.9999978637696
268,364,103738,1,0,0:0:0:0:
256,140,103911,1,0,0:0:0:0:
24,308,104084,2,0,P|64:316|108:308,1,69.9999978637696
160,276,104256,1,0,0:0:0:0:
36,76,104428,1,0,0:0:0:0:
316,104,104601,2,0,P|324:136|300:200,1,69.9999978637696
284,240,104773,1,0,0:0:0:0:
372,56,104945,6,0,P|392:142|371:229,1,179.999994506836
208,300,105635,6,0,P|177:335|206:371,1,100
284,240,105980,1,0,0:0:0:0:
144,128,106152,1,0,0:0:0:0:
36,272,106324,6,0,P|96:284|144:240,1,100
176,124,106669,1,0,0:0:0:0:
8,112,106842,1,0,0:0:0:0:
127,265,107014,2,0,B|168:296|168:296|220:308,1,100
448,328,107359,6,0,P|340:268|448:210,1,300
412,269,107704,6,0,P|355:259|314:225,1,100
300,68,108221,2,0,P|252:53|205:68,1,100
100,269,108739,2,0,P|157:259|198:225,1,100
380,56,109256,2,0,P|436:76|406:117,1,100
228,292,109773,2,0,B|208:272|208:244|208:244|184:240|169:221,1,100
284,92,110118,2,0,B|304:112|304:140|304:140|328:144|342:162,1,100
479,324,110463,6,0,P|435:343|387:330,1,100,2|0,0:0|0:0,0:0:0:0:
332,288,110980,1,0,0:0:0:0:
404,80,111325,1,0,0:0:0:0:
416,96,111497,1,0,0:0:0:0:
256,192,111842,6,0,L|200:204,1,50,2|0,0:0|0:0,0:0:0:0:
140,224,112187,1,0,0:0:0:0:
192,272,112359,1,0,0:0:0:0:
209,136,112532,2,0,P|256:120|302:137,1,100,2|0,0:0|0:0,0:0:0:0:
308,276,113221,6,0,P|328:300|352:312,2,50,2|0|0,0:0|0:0|0:0,0:0:0:0:
256,228,113739,1,0,0:0:0:0:
203,276,113911,2,0,P|167:309|119:320,1,100,2|0,0:0|0:0,0:0:0:0:
60,192,114601,6,0,L|10:192,2,50,2|0|0,0:0|0:0|0:0,0:0:0:0:
120,156,115118,1,0,0:0:0:0:
180,120,115290,1,2,0:0:0:0:
256,284,115635,1,0,0:0:0:0:
452,192,115980,6,0,L|516:192,2,50,2|0|0,0:0|0:0|0:0,0:0:0:0:
392,228,116497,1,0,0:0:0:0:
332,264,116670,1,2,0:0:0:0:
256,100,117014,1,0,0:0:0:0:
220,264,117359,6,0,P|198:252|186:230,1,50,2|0,0:0|0:0,0:0:0:0:
256,192,117704,1,0,0:0:0:0:
325,153,117877,2,0,P|313:131|292:120,1,50,0|2,0:0|0:0,0:0:0:0:
312,320,118394,1,0,0:0:0:0:
68,92,118739,6,0,B|104:136|104:136|140:104|192:96,1,150
472,192,119773,1,2,0:0:0:0:
276,328,120118,2,0,P|240:296|312:268,1,150
16,344,121152,1,2,0:0:0:0:
136,224,121411,1,2,0:0:0:0:
136,224,121497,6,0,B|162:272|162:272|167:223|214:193,1,150,4|0,0:0|0:0,0:0:0:0:
396,72,122359,1,0,0:0:0:0:
376,88,122532,1,2,0:0:0:0:
176,72,122877,6,0,B|128:64|128:64|168:104|176:152,1,150,4|0,0:0|0:0,0:0:0:0:
180,220,123566,1,0,0:0:0:0:
64,344,123911,1,2,0:0:0:0:
64,216,124170,1,2,0:0:0:0:
64,216,124256,6,0,B|88:260|88:260|144:292,1,100,4|0,0:0|0:0,0:0:0:0:
204,288,124773,1,0,0:0:0:0:
180,220,124945,1,2,0:0:0:0:
176,352,125118,2,0,P|200:356|236:352,1,50
404,264,125635,5,2,0:0:0:0:
384,248,125808,1,0,0:0:0:0:
484,76,126152,1,0,0:0:0:0:
464,92,126325,2,0,B|436:108|436:108|364:92,1,100,2|0,0:0|0:0,0:0:0:0:
184,168,127014,5,2,0:0:0:0:
255,324,127359,2,0,P|263:300|254:277,1,50
196,240,127704,1,2,0:0:0:0:
312,367,127877,2,0,P|325:346|333:318,1,50
312,124,128394,2,0,P|328:152|352:168,1,50,2|0,0:0|0:0,0:0:0:0:
488,52,128911,1,0,0:0:0:0:
484,76,129083,2,0,L|464:188,1,100,2|0,0:0|0:0,0:0:0:0:
360,344,129773,5,2,0:0:0:0:
212,208,130118,2,0,P|184:220|156:220,1,50
96,208,130463,1,2,0:0:0:0:
276,180,130635,2,0,P|280:208|276:244,1,50
56,324,131152,6,0,P|3:328|9:276,1,119.999996337891
340,76,131497,6,0,B|307:84|292:104|292:104|260:74|205:61|160:104|152:136,1,200
232,264,132014,1,0,0:0:0:0:
232,264,132101,1,0,0:0:0:0:
232,264,132187,1,0,0:0:0:0:
352,152,132359,1,0,0:0:0:0:
68,184,132532,6,0,P|31:266|111:363,1,200
232,264,133049,1,0,0:0:0:0:
152,64,133222,2,0,P|104:79|128:128,1,100
260,200,133566,1,0,0:0:0:0:
360,64,133739,1,0,0:0:0:0:
388,264,133911,6,0,L|485:286,1,100
292,340,134256,2,0,L|194:317,1,100
64,208,134601,1,0,0:0:0:0:
228,96,134773,1,0,0:0:0:0:
194,317,134946,1,0,0:0:0:0:
0,160,135118,1,0,0:0:0:0:
288,79,135290,6,0,P|356:134|288:190,1,200
128,132,135807,1,0,0:0:0:0:
176,296,135980,2,0,P|220:331|276:335,1,100
428,228,136324,1,0,0:0:0:0:
244,148,136497,1,0,0:0:0:0:
261,338,136669,6,0,P|284:280|328:240,1,100
476,135,137014,2,0,P|432:158|386:141,1,100
280,8,137359,1,0,0:0:0:0:
428,88,137532,1,0,0:0:0:0:
279,222,137704,2,0,B|240:288|252:328|304:324|320:280|280:264|192:256,1,209.999993591309
71,247,138049,6,0,P|11:181|82:117,1,200
280,148,138566,1,0,0:0:0:0:
78,183,138739,2,0,L|189:214,1,100
364,216,139083,1,0,0:0:0:0:
272,48,139256,1,0,0:0:0:0:
240,304,139428,6,0,L|143:277,1,100
320,184,139773,2,0,L|416:157,1,100
240,64,140118,1,0,0:0:0:0:
104,212,140290,1,0,0:0:0:0:
304,220,140463,1,0,0:0:0:0:
192,20,140635,1,0,0:0:0:0:
68,256,140808,5,0,0:0:0:0:
256,324,140981,1,0,0:0:0:0:
208,144,141152,2,0,P|285:217|400:180,1,200
472,40,141671,1,0,0:0:0:0:
444,235,141843,2,0,P|404:265|357:284,1,100
154,285,142188,21,0,0:0:0:0:
256,160,142360,1,0,0:0:0:0:
357,285,142533,6,0,P|255:306|153:284,1,209.999993591309
72,252,142878,6,0,P|25:295|84:319,1,150
136,208,143221,6,0,P|164:160|76:184,1,209.999993591309
153,284,143566,6,0,P|224:224|226:109,1,200
88,20,144083,1,0,0:0:0:0:
231,122,144256,2,0,P|280:136|328:120,1,100
464,24,144600,1,0,0:0:0:0:
512,188,144773,1,0,0:0:0:0:
327,211,144945,6,0,P|308:166|324:121,1,100
244,272,145290,2,0,P|263:316|246:362,1,100
84,316,145635,1,0,0:0:0:0:
192,148,145807,1,0,0:0:0:0:
324,312,145980,1,0,0:0:0:0:
96,348,146152,1,0,0:0:0:0:
172,108,146325,6,0,B|208:48|208:48|196:132|244:196,1,200
340,300,146841,1,0,0:0:0:0:
288,136,147014,2,0,P|276:92|284:32,1,100
176,208,147358,1,0,0:0:0:0:
76,68,147531,1,0,0:0:0:0:
288,136,147704,6,0,L|176:116,1,100
344,216,148049,2,0,L|442:233,1,100
268,284,148393,1,0,0:0:0:0:
100,252,148566,1,0,0:0:0:0:
356,144,148739,2,0,P|415:219|349:288,1,209.999993591309
183,269,149083,6,0,B|224:284|278:284|278:284|281:230|343:215,1,200
488,308,149600,1,0,0:0:0:0:
448,96,149773,2,0,P|452:152|420:200,1,100
256,76,150117,1,0,0:0:0:0:
81,189,150290,1,0,0:0:0:0:
256,312,150462,6,0,L|336:232,1,100
152,132,150808,2,0,L|181:241,1,100
359,132,151152,2,0,L|250:102,1,100
120,312,151497,1,0,0:0:0:0:
392,312,151669,1,0,0:0:0:0:
152,132,151841,5,0,0:0:0:0:
256,312,152015,1,0,0:0:0:0:
359,132,152188,2,0,P|435:106|410:183,1,200
244,228,152705,1,0,0:0:0:0:
328,56,152877,2,0,P|374:30|424:28,1,100
372,220,153222,21,0,0:0:0:0:
184,164,153394,1,0,0:0:0:0:
359,131,153566,2,0,L|328:260,1,100
216,340,153912,2,0,L|253:194,1,150
276,104,154257,6,0,P|280:23|213:76,1,209.999993591309
315,192,154601,6,0,P|367:205|416:177,1,100
500,68,154945,1,0,0:0:0:0:
360,12,155118,1,0,0:0:0:0:
196,132,155290,2,0,P|178:177|193:224,1,100
272,352,155635,1,0,0:0:0:0:
272,352,155980,5,0,0:0:0:0:
344,220,156152,1,0,0:0:0:0:
152,268,156325,2,0,B|104:272|104:272|124:216,1,100
242,63,156670,2,0,B|262:20|262:20|301:65,1,100
373,244,157014,2,0,B|401:283|401:283|342:294,1,100
100,219,157359,6,0,P|83:266|97:312,1,100
240,356,157704,1,0,0:0:0:0:
212,188,157877,1,0,0:0:0:0:
97,312,158049,1,0,0:0:0:0:
268,368,158221,1,0,0:0:0:0:
248,188,158394,1,0,0:0:0:0:
248,188,158739,5,0,0:0:0:0:
88,192,158911,2,0,L|58:287,1,100
0,136,159256,1,0,0:0:0:0:
184,140,159428,2,0,L|189:248,1,100
272,72,159773,2,0,L|314:172,1,100
400,344,160118,6,0,P|443:359|467:319,1,100
408,176,160463,1,0,0:0:0:0:
292,272,160635,1,0,0:0:0:0:
463,222,160808,2,0,P|481:176|464:130,1,100
344,312,161152,1,0,0:0:0:0:
344,312,161497,5,0,0:0:0:0:
252,168,161670,2,0,L|212:292,1,100
100,352,162014,1,0,0:0:0:0:
180,168,162187,2,0,L|210:72,1,100
381,167,162532,2,0,P|316:199|252:168,1,150
200,108,162877,5,0,0:0:0:0:
440,120,163049,2,0,P|457:169|439:217,1,100
272,260,163394,2,0,L|152:244,1,100
48,160,163739,1,0,0:0:0:0:
40,308,163911,1,0,0:0:0:0:
40,308,164256,5,0,0:0:0:0:
208,356,164428,2,0,P|256:367|304:355,1,100
404,244,164773,1,0,0:0:0:0:
160,144,164945,2,0,P|148:192|160:240,1,100
333,257,165290,2,0,P|365:192|332:127,1,150
256,72,165635,5,0,0:0:0:0:
136,192,165808,1,0,0:0:0:0:
256,312,165980,1,0,0:0:0:0:
376,192,166152,1,0,0:0:0:0:
216,144,166325,2,0,L|145:73,1,100
185,241,166670,2,0,L|255:311,1,100
440,268,167014,5,0,0:0:0:0:
248,208,167187,2,0,L|318:278,1,100
504,236,167532,1,0,0:0:0:0:
312,176,167704,1,0,0:0:0:0:
136,272,167877,1,0,0:0:0:0:
316,356,168049,1,0,0:0:0:0:
316,156,168221,1,0,0:0:0:0:
136,244,168394,5,0,0:0:0:0:
132,64,168566,2,0,B|112:108|112:108|56:140,1,100
212,28,168911,2,0,B|260:23|260:23|315:55,1,100
416,192,169256,1,0,0:0:0:0:
228,256,169428,1,0,0:0:0:0:
304,49,169601,1,0,0:0:0:0:
469,146,169773,6,0,P|484:192|466:241,1,100
356,136,170118,2,0,L|248:112,1,100
96,192,170463,2,0,L|212:192,1,100
356,248,170808,2,0,L|248:272,1,100
84,312,171152,5,0,0:0:0:0:
59,312,171238,1,0,0:0:0:0:
37,298,171324,1,0,0:0:0:0:
25,275,171410,1,0,0:0:0:0:
28,250,171496,1,0,0:0:0:0:
44,230,171583,1,0,0:0:0:0:
66,218,171669,1,0,0:0:0:0:
90,218,171755,1,0,0:0:0:0:
113,224,171841,1,0,0:0:0:0:
135,233,171927,1,0,0:0:0:0:
159,236,172014,1,0,0:0:0:0:
182,227,172100,1,0,0:0:0:0:
199,209,172186,1,0,0:0:0:0:
208,185,172272,1,0,0:0:0:0:
207,160,172358,1,0,0:0:0:0:
207,134,172445,1,0,0:0:0:0:
232,80,172532,6,0,B|256:71|256:71|278:79,1,50
171,268,172704,2,0,B|151:251|151:251|147:227,1,50
364,227,172877,2,0,B|359:252|359:252|340:267,1,50
147,156,173049,6,0,B|151:132|151:132|171:116,1,50
278,304,173221,2,0,B|256:313|256:313|232:304,1,50
340,116,173394,2,0,B|359:131|359:131|364:157,1,50
101,216,173566,2,0,B|92:192|101:168,1,50
411,168,173739,2,0,B|420:192|411:216,1,50
256,192,173910,5,0,0:0:0:0:
76,276,176670,6,0,B|122:307|122:307|178:283|194:315|158:323|150:263|156:236,1,179.999994506836
232,56,177359,1,0,0:0:0:0:
420,116,177532,1,0,0:0:0:0:
364,304,177704,2,0,L|296:280,1,69.9999978637696
224,256,177877,1,0,0:0:0:0:
148,80,178049,5,0,0:0:0:0:
360,92,178221,1,0,0:0:0:0:
224,256,178394,1,0,0:0:0:0:
148,80,178566,2,0,L|216:104,1,69.9999978637696
288,128,178739,1,0,0:0:0:0:
240,336,178911,2,0,L|220:280,1,50
312,164,179083,6,0,L|289:224,1,64.9999970245363
192,128,179256,6,0,L|165:52,1,80
136,180,179428,6,0,P|191:205|246:179,1,119.999996337891
384,44,179945,1,0,0:0:0:0:
184,32,180118,1,0,0:0:0:0:
242,182,180290,1,0,0:0:0:0:
404,32,180463,2,0,B|428:64|428:64|388:80,1,69.9999978637696
328,104,180635,1,0,0:0:0:0:
136,180,180808,6,0,B|168:156|168:156|184:196,1,69.9999978637696
208,256,180980,1,0,0:0:0:0:
256,52,181152,1,0,0:0:0:0:
468,236,181325,2,0,B|462:275|462:275|422:258,1,69.9999978637696
363,233,181497,1,0,0:0:0:0:
120,92,181670,1,0,0:0:0:0:
153,31,181842,6,0,P|149:153|52:80,1,300
128,160,182187,6,0,B|136:240|136:240|172:200|240:184,1,179.999994506836
412,228,182876,1,0,0:0:0:0:
288,344,183049,1,0,0:0:0:0:
376,76,183221,2,0,L|352:148,1,69.9999978637696
328,216,183394,1,0,0:0:0:0:
296,8,183566,6,0,L|272:80,1,69.9999978637696
248,148,183739,1,0,0:0:0:0:
88,12,183911,1,0,0:0:0:0:
196,256,184083,2,0,P|229:266|261:255,1,69.9999978637696
328,216,184255,1,0,0:0:0:0:
128,228,184428,2,0,P|123:255|128:284,1,50
392,248,184601,6,0,P|397:216|382:165,1,64.9999970245363
132,232,184773,6,0,P|131:286|148:326,1,80
384,308,184945,6,0,L|216:288,1,160
4,252,185290,1,0,0:0:0:0:
448,240,185463,2,0,L|280:220,1,160
68,184,185808,1,0,0:0:0:0:
508,172,185980,2,0,L|340:152,1,160
128,112,186325,5,0,0:0:0:0:
289,308,186497,2,0,P|254:365|220:308,1,160
280,92,186842,1,0,0:0:0:0:
448,240,187014,1,0,0:0:0:0:
140,328,187187,1,0,0:0:0:0:
140,328,187273,1,0,0:0:0:0:
140,328,187359,1,0,0:0:0:0:
20,140,187532,1,0,0:0:0:0:
244,168,187704,6,0,P|338:150|356:68,1,179.999994506836
168,16,188393,1,0,0:0:0:0:
96,204,188566,1,0,0:0:0:0:
288,244,188738,2,0,P|320:240|356:224,1,69.9999978637696
416,176,188911,1,0,0:0:0:0:
208,76,189083,5,0,0:0:0:0:
136,264,189255,1,0,0:0:0:0:
320,332,189428,1,0,0:0:0:0:
488,188,189601,2,0,P|485:150|464:120,1,69.9999978637696
408,76,189774,1,0,0:0:0:0:
240,231,189945,6,0,P|272:242|299:243,1,50
388,216,190118,6,0,L|408:288,1,64.9999970245363
429,153,190290,6,0,L|407:75,1,80
232,104,190463,6,0,P|192:88|236:52,1,119.999996337891
220,231,190979,1,0,0:0:0:0:
376,348,191152,1,0,0:0:0:0:
429,153,191324,1,0,0:0:0:0:
224,168,191497,2,0,B|192:172|192:172|140:192,1,69.9999978637696
88,220,191669,1,0,0:0:0:0:
304,352,191842,6,0,B|311:320|311:320|310:264,1,69.9999978637696
301,206,192014,1,0,0:0:0:0:
164,64,192186,1,0,0:0:0:0:
68,288,192359,2,0,B|100:284|100:284|152:264,1,69.9999978637696
204,236,192531,1,0,0:0:0:0:
256,32,192704,1,0,0:0:0:0:
308,236,192877,6,0,B|360:248|404:176|448:160|496:220|448:272|408:256|348:144,1,300
312,56,193221,6,0,B|256:80|256:80|220:64|220:64|188:88|136:96,1,179.999994506836
0,36,193910,1,0,0:0:0:0:
108,200,194083,1,0,0:0:0:0:
256,32,194255,2,0,L|236:120,1,69.9999978637696
220,176,194428,1,0,0:0:0:0:
368,344,194601,6,0,L|301:282,1,69.9999978637696
261,240,194774,1,0,0:0:0:0:
156,60,194945,1,0,0:0:0:0:
40,284,195118,2,0,L|126:257,1,69.9999978637696
182,243,195291,1,0,0:0:0:0:
328,168,195463,2,0,P|324:192|327:217,1,50
400,344,195635,6,0,P|394:311|399:279,1,64.9999970245363
452,80,195808,6,0,P|459:119|454:158,1,80
263,319,195980,6,0,P|280:334|302:325,1,50
364,184,196152,2,0,P|379:201|370:223,1,50
240,144,196325,2,0,P|247:121|271:118,1,50
182,243,196497,2,0,P|158:247|144:228,1,50
188,84,196670,5,0,0:0:0:0:
200,62,196756,1,0,0:0:0:0:
189,39,196842,1,0,0:0:0:0:
166,29,196928,1,0,0:0:0:0:
141,32,197014,1,0,0:0:0:0:
122,49,197101,1,0,0:0:0:0:
111,71,197187,1,0,0:0:0:0:
114,95,197273,1,0,0:0:0:0:
124,117,197359,6,0,L|196:132,1,50
264,252,197532,2,0,L|215:241,1,50
112,132,197704,2,0,L|160:142,1,50
248,268,197877,2,0,L|199:257,1,50
96,148,198049,2,0,L|144:158,1,50
232,284,198221,1,0,0:0:0:0:
232,284,198308,1,0,0:0:0:0:
232,284,198394,1,0,0:0:0:0:
124,117,198566,1,0,0:0:0:0:
296,176,198739,6,0,P|344:240|293:329,1,179.999994506836
223,164,199429,6,0,P|247:120|292:102,1,100
440,132,199774,1,0,0:0:0:0:
345,248,199946,1,0,0:0:0:0:
487,79,200118,6,0,P|509:122|499:170,1,100
354,274,200463,1,0,0:0:0:0:
409,105,200635,1,0,0:0:0:0:
463,274,200808,1,0,0:0:0:0:
320,169,200980,6,0,L|284:133,1,50
384,200,201152,2,0,L|433:186,1,50
324,241,201325,2,0,L|310:290,1,50
228,360,201498,6,0,L|242:291,1,69.9999978637696
168,376,201670,6,0,L|204:200,1,150
224,87,202014,6,0,P|192:102|157:106,1,69.9999978637696
80,100,202187,1,0,0:0:0:0:
288,128,202360,1,0,0:0:0:0:
288,128,202532,2,0,P|263:152|232:167,1,69.9999978637696
155,188,202705,1,0,0:0:0:0:
155,188,202790,1,0,0:0:0:0:
360,144,202877,6,0,P|345:175|320:200,1,69.9999978637696
257,245,203050,1,0,0:0:0:0:
80,100,203222,1,0,0:0:0:0:
420,108,203395,2,0,P|428:140|417:186,1,69.9999978637696
388,244,203567,1,0,0:0:0:0:
256,64,203739,1,0,0:0:0:0:
90,207,203911,2,0,P|83:242|92:276,1,69.9999978637696
128,344,204083,1,0,0:0:0:0:
40,152,204256,6,0,P|16:228|42:328,1,179.999994506836
224,263,204945,2,0,P|273:263|320:280,1,100
448,360,205290,1,0,0:0:0:0:
372,232,205462,1,0,0:0:0:0:
448,68,205635,6,0,P|480:72|472:128,1,100
300,176,205979,1,0,0:0:0:0:
352,36,206152,1,0,0:0:0:0:
372,232,206324,2,0,P|328:260|274:265,1,100
92,164,206670,6,0,B|72:108|41:68|41:68|108:100|152:64|152:64|188:100|224:104,1,300
296,120,207014,6,0,P|296:80|280:48,1,69.9999978637696
216,8,207187,1,0,0:0:0:0:
64,152,207359,1,0,0:0:0:0:
300,192,207532,2,0,P|341:177|366:137,1,69.9999978637696
396,92,207704,1,0,0:0:0:0:
116,176,207877,1,0,0:0:0:0:
388,228,208049,2,0,P|416:196|432:156,1,69.9999978637696
444,96,208221,1,0,0:0:0:0:
444,96,208308,1,0,0:0:0:0:
208,88,208394,6,0,L|136:100,1,69.9999978637696
64,116,208566,1,0,0:0:0:0:
20,324,208739,1,0,0:0:0:0:
272,152,208911,2,0,L|200:164,1,69.9999978637696
128,180,209083,1,0,0:0:0:0:
244,356,209256,1,0,0:0:0:0:
339,158,209428,6,0,P|234:95|250:216,1,300
359,256,209773,6,0,B|296:292|296:292|232:296|193:267,1,179.999994506836
111,81,210463,6,0,L|128:180,1,100
236,288,210808,1,0,0:0:0:0:
320,164,210980,1,0,0:0:0:0:
111,81,211152,6,0,P|160:92|212:84,1,100
352,36,211497,1,0,0:0:0:0:
280,168,211670,1,0,0:0:0:0:
352,300,211842,1,0,0:0:0:0:
408,108,212014,6,0,L|352:132,1,50
104,276,212187,2,0,L|160:252,1,50
408,116,212359,2,0,L|352:140,1,50
100,272,212532,6,0,L|184:236,1,69.9999978637696
264,200,212704,6,0,P|172:192|124:132,1,150
108,16,213050,6,0,L|80:84,1,69.9999978637696
56,152,213221,1,0,0:0:0:0:
256,92,213394,1,0,0:0:0:0:
404,16,213566,2,0,L|432:84,1,69.9999978637696
456,152,213737,1,0,0:0:0:0:
456,152,213825,1,0,0:0:0:0:
290,284,213912,6,0,P|256:291|222:283,1,69.9999978637696
256,216,214083,1,0,0:0:0:0:
440,320,214256,1,0,0:0:0:0:
159,175,214428,2,0,P|169:141|193:116,1,69.9999978637696
235,180,214599,1,0,0:0:0:0:
72,64,214773,1,0,0:0:0:0:
318,116,214945,2,0,P|342:141|352:175,1,69.9999978637696
276,180,215116,1,0,0:0:0:0:
348,48,215290,6,0,P|407:111|421:210,1,179.999994506836
356,336,215980,6,0,P|316:307|300:258,1,100
424,176,216325,1,0,0:0:0:0:
504,304,216497,1,0,0:0:0:0:
300,260,216669,6,0,B|248:256|248:256|195:284,1,100
76,356,217014,1,0,0:0:0:0:
4,224,217187,1,0,0:0:0:0:
184,212,217359,2,0,B|230:187|230:187|260:136,1,100
154,24,217704,6,0,B|123:53|79:53|79:53|59:109|95:145|95:145|163:149|184:212,1,300
208,316,218049,6,0,P|255:328|303:315,1,100
484,76,218566,2,0,B|464:88|436:88|436:88|420:112|401:123,1,100
28,76,219083,2,0,B|48:88|76:88|76:88|92:112|110:123,1,100
208,196,219428,5,0,0:0:0:0:
328,146,219601,2,0,P|344:192|327:238,1,100
256,336,219945,1,0,0:0:0:0:
184,238,220118,2,0,P|167:192|184:146,1,100
271,64,220463,2,0,P|222:64|175:47,1,100
176,47,220808,5,4,0:0:0:0:
256,192,220894,12,0,224945,0:0:0:0:
