osu file format v13

[General]
AudioFilename: Here it comes.mp3
AudioLeadIn: 0
PreviewTime: -1
Countdown: 1
SampleSet: Normal
StackLeniency: 1
Mode: 0
LetterboxInBreaks: 1
WidescreenStoryboard: 0

[Editor]
DistanceSpacing: 0.9
BeatDivisor: 4
GridSize: 8
TimelineZoom: 2.999999

[Metadata]
Title:Here It Comes!
TitleUnicode:Here It Comes!
Artist:Pegboard Nerds
ArtistUnicode:Pegboard Nerds
Creator:userxblade
Version:XtraBlade Style
Source:
Tags:
BeatmapID:521414
BeatmapSetID:223161

[Difficulty]
HPDrainRate:5
CircleSize:4
OverallDifficulty:6
ApproachRate:10
SliderMultiplier:1.3
SliderTickRate:1

[Events]
//Background and Video events
0,0,"osu pic.jpg",0,0
//Break Periods
2,92334,97284
//Storyboard Layer 0 (Background)
//Storyboard Layer 1 (Fail)
//Storyboard Layer 2 (Pass)
//Storyboard Layer 3 (Foreground)
//Storyboard Sound Samples
//Background Colour Transformations
3,100,163,162,255

[TimingPoints]
9734.89507557023,200.0002002002,4,1,0,100,1,0
66534,-57.1428571428571,4,1,0,100,0,1
88934,-100,4,1,0,100,0,0
156135,-50,4,1,0,100,0,1
177535,-100,4,1,0,100,0,0

[HitObjects]
256,192,8324,12,0,15124,0:0:0:0:
256,192,15334,5,0,0:0:0:0:
360,96,15734,2,0,P|416:144|440:200,1,130
344,184,16134,2,0,P|376:256|376:328,1,130
296,256,16534,2,0,P|264:192|272:128,1,130
96,328,16934,1,0,0:0:0:0:
184,80,17134,1,0,0:0:0:0:
392,232,17334,1,0,0:0:0:0:
136,240,17534,1,0,0:0:0:0:
320,56,17734,1,0,0:0:0:0:
392,304,17934,1,0,0:0:0:0:
80,48,18134,6,0,P|152:40|216:48,1,130
432,336,18534,2,0,P|352:344|304:336,1,130
456,48,18934,2,0,P|472:128|464:192,1,130
56,336,19334,2,0,P|48:272|64:192,1,130
256,144,19734,1,0,0:0:0:0:
448,208,19934,1,0,0:0:0:0:
256,280,20134,1,0,0:0:0:0:
256,72,20334,2,0,L|256:216,1,130
256,202,20734,5,0,0:0:0:0:
256,8,20934,1,0,0:0:0:0:
440,96,21134,2,0,P|456:176|448:240,1,130
256,144,21534,1,0,0:0:0:0:
192,344,21734,6,0,P|264:360|320:344,2,130,0|0|0,0:0|0:0|0:0,0:0:0:0:
48,192,22334,1,0,0:0:0:0:
192,48,22534,2,0,P|256:32|320:48,2,130,0|0|0,0:0|0:0|0:0,0:0:0:0:
344,192,23134,1,0,0:0:0:0:
192,48,23334,2,0,P|136:144|88:288,1,260
88,284,23934,5,0,0:0:0:0:
256,88,24134,1,0,0:0:0:0:
256,344,24334,1,0,0:0:0:0:
256,88,24534,2,0,P|344:80|408:96,1,130
256,344,24934,5,0,0:0:0:0:
256,88,25134,1,0,0:0:0:0:
400,96,26134,5,0,0:0:0:0:
96,304,26334,1,0,0:0:0:0:
256,192,26934,5,0,0:0:0:0:
40,48,27134,1,0,0:0:0:0:
16,304,27334,1,0,0:0:0:0:
464,48,27734,2,0,P|456:200|400:312,1,260
256,88,28334,5,0,0:0:0:0:
256,344,28534,1,0,0:0:0:0:
368,112,28734,1,0,0:0:0:0:
168,280,28934,1,0,0:0:0:0:
424,216,29134,1,0,0:0:0:0:
168,160,29334,1,0,0:0:0:0:
376,320,29534,1,0,0:0:0:0:
256,88,29734,6,0,L|256:168,1,65
256,344,29934,2,0,L|256:256,1,65
368,112,30134,2,0,L|328:192,1,65
168,280,30334,2,0,L|200:224,1,65
424,216,30534,2,0,L|360:216,1,65
168,160,30734,2,0,L|240:160,1,65
376,320,30934,2,0,P|264:224|224:104,1,260
225,121,31734,2,0,P|120:216|72:344,1,260
256,136,32334,5,0,0:0:0:0:
512,192,32534,1,0,0:0:0:0:
288,328,32734,1,0,0:0:0:0:
304,72,32934,1,0,0:0:0:0:
72,184,33134,1,0,0:0:0:0:
328,192,33334,1,0,0:0:0:0:
104,320,33534,1,0,0:0:0:0:
104,64,33734,1,0,0:0:0:0:
248,280,33934,1,0,0:0:0:0:
256,24,34134,1,0,0:0:0:0:
248,280,34334,1,0,0:0:0:0:
112,64,34534,6,0,L|176:128,1,65
256,24,34734,2,0,L|256:96,1,65
384,64,34934,2,0,L|336:120,1,65
448,192,35134,2,0,L|384:192,1,65
384,320,35334,2,0,L|344:264,1,65
256,360,35534,2,0,L|256:296,1,65
128,320,35734,2,0,L|176:256,1,65
64,192,35934,2,0,L|128:192,1,65
256,192,36134,6,0,L|256:120,1,65
256,256,36334,2,0,L|256:320,1,65
312,208,36534,2,0,L|344:144,1,65
200,208,36734,2,0,L|168:272,1,65
312,256,36934,2,0,L|352:312,1,65
208,160,37134,2,0,L|160:104,1,65
256,16,37334,5,0,0:0:0:0:
256,272,37534,1,0,0:0:0:0:
504,360,37734,1,0,0:0:0:0:
312,184,37934,1,0,0:0:0:0:
56,152,38134,1,0,0:0:0:0:
208,360,38334,1,0,0:0:0:0:
440,248,38534,6,0,L|384:208,1,65
360,80,38734,2,0,L|264:80,1,65
176,24,38934,2,0,L|112:80,1,65
48,168,39134,2,0,L|48:240,1,65
128,336,39334,2,0,L|192:304,1,65,0|0,0:0|0:0,0:0:0:0:
312,320,39534,2,0,L|344:256,1,65
440,176,39734,2,0,L|392:120,1,65
288,64,39934,2,0,L|312:136,1,65
296,200,40134,5,0,0:0:0:0:
248,240,40234,1,0,0:0:0:0:
192,248,40334,1,0,0:0:0:0:
152,208,40434,1,0,0:0:0:0:
168,152,40534,1,0,0:0:0:0:
224,136,40634,1,0,0:0:0:0:
232,192,40734,6,0,L|272:192,3,32.5,0|0|0|0,0:0|0:0|0:0|0:0,0:0:0:0:
264,192,40934,2,0,B|312:192|336:176|336:128|272:64|200:104|152:184|216:328|264:352,1,390
253,344,41584,1,0,0:0:0:0:
253,344,41634,1,0,0:0:0:0:
224,120,41734,5,0,0:0:0:0:
248,144,41834,1,0,0:0:0:0:
248,216,41934,5,0,0:0:0:0:
232,248,42034,1,0,0:0:0:0:
232,320,42134,5,0,0:0:0:0:
248,360,42234,1,0,0:0:0:0:
256,192,42334,5,0,0:0:0:0:
344,80,42534,5,0,0:0:0:0:
408,192,42634,1,0,0:0:0:0:
344,304,42734,1,0,0:0:0:0:
144,72,42834,1,0,0:0:0:0:
88,192,42934,1,0,0:0:0:0:
144,304,43034,1,0,0:0:0:0:
256,192,43134,6,0,L|288:208,3,32.5,0|0|0|0,0:0|0:0|0:0|0:0,0:0:0:0:
285,206,43334,5,0,0:0:0:0:
80,320,43534,1,0,0:0:0:0:
192,40,43734,1,0,0:0:0:0:
224,336,43934,1,0,0:0:0:0:
256,192,44034,6,0,L|216:216,2,32.5,0|0|0,0:0|0:0|0:0,0:0:0:0:
256,192,44234,2,0,P|208:168|176:168,1,65
176,112,44434,1,0,0:0:0:0:
192,56,44534,1,0,0:0:0:0:
248,40,44634,1,0,0:0:0:0:
296,64,44734,1,0,0:0:0:0:
344,40,44834,1,0,0:0:0:0:
400,40,44934,1,0,0:0:0:0:
440,80,45034,1,0,0:0:0:0:
440,136,45134,1,0,0:0:0:0:
256,32,45334,5,0,0:0:0:0:
296,72,45434,1,0,0:0:0:0:
312,128,45534,1,0,0:0:0:0:
288,176,45634,1,0,0:0:0:0:
304,232,45734,2,0,L|328:256,3,32.5,0|0|0|0,0:0|0:0|0:0|0:0,0:0:0:0:
326,254,45934,2,0,P|288:296|256:312,1,65
272,304,46134,2,0,L|216:304|192:304,1,65
207,304,46334,5,0,0:0:0:0:
88,56,46534,1,0,0:0:0:0:
448,192,46734,1,0,0:0:0:0:
104,304,46934,2,0,L|104:256,3,32.5,0|0|0|0,0:0|0:0|0:0|0:0,0:0:0:0:
104,271,47134,5,0,0:0:0:0:
104,271,47234,1,0,0:0:0:0:
104,271,47334,6,0,B|80:232|112:200|40:160|160:96|208:160|248:96,1,260
296,104,47834,1,0,0:0:0:0:
336,144,47934,1,0,0:0:0:0:
328,200,48034,1,0,0:0:0:0:
360,248,48134,1,0,0:0:0:0:
328,296,48234,1,0,0:0:0:0:
272,288,48334,1,0,0:0:0:0:
104,56,48534,6,0,L|104:128,1,65,0|0,0:0|0:0,0:0:0:0:
416,328,48734,2,0,L|416:256,1,65
48,32,48934,2,0,L|48:104,1,65
464,360,49134,2,0,L|464:328,3,32.5,0|0|0|0,0:0|0:0|0:0|0:0,0:0:0:0:
464,320,49334,2,0,B|416:320|408:296|432:256|376:224,1,130,0|0,0:0|0:0,0:0:0:0:
256,96,49734,1,0,0:0:0:0:
96,232,49934,1,0,0:0:0:0:
256,192,50134,1,0,0:0:0:0:
200,296,50334,2,0,P|144:296|160:280,1,130
96,56,50934,5,0,0:0:0:0:
64,104,51034,1,0,0:0:0:0:
96,152,51134,1,0,0:0:0:0:
488,240,51334,6,0,B|432:256|424:224|344:240,1,130
312,208,51634,1,0,0:0:0:0:
264,240,51734,1,0,0:0:0:0:
208,248,51834,2,0,L|160:232,2,32.5,0|0|0,0:0|0:0|0:0,0:0:0:0:
256,32,52334,5,0,0:0:0:0:
256,168,52434,5,0,0:0:0:0:
256,312,52534,5,0,0:0:0:0:
256,192,52734,12,0,53334,0:0:0:0:
256,168,53484,6,0,L|256:208,4,32.5,0|0|0|0|0,0:0|0:0|0:0|0:0|0:0,0:0:0:0:
256,168,53734,6,0,B|304:96|288:192|360:96|264:256|392:144|352:216|496:168|384:224|432:240|376:264|400:264|416:256|440:256|448:256|424:272|416:288|400:296|384:304|392:312|456:312|424:328|384:344|384:344|416:360|456:376,1,390
104,56,54534,6,0,L|168:56,1,65
256,192,54734,2,0,L|192:192,1,65
104,56,54934,2,0,L|168:56,1,65
448,336,55134,1,0,0:0:0:0:
440,64,55334,2,0,L|368:64,1,65
256,192,55534,2,0,L|320:192,1,65
440,64,55734,2,0,L|368:64,1,65
96,328,55934,1,0,0:0:0:0:
96,328,56034,6,0,L|96:280,2,32.5,0|0|0,0:0|0:0|0:0,0:0:0:0:
104,104,56334,1,0,0:0:0:0:
376,328,56534,1,0,0:0:0:0:
200,64,56734,1,0,0:0:0:0:
456,296,56934,1,0,0:0:0:0:
368,256,57034,2,0,L|336:240,3,32.5,0|0|0|0,0:0|0:0|0:0|0:0,0:0:0:0:
312,224,57234,1,0,0:0:0:0:
288,168,57334,1,0,0:0:0:0:
328,120,57434,1,0,0:0:0:0:
304,64,57534,1,0,0:0:0:0:
248,48,57634,1,0,0:0:0:0:
216,96,57734,1,0,0:0:0:0:
224,152,57834,1,0,0:0:0:0:
184,192,57934,1,0,0:0:0:0:
144,80,58134,5,0,0:0:0:0:
168,120,58234,1,0,0:0:0:0:
96,152,58334,5,0,0:0:0:0:
64,184,58434,1,0,0:0:0:0:
136,216,58534,5,0,0:0:0:0:
160,248,58634,1,0,0:0:0:0:
192,280,58734,1,0,0:0:0:0:
256,64,59334,5,0,0:0:0:0:
256,104,59434,2,0,L|256:136,2,32.5,0|0|0,0:0|0:0|0:0,0:0:0:0:
256,144,59634,1,0,0:0:0:0:
256,160,59734,2,0,B|192:152|176:192|128:136,1,130
256,160,60134,2,0,L|256:192,3,32.5,0|0|0|0,0:0|0:0|0:0|0:0,0:0:0:0:
256,224,60334,5,0,0:0:0:0:
304,256,60434,1,0,0:0:0:0:
344,216,60534,1,0,0:0:0:0:
384,176,60634,1,0,0:0:0:0:
360,120,60734,1,0,0:0:0:0:
344,64,60834,1,0,0:0:0:0:
288,56,60934,1,0,0:0:0:0:
232,80,61034,1,0,0:0:0:0:
200,128,61134,1,0,0:0:0:0:
256,112,61334,5,0,0:0:0:0:
256,272,61434,1,0,0:0:0:0:
320,128,61534,1,0,0:0:0:0:
184,272,61634,1,0,0:0:0:0:
344,192,61734,1,0,0:0:0:0:
168,200,61834,1,0,0:0:0:0:
256,192,61934,5,0,0:0:0:0:
256,192,62134,6,0,L|216:192,3,32.5,0|0|0|0,0:0|0:0|0:0|0:0,0:0:0:0:
223,192,62334,1,0,0:0:0:0:
256,56,62534,1,0,0:0:0:0:
256,56,62734,6,0,B|216:64|240:104|152:152|112:80|96:216|56:232,1,260
256,192,63334,12,0,63934,0:0:0:0:
256,32,64134,5,0,0:0:0:0:
64,336,64334,1,0,0:0:0:0:
448,336,64534,1,0,0:0:0:0:
352,120,64734,2,0,B|304:120|336:152|272:136|272:192,1,97.5
264,184,64934,2,0,L|224:192,4,32.5,0|0|0|0|0,0:0|0:0|0:0|0:0|0:0,0:0:0:0:
112,48,66534,6,0,B|240:0|40:144|248:8|48:160|264:16|80:184|488:32|16:104|504:104|40:168|472:160|40:56|472:216|32:80|264:360|128:-8|456:360|392:8|120:336|440:168|120:360|496:200|104:344|496:336|328:280,1,455.000004339218
496,16,67134,1,0,0:0:0:0:
8,376,67334,1,0,0:0:0:0:
256,0,67534,1,0,0:0:0:0:
256,192,67734,1,0,0:0:0:0:
0,0,68134,5,0,0:0:0:0:
512,384,68334,1,0,0:0:0:0:
336,0,68534,1,0,0:0:0:0:
112,384,68734,1,0,0:0:0:0:
216,96,68934,2,0,L|296:120,3,56.8750005424023,0|0|0|0,0:0|0:0|0:0|0:0,0:0:0:0:
320,288,69334,2,0,L|248:320,3,56.8750005424023,0|0|0|0,0:0|0:0|0:0|0:0,0:0:0:0:
136,144,69734,5,0,0:0:0:0:
256,64,69834,1,0,0:0:0:0:
376,144,69934,1,0,0:0:0:0:
256,336,70134,1,0,0:0:0:0:
256,232,70334,2,0,L|192:256,3,56.8750005424023,0|0|0|0,0:0|0:0|0:0|0:0,0:0:0:0:
202,251,70534,6,0,L|136:256,1,56.8750005424023
32,32,70734,2,0,L|96:72,1,56.8750005424023
480,128,70934,2,0,L|408:80,1,56.8750005424023
256,368,71134,2,0,L|256:312,1,56.8750005424023
256,192,71334,1,0,0:0:0:0:
104,192,71534,5,0,0:0:0:0:
136,64,71634,1,0,0:0:0:0:
256,8,71734,1,0,0:0:0:0:
512,48,71934,5,0,0:0:0:0:
8,336,72134,1,0,0:0:0:0:
512,48,72334,5,0,0:0:0:0:
0,40,72534,1,0,0:0:0:0:
312,224,72834,6,0,L|368:248,2,56.8750005424023,0|0|0,0:0|0:0|0:0,0:0:0:0:
88,72,73134,2,0,L|40:32,1,56.8750005424023
400,288,73334,2,0,L|480:280,1,56.8750005424023
104,304,73534,1,0,0:0:0:0:
56,192,73634,1,0,0:0:0:0:
104,72,73734,2,0,L|152:32,4,56.8750005424023,0|0|0|0|0,0:0|0:0|0:0|0:0|0:0,0:0:0:0:
448,336,74134,2,0,L|384:296,1,56.8750005424023
256,32,74534,6,0,L|256:88,1,56.8750005424023
256,352,74734,2,0,L|256:288,1,56.8750005424023
464,192,74934,2,0,L|464:128,1,56.8750005424023
48,192,75134,2,0,L|48:256,1,56.8750005424023
424,64,75334,5,0,0:0:0:0:
256,192,75534,1,0,0:0:0:0:
72,328,75734,1,0,0:0:0:0:
256,40,76134,6,0,B|40:72|496:72|48:104|496:128|40:160|496:176|32:240|504:240|32:288|504:280|32:328|488:336|248:352,1,455.000004339218
352,128,76734,6,0,L|312:168,3,56.8750005424023,0|0|0|0,0:0|0:0|0:0|0:0,0:0:0:0:
311,168,76934,1,0,0:0:0:0:
72,336,77134,1,0,0:0:0:0:
352,16,77334,1,0,0:0:0:0:
256,192,77734,5,0,0:0:0:0:
256,8,79334,6,0,B|-8:64|496:16|96:112|0:96|480:112|48:120|488:160|-8:144|496:200|16:208|504:232|8:248|496:256|24:96|288:320,1,455.000004339218
168,144,79934,5,0,0:0:0:0:
304,96,80034,5,0,0:0:0:0:
288,240,80134,5,0,0:0:0:0:
256,8,80534,6,0,B|336:80|176:64|376:120|192:160|328:208,1,227.500002169609
104,304,80934,6,0,B|40:192|152:360|144:88|184:376|40:64|16:304|256:80|24:80|32:344|272:80|96:176,1,227.500002169609
64,32,81334,6,0,L|168:104,1,113.750001084805
256,352,81534,2,0,L|256:232,1,113.750001084805
440,32,81734,2,0,L|328:120,1,113.750001084805
256,192,81934,6,0,L|256:248,2,56.8750005424023,0|0|0,0:0|0:0|0:0,0:0:0:0:
256,32,82134,6,0,B|32:152|480:48|32:288|192:248|296:248|320:160|264:96|392:56,1,455.000004339218
48,192,82734,5,0,0:0:0:0:
152,128,82834,5,0,0:0:0:0:
256,72,82934,6,0,B|128:96|352:112|304:32|200:240|144:72|320:160|184:176|408:152|224:200,1,227.500002169609
256,344,83334,1,0,0:0:0:0:
256,192,83734,12,0,84134,0:0:0:0:
432,192,84334,5,0,0:0:0:0:
344,264,84434,5,0,0:0:0:0:
256,328,84534,2,0,B|176:256|344:232|192:216|144:280|168:320|96:256|160:248,1,227.500002169609,0|0,0:0|0:0,0:0:0:0:
256,56,84934,5,0,0:0:0:0:
256,328,85134,1,0,0:0:0:0:
52,192,85334,1,0,0:0:0:0:
280,192,85534,6,0,L|48:192,1,227.500002169609
48,192,85734,5,0,0:0:0:0:
256,32,85934,1,0,0:0:0:0:
256,352,86134,1,0,0:0:0:0:
464,192,86334,1,0,0:0:0:0:
464,192,86434,1,0,0:0:0:0:
464,192,86534,2,0,L|424:256,1,56.8750005424023
32,120,86934,2,0,L|80:56,1,56.8750005424023
256,352,87334,5,0,0:0:0:0:
32,240,87534,1,0,0:0:0:0:
480,248,87734,1,0,0:0:0:0:
176,120,87934,1,0,0:0:0:0:
352,120,88134,2,0,L|272:192,1,56.8750005424023
16,360,88534,2,0,L|72:312,1,56.8750005424023
256,192,88934,12,0,89334,0:0:0:0:
256,192,89534,5,0,0:0:0:0:
400,80,89734,1,0,0:0:0:0:
400,304,89934,2,0,B|296:328|184:304|136:264,1,260
376,200,90534,1,0,0:0:0:0:
160,96,90934,6,0,L|184:128,4,32.5,0|0|0|0|0,0:0|0:0|0:0|0:0|0:0,0:0:0:0:
136,72,91234,1,0,0:0:0:0:
104,80,91334,2,0,B|72:160|80:216|176:320,1,260
264,320,91834,5,0,0:0:0:0:
344,232,91934,5,0,0:0:0:0:
320,112,92034,5,0,0:0:0:0:
200,80,92134,5,0,0:0:0:0:
256,192,97734,12,0,104734,0:0:0:0:
256,192,104934,6,0,B|208:160|136:152|80:224|120:296|128:320,1,260
127,319,105534,1,0,0:0:0:0:
296,128,105734,2,0,L|216:232,1,130
96,64,106334,2,0,P|112:144|248:272,1,260
96,304,107134,5,0,0:0:0:0:
256,96,107334,1,0,0:0:0:0:
408,312,107534,1,0,0:0:0:0:
256,24,107934,2,0,L|256:288,1,260
144,296,108734,5,0,0:0:0:0:
256,64,108934,1,0,0:0:0:0:
360,304,109134,1,0,0:0:0:0:
440,56,109334,1,0,0:0:0:0:
216,184,109534,2,0,B|312:136|360:136|488:160,1,260
360,56,110334,5,0,0:0:0:0:
112,120,110534,1,0,0:0:0:0:
360,192,110734,1,0,0:0:0:0:
112,264,110934,1,0,0:0:0:0:
360,336,111134,1,0,0:0:0:0:
256,96,111334,5,0,0:0:0:0:
56,256,111534,1,0,0:0:0:0:
312,256,111734,1,0,0:0:0:0:
64,176,111934,1,0,0:0:0:0:
296,56,112134,1,0,0:0:0:0:
256,312,112334,1,0,0:0:0:0:
256,56,112534,1,0,0:0:0:0:
392,280,112734,1,0,0:0:0:0:
136,328,112934,2,0,B|88:232|80:128|152:80,1,260
400,72,113534,5,0,0:0:0:0:
160,176,113734,1,0,0:0:0:0:
416,168,113934,1,0,0:0:0:0:
168,88,114134,1,0,0:0:0:0:
320,304,114334,1,0,0:0:0:0:
288,48,114534,1,0,0:0:0:0:
224,304,114735,1,0,0:0:0:0:
64,64,115735,5,0,0:0:0:0:
280,208,115935,1,0,0:0:0:0:
144,328,116535,5,0,0:0:0:0:
400,192,116735,5,0,0:0:0:0:
144,64,116935,5,0,0:0:0:0:
256,192,117335,5,0,0:0:0:0:
456,40,117735,5,0,0:0:0:0:
40,192,118135,1,0,0:0:0:0:
456,336,118535,1,0,0:0:0:0:
256,40,118935,1,0,0:0:0:0:
256,344,119335,1,0,0:0:0:0:
104,32,119735,1,0,0:0:0:0:
464,40,120135,5,0,0:0:0:0:
56,336,120535,1,0,0:0:0:0:
72,32,120935,5,0,0:0:0:0:
464,344,121335,1,0,0:0:0:0:
256,32,121735,5,0,0:0:0:0:
48,192,122135,1,0,0:0:0:0:
256,352,122535,1,0,0:0:0:0:
464,192,122935,1,0,0:0:0:0:
256,32,123335,5,0,0:0:0:0:
256,352,123735,1,0,0:0:0:0:
368,112,124135,5,0,0:0:0:0:
144,280,124335,1,0,0:0:0:0:
144,112,124535,5,0,0:0:0:0:
368,272,124735,1,0,0:0:0:0:
256,48,124935,5,0,0:0:0:0:
256,352,125135,1,0,0:0:0:0:
72,192,125335,5,0,0:0:0:0:
440,192,125535,1,0,0:0:0:0:
256,8,125735,5,0,0:0:0:0:
256,368,125935,1,0,0:0:0:0:
472,192,126135,5,0,0:0:0:0:
40,192,126335,1,0,0:0:0:0:
48,32,126535,5,0,0:0:0:0:
464,344,126735,1,0,0:0:0:0:
256,192,126935,5,0,0:0:0:0:
256,192,127135,1,0,0:0:0:0:
256,40,127335,5,0,0:0:0:0:
256,144,127535,1,0,0:0:0:0:
256,248,127735,1,0,0:0:0:0:
256,352,127935,1,0,0:0:0:0:
88,192,128135,6,0,L|160:192,1,65
392,56,128335,2,0,L|336:112,1,65
368,336,128535,2,0,L|368:264,1,65
112,32,128735,2,0,L|112:64,4,32.5,0|0|0|0|0,0:0|0:0|0:0|0:0|0:0,0:0:0:0:
256,192,129035,12,0,130335,0:0:0:0:
80,40,130535,6,0,B|192:16|16:128|512:16|16:344|24:16|104:296|400:128|320:16|144:360|352:184|272:360|392:272|432:344,1,520
424,328,131435,5,0,0:0:0:0:
256,72,131585,1,0,0:0:0:0:
96,312,131735,2,0,L|144:248,1,65
400,80,131985,2,0,L|344:168,1,97.5
347,162,132235,2,0,P|304:200|256:208,1,97.5
56,48,132535,2,0,L|128:128,1,97.5
208,184,132835,6,0,L|256:224,2,32.5,0|0|0,0:0|0:0|0:0,0:0:0:0:
440,40,133185,5,0,0:0:0:0:
32,344,133485,1,0,0:0:0:0:
392,48,133735,6,0,B|288:40|328:136|208:120|136:144,1,260
155,138,134235,1,0,0:0:0:0:
344,328,134385,1,0,0:0:0:0:
56,216,134535,2,0,P|80:256|104:264,1,65
248,176,134785,2,0,P|280:224|280:288,1,97.5
200,96,135035,2,0,P|216:32|256:0,1,97.5
336,112,135335,2,0,P|368:160|368:176,1,65
128,240,135585,1,0,0:0:0:0:
256,0,135735,5,0,0:0:0:0:
256,376,136135,1,0,0:0:0:0:
88,40,136435,1,0,0:0:0:0:
176,144,136535,1,0,0:0:0:0:
416,136,136935,6,0,B|344:144|584:160|296:200|216:160|696:224|240:232|216:184|592:312|216:232|392:272|512:264|224:280|400:320,1,260
424,328,137435,5,0,0:0:0:0:
256,72,137585,1,0,0:0:0:0:
96,312,137735,2,0,L|144:248,1,65
400,80,137985,2,0,L|344:168,1,97.5
347,162,138235,2,0,P|304:200|256:208,1,97.5
56,48,138535,2,0,L|128:128,1,97.5
208,184,138835,6,0,L|256:224,2,32.5,0|0|0,0:0|0:0|0:0,0:0:0:0:
448,328,139235,5,0,0:0:0:0:
336,240,139335,1,0,0:0:0:0:
464,56,139535,1,0,0:0:0:0:
256,32,139735,6,0,B|376:256|152:16|424:176|144:96|400:88|144:216|272:32|360:232|176:24|432:176|136:104|408:104|224:224,1,260
64,48,140535,6,0,L|112:96,1,65,0|0,0:0|0:0,0:0:0:0:
109,93,140735,1,0,0:0:0:0:
256,336,140935,5,0,0:0:0:0:
256,64,141135,1,0,0:0:0:0:
64,192,141335,2,0,L|16:248,2,65,0|0|0,0:0|0:0|0:0,0:0:0:0:
256,192,141735,5,0,0:0:0:0:
256,64,141935,2,0,P|384:96|416:224,1,260
152,96,142935,6,0,L|112:64,7,32.5,0|0|0|0|0|0|0|0,0:0|0:0|0:0|0:0|0:0|0:0|0:0|0:0,0:0:0:0:
120,56,143335,2,0,B|41:76|457:20|49:196|345:108|17:324|273:188|337:132|393:92|297:228|193:292|161:316|289:268|345:236|377:212|321:308|281:332|313:348|377:316|417:300|376:320|416:328,1,455
440,280,144135,1,0,0:0:0:0:
416,224,144235,1,0,0:0:0:0:
448,176,144335,1,0,0:0:0:0:
416,128,144435,1,0,0:0:0:0:
360,112,144535,1,0,0:0:0:0:
312,144,144635,1,0,0:0:0:0:
320,200,144735,1,0,0:0:0:0:
272,72,144935,5,0,0:0:0:0:
192,200,145035,1,0,0:0:0:0:
336,200,145135,1,0,0:0:0:0:
272,72,145235,1,0,0:0:0:0:
336,200,145335,1,0,0:0:0:0:
192,200,145435,1,0,0:0:0:0:
272,72,145535,2,0,L|272:120,3,32.5,0|0|0|0,0:0|0:0|0:0|0:0,0:0:0:0:
272,128,145735,1,0,0:0:0:0:
48,336,145935,1,0,0:0:0:0:
104,48,146135,1,0,0:0:0:0:
256,344,146335,1,0,0:0:0:0:
464,88,146535,6,0,P|424:120|416:120,3,32.5,0|0|0|0,0:0|0:0|0:0|0:0,0:0:0:0:
424,128,146735,1,0,0:0:0:0:
368,144,146835,1,0,0:0:0:0:
312,120,146935,1,0,0:0:0:0:
264,88,147035,1,0,0:0:0:0:
208,96,147135,1,0,0:0:0:0:
168,136,147235,1,0,0:0:0:0:
144,184,147335,1,0,0:0:0:0:
160,240,147435,1,0,0:0:0:0:
216,256,147535,1,0,0:0:0:0:
48,32,147735,6,0,L|48:96,1,65
48,336,147935,2,0,L|104:288,1,65
384,40,148135,2,0,L|336:88,1,65
256,192,148335,2,0,L|280:224,2,32.5,0|0|0,0:0|0:0|0:0,0:0:0:0:
392,344,148635,2,0,L|344:280,2,65,0|0|0,0:0|0:0|0:0,0:0:0:0:
296,232,148935,1,0,0:0:0:0:
40,352,149135,1,0,0:0:0:0:
256,32,149335,1,0,0:0:0:0:
400,56,149735,6,0,B|136:40|416:96|144:40,1,260
104,80,150235,1,0,0:0:0:0:
80,136,150335,1,0,0:0:0:0:
96,192,150435,1,0,0:0:0:0:
152,216,150535,1,0,0:0:0:0:
208,192,150635,1,0,0:0:0:0:
264,216,150735,1,0,0:0:0:0:
304,48,150935,5,0,0:0:0:0:
344,88,151035,1,0,0:0:0:0:
328,144,151135,1,0,0:0:0:0:
352,200,151235,1,0,0:0:0:0:
312,240,151335,1,0,0:0:0:0:
256,256,151435,1,0,0:0:0:0:
248,312,151535,1,0,0:0:0:0:
240,32,151735,6,0,L|240:80,4,32.5,0|0|0|0|0,0:0|0:0|0:0|0:0|0:0,0:0:0:0:
104,192,152135,1,0,0:0:0:0:
384,200,152335,2,0,B|368:160|296:96|240:96|160:160,1,260
360,304,152935,1,0,0:0:0:0:
256,192,152985,12,0,153535,0:0:0:0:
112,296,153735,5,0,0:0:0:0:
256,80,153935,2,0,P|328:144|344:184,1,130
120,72,154335,1,0,0:0:0:0:
488,360,154535,5,0,0:0:0:0:
232,40,156135,6,0,B|88:64|432:152|40:64|40:272|488:168|96:160|40:216|40:208|216:272|216:272|112:352,1,520
448,40,156735,2,0,L|384:96,1,65
40,336,156935,2,0,L|104:288,1,65
208,24,157135,2,0,L|144:40,1,65
480,352,157335,1,0,0:0:0:0:
0,0,157735,2,0,L|64:48,2,65,0|0|0,0:0|0:0|0:0,0:0:0:0:
496,120,157935,2,0,L|424:136,1,65
32,264,158135,2,0,L|112:288,1,65
488,176,158335,2,0,L|416:152,1,65
64,56,158535,2,0,P|32:136|72:320,1,260
464,32,158935,1,0,0:0:0:0:
192,32,159335,6,0,B|120:48|80:152|168:176|240:264,1,260
472,32,159935,2,0,L|408:88,1,65
256,192,160135,2,0,L|320:144,3,65,0|0|0|0,0:0|0:0|0:0|0:0,0:0:0:0:
128,32,160535,6,0,B|336:96|24:32|40:240|416:24|8:336|432:24|-16:200|40:32|256:336|384:40,1,520
160,192,161135,5,0,0:0:0:0:
256,320,161235,5,0,0:0:0:0:
352,192,161335,5,0,0:0:0:0:
72,288,161535,6,0,L|136:240,1,65
312,128,161735,1,0,0:0:0:0:
16,360,161935,1,0,0:0:0:0:
480,24,162135,2,0,B|392:32|496:96|328:16|352:144|472:184|304:216,1,260
8,0,162535,6,0,L|80:48,1,65
512,320,162735,2,0,L|456:264,1,65
104,0,162935,2,0,L|168:56,1,65
448,368,163135,1,0,0:0:0:0:
336,320,163235,1,0,0:0:0:0:
296,200,163335,2,0,L|320:136,4,65,0|0|0|0|0,0:0|0:0|0:0|0:0|0:0,0:0:0:0:
16,344,163735,1,0,0:0:0:0:
176,8,163935,1,0,0:0:0:0:
248,352,164135,6,0,B|192:304|192:304|240:248,2,130,0|0|0,0:0|0:0|0:0,0:0:0:0:
504,200,164535,2,0,L|432:160,1,65
128,8,164735,2,0,L|192:56,1,65
480,344,164935,2,0,L|424:288,1,65
48,32,165335,2,0,L|104:80,1,65
376,32,165535,6,0,L|304:64,3,65,0|0|0|0,0:0|0:0|0:0|0:0,0:0:0:0:
304,64,165735,6,0,B|248:104|216:112|176:112|192:88|224:80|240:104|240:128|224:160|232:200|304:208,1,260
248,360,166135,1,0,0:0:0:0:
120,24,166335,2,0,L|152:112,1,65
368,344,166535,2,0,L|336:280,4,65,0|0|0|0|0,0:0|0:0|0:0|0:0|0:0,0:0:0:0:
248,32,166935,1,0,0:0:0:0:
112,352,167135,1,0,0:0:0:0:
256,192,167335,5,0,0:0:0:0:
256,24,168935,6,0,B|488:128|88:48|376:336|488:8|144:160|352:264|192:72|184:312|152:80|48:312|320:352|328:352,1,520
144,264,169535,5,0,0:0:0:0:
256,88,169635,5,0,0:0:0:0:
352,264,169735,5,0,0:0:0:0:
136,80,170135,6,0,L|200:128,1,65
440,56,170535,6,0,L|368:128,1,65
40,328,170735,2,0,L|96:272,1,65
456,328,170935,6,0,L|400:264,1,65
24,88,171135,2,0,L|80:144,1,65
256,16,171335,1,0,0:0:0:0:
256,368,171735,1,0,0:0:0:0:
472,32,172135,5,0,0:0:0:0:
88,144,172335,5,0,0:0:0:0:
80,296,172435,5,0,0:0:0:0:
208,360,172535,5,0,0:0:0:0:
400,240,172735,1,0,0:0:0:0:
256,32,172935,1,0,0:0:0:0:
408,328,173135,1,0,0:0:0:0:
48,32,173335,1,0,0:0:0:0:
424,320,173535,6,0,L|472:368,4,65,0|0|0|0|0,0:0|0:0|0:0|0:0|0:0,0:0:0:0:
48,192,173935,5,0,0:0:0:0:
96,56,174035,5,0,0:0:0:0:
240,40,174135,5,0,0:0:0:0:
384,240,174335,1,0,0:0:0:0:
40,40,174535,2,0,B|120:16|24:168|184:8|40:288|256:-16|72:288|248:16|120:320|328:16|192:200,1,260
256,192,174935,6,0,L|312:240,2,65,0|0|0,0:0|0:0|0:0,0:0:0:0:
40,336,175335,5,0,0:0:0:0:
352,48,175535,2,0,L|312:136,1,65
352,352,175735,2,0,L|296:288,1,65
72,184,175935,5,0,0:0:0:0:
128,56,176035,5,0,0:0:0:0:
256,64,176135,5,0,0:0:0:0:
256,344,176335,1,0,0:0:0:0:
472,88,176535,2,0,L|408:144,1,65
304,176,176735,6,0,L|232:192,2,65,0|0|0,0:0|0:0|0:0,0:0:0:0:
48,48,176935,6,0,B|-16:112|144:64|176:160|40:144|8:168|56:240|160:256,1,260
384,320,177335,2,0,L|312:272,1,65
296,48,177535,6,0,B|256:72|416:88|128:96|448:136|368:128,1,130
104,296,177935,1,0,0:0:0:0:
368,128,178135,1,0,0:0:0:0:
72,168,178335,1,0,0:0:0:0:
256,192,178535,12,0,179135,0:0:0:0:
248,72,179335,5,0,0:0:0:0:
248,320,179535,2,0,B|176:296|168:264|176:224|224:168|120:240|112:288|64:288|80:256|72:256|72:248|72:248|72:240|72:240|80:232|80:232|80:224|72:240|56:224,1,260,0|0,0:0|0:0,0:0:0:0:
392,168,180135,1,0,0:0:0:0:
120,40,180335,2,0,B|56:104|72:176|80:256|24:296,1,260
192,160,181535,6,0,L|232:176,3,32.5,0|0|0|0,0:0|0:0|0:0|0:0,0:0:0:0:
272,160,181735,2,0,B|336:112|408:112|456:152|432:224|432:256,1,260
192,320,182335,1,0,0:0:0:0:
432,152,182535,1,0,0:0:0:0:
136,192,182735,2,0,B|104:160|392:248,1,260
144,112,183335,5,0,0:0:0:0:
256,360,183535,1,0,0:0:0:0:
360,120,183735,1,0,0:0:0:0:
120,304,183935,1,0,0:0:0:0:
424,304,184135,2,0,B|472:264|464:240|448:184,1,130
256,192,184735,5,0,0:0:0:0:
80,192,184935,5,0,0:0:0:0:
80,40,185335,1,0,0:0:0:0:
176,272,185535,1,0,0:0:0:0:
240,48,185735,2,0,B|280:96|304:136|304:192|304:176,1,130
192,120,186135,2,0,B|160:168|160:208|144:240|176:248,1,130
360,320,186535,1,0,0:0:0:0:
96,48,186935,5,0,0:0:0:0:
320,168,187135,2,0,P|384:240|392:288,2,130,0|0|0,0:0|0:0|0:0,0:0:0:0:
64,48,187735,2,0,P|32:120|32:192,1,130
112,328,188135,5,0,0:0:0:0:
208,128,188335,1,0,0:0:0:0:
280,336,188535,1,0,0:0:0:0:
392,136,188735,1,0,0:0:0:0:
128,128,188935,1,0,0:0:0:0:
392,136,189135,2,0,P|448:192|464:264,2,130,0|0|0,0:0|0:0|0:0,0:0:0:0:
144,40,189735,1,0,0:0:0:0:
224,320,190335,5,0,0:0:0:0:
304,120,190535,1,0,0:0:0:0:
56,120,190735,1,0,0:0:0:0:
352,272,190935,1,0,0:0:0:0:
88,32,191135,1,0,0:0:0:0:
96,312,191335,1,0,0:0:0:0:
416,32,191535,1,0,0:0:0:0:
256,32,192535,5,0,0:0:0:0:
256,360,192735,1,0,0:0:0:0:
64,40,193335,5,0,0:0:0:0:
432,336,193535,1,0,0:0:0:0:
200,40,193735,1,0,0:0:0:0:
56,328,193935,1,0,0:0:0:0:
248,168,194135,6,0,L|280:216,8,32.5,0|0|0|0|0|0|0|0|0,0:0|0:0|0:0|0:0|0:0|0:0|0:0|0:0|0:0,0:0:0:0:
