osu file format v14

[General]
AudioFilename: Pegboard Nerds - Disconnected.mp3
AudioLeadIn: 0
PreviewTime: 89108
Countdown: 0
SampleSet: Soft
StackLeniency: 0.7
Mode: 0
LetterboxInBreaks: 1
EpilepsyWarning: 1
WidescreenStoryboard: 1

[Editor]
Bookmarks: 15163,30163,45163,60163,75163,90163,105163,120163,135163,165163,180163,195163,210163,225163
DistanceSpacing: 1
BeatDivisor: 4
GridSize: 4
TimelineZoom: 1

[Metadata]
Title:Disconnected
TitleUnicode:Disconnected
Artist:Pegboard Nerds
ArtistUnicode:Pegboard Nerds
Creator:Timorisu
Version:Hard
Source:
Tags:Minao Electro House Electrohouse Dubstep
BeatmapID:339319
BeatmapSetID:134828

[Difficulty]
HPDrainRate:6
CircleSize:4
OverallDifficulty:5
ApproachRate:7
SliderMultiplier:1.7
SliderTickRate:1

[Events]
//Background and Video events
0,0,"n.png",0,0
//Break Periods
2,30363,42388
2,120363,130513
//Storyboard Layer 0 (Background)
//Storyboard Layer 1 (Fail)
//Storyboard Layer 2 (Pass)
//Storyboard Layer 3 (Foreground)
//Storyboard Sound Samples

[TimingPoints]
163,468.75,4,2,0,100,1,0
7663,-100,4,2,0,5,0,0
14225,-100,4,2,0,30,0,0
14694,-100,4,2,0,60,0,0
16569,-100,4,2,0,70,0,0
18209,-100,4,2,0,60,0,0
19850,-100,4,2,0,70,0,0
22663,-100,4,2,0,80,0,0
23600,-100,4,2,0,70,0,0
24538,-100,4,2,0,80,0,0
24772,-100,4,2,0,70,0,0
25241,-100,4,2,0,70,0,0
26647,-100,4,2,0,80,0,0
26881,-100,4,2,0,70,0,0
28288,-100,4,2,0,80,0,0
45163,-100,4,3,0,75,0,0
52663,-100,4,3,0,75,0,0
59694,-100,4,2,0,80,0,0
90163,-100,4,2,0,80,0,1
93327,-100,4,2,0,80,0,0
93444,-100,4,2,0,80,0,1
94264,-100,4,2,0,80,0,0
94381,-100,4,2,0,80,0,1
95202,-100,4,2,0,80,0,0
95319,-100,4,2,0,80,0,1
97077,-100,4,2,0,80,0,0
97194,-100,4,2,0,80,0,1
98014,-100,4,2,0,80,0,0
98131,-100,4,2,0,80,0,1
100827,-100,4,2,0,80,0,0
100944,-100,4,2,0,80,0,1
108327,-100,4,2,0,80,0,0
108444,-100,4,2,0,80,0,1
109264,-100,4,2,0,80,0,0
109381,-100,4,2,0,80,0,1
110202,-100,4,2,0,80,0,0
110319,-100,4,2,0,80,0,1
120163,-100,4,2,0,75,0,0
131413,-100,4,2,0,80,0,0
137389,-100,4,2,0,5,0,0
137623,-100,4,2,0,80,0,0
139264,-100,4,2,0,5,0,0
139498,-100,4,2,0,80,0,0
143014,-100,4,2,0,5,0,0
143248,-100,4,2,0,80,0,0
146764,-100,4,2,0,5,0,0
146998,-100,4,2,0,80,0,0
154264,-100,4,2,0,5,0,0
154498,-100,4,2,0,80,0,0
161764,-100,4,2,0,5,0,0
161998,-100,4,2,0,80,0,0
165163,-100,4,3,0,75,0,0
172663,-100,4,3,0,75,0,0
179694,-100,4,2,0,80,0,0

[Colours]
Combo1 : 183,70,251
Combo2 : 255,0,32
Combo3 : 255,0,96
Combo4 : 170,170,170

[HitObjects]
256,192,7663,12,0,14225,0:0:0:0:
340,172,14694,5,0,0:0:0:0:
256,192,14928,1,0,0:0:0:0:
256,276,15163,2,0,P|274:313|310:335,1,85,4|0,0:1|0:0,0:0:0:0:
336,256,15631,1,0,0:0:0:0:
176,256,16100,6,0,P|140:234|121:196,1,85,0|0,0:0|0:0,0:0:0:0:
104,112,16569,2,0,P|85:74|49:52,1,85,2|2,0:0|0:0,0:0:0:0:
24,132,17038,1,2,0:0:0:0:
80,192,17272,2,0,P|159:174|185:97,1,170,2|2,0:0|0:0,0:0:0:0:
24,132,18209,37,0,0:0:0:0:
0,209,18443,1,0,0:0:0:0:
54,270,18677,1,0,0:0:0:0:
136,255,18913,2,0,P|176:245|217:254,1,85,0|0,0:0|0:0,0:0:0:0:
292,296,19381,2,0,P|332:305|373:294,1,85,0|0,0:0|0:0,0:0:0:0:
440,240,19850,6,0,P|449:199|438:158,1,85,2|2,0:0|0:0,0:0:0:0:
362,118,20319,2,0,P|353:159|364:200,1,85,2|2,0:0|0:0,0:0:0:0:
438,158,20788,1,2,0:0:0:0:
440,76,21022,2,0,P|412:44|372:29,1,85,2|2,0:0|0:0,0:0:0:0:
296,64,21491,1,2,0:0:0:0:
362,118,21725,38,0,P|328:143|286:149,1,85,0|2,0:0|0:0,0:0:0:0:
200,144,22194,2,0,P|158:150|124:175,1,85,2|2,0:0|0:0,0:0:0:0:
192,228,22663,1,2,0:0:0:0:
116,264,22897,1,2,0:0:0:0:
48,212,23131,1,2,0:0:0:0:
256,192,23600,5,2,0:0:0:0:
256,192,23834,2,0,P|288:266|255:342,2,170,2|2|2,0:0|0:0|0:0,0:0:0:0:
104,116,25241,1,2,0:0:0:0:
256,36,25709,1,2,0:0:0:0:
316,96,25944,1,2,0:0:0:0:
256,156,26178,1,2,0:0:0:0:
171,172,26413,38,0,P|172:129|195:94,1,85,2|0,0:0|0:0,0:0:0:0:
256,156,26881,2,0,P|254:197|231:232,1,85,2|2,0:0|0:0,0:0:0:0:
104,116,27584,1,2,0:0:0:0:
256,36,28053,1,2,0:0:0:0:
256,192,28288,12,0,30163,0:0:0:0:
256,192,43288,12,0,44694,0:0:0:0:
256,192,45163,6,0,P|293:120|255:47,1,170,0|0,0:0|2:0,0:0:0:0:
208,120,45866,1,0,0:0:0:0:
171,195,46100,2,0,P|196:253|254:276,2,127.5,0|0|0,0:0|0:0|0:0,0:0:0:0:
256,192,47038,2,0,P|326:233|329:314,1,170,0|0,0:0|2:0,0:0:0:0:
254,276,47741,1,0,0:0:0:0:
176,236,47975,2,0,L|62:177,2,127.5,0|0|0,0:0|0:0|0:0,0:0:0:0:
254,276,48913,38,0,P|291:204|253:131,1,170,0|0,0:0|2:0,0:0:0:0:
176,88,49616,1,0,0:0:0:0:
100,128,49850,2,0,P|93:66|129:15,2,127.5,0|0|0,0:0|0:0|0:0,0:0:0:0:
172,172,50788,2,0,L|317:259,1,170,0|0,0:0|2:0,0:0:0:0:
392,220,51491,1,0,0:0:0:0:
455,276,51725,2,0,P|476:217|452:159,2,127.5,0|0|0,0:0|0:0|0:0,0:0:0:0:
380,316,52663,5,4,0:0:0:0:
255,368,53131,1,4,0:0:0:0:
131,316,53600,1,4,0:0:0:0:
79,191,54069,1,4,0:0:0:0:
131,67,54538,1,4,0:0:0:0:
256,15,55006,1,4,0:0:0:0:
380,67,55475,1,4,0:0:0:0:
432,192,55944,1,4,0:0:0:0:
380,316,56413,38,4,P|340:301|314:269,1,85
264,336,56881,2,4,P|239:303|232:261,1,85,4|4,0:0|0:0,0:0:0:0:
152,292,57350,2,4,P|148:250|165:211,1,85,4|4,0:0|0:0,0:0:0:0:
84,192,57818,2,4,P|103:155|139:133,1,85,4|4,0:0|0:0,0:0:0:0:
256,192,58288,12,4,59694,0:0:0:0:
376,128,60163,6,0,L|436:67,2,85,2|2|8,0:0|0:0|0:0,0:0:0:0:
256,4,61100,2,0,L|256:89,2,85,2|2|8,0:0|0:0|0:0,0:0:0:0:
136,128,62038,2,0,L|75:67,2,85,2|2|10,0:0|0:0|0:0,0:0:0:0:
199,187,62741,2,0,P|240:259|207:334,1,170,2|2,0:0|0:0,0:0:0:0:
148,264,63444,1,10,0:0:0:0:
148,264,63561,1,0,0:0:0:0:
148,264,63678,1,2,0:0:0:0:
108,188,63913,38,0,P|67:177|26:187,1,85,2|2,0:0|0:0,0:0:0:0:
66,263,64381,2,0,P|106:273|148:264,1,85,8|0,0:0|0:0,0:0:0:0:
200,188,64850,2,0,P|240:177|281:187,1,85,2|2,0:0|0:0,0:0:0:0:
352,236,65318,2,0,P|393:245|433:235,1,85,8|2,0:0|0:0,0:0:0:0:
480,164,65788,2,0,L|529:46,2,127.5,2|2|2,0:0|0:0|0:0,0:0:0:0:
480,164,67194,5,10,0:0:0:0:
433,234,67428,1,2,0:0:0:0:
349,229,67663,2,0,P|361:189|391:160,1,85,2|2,0:0|0:0,0:0:0:0:
433,234,68131,2,0,P|421:274|391:304,1,85,8|0,0:0|0:0,0:0:0:0:
316,340,68600,2,0,L|239:376,2,85,2|2|8,0:0|0:0|0:0,0:0:0:0:
391,304,69303,37,2,0:0:0:0:
472,285,69538,1,2,0:0:0:0:
482,202,69772,1,2,0:0:0:0:
405,166,70006,1,10,0:0:0:0:
348,227,70241,2,0,P|322:149|374:86,1,170,2|2,0:0|0:0,0:0:0:0:
405,166,70944,1,10,0:0:0:0:
408,169,71061,1,0,0:0:0:0:
411,172,71178,1,2,0:0:0:0:
432,248,71413,5,2,0:0:0:0:
372,308,71647,1,2,0:0:0:0:
296,268,71881,2,0,P|254:258|214:268,1,85,8|0,0:0|0:0,0:0:0:0:
140,308,72350,1,2,0:0:0:0:
80,248,72584,1,2,0:0:0:0:
107,166,72819,1,8,0:0:0:0:
134,84,73053,38,0,P|155:47|191:25,1,85,2|2,0:0|0:0,0:0:0:0:
215,107,73522,2,0,P|256:118|297:109,1,85,2|10,0:0|0:0,0:0:0:0:
320,25,73991,2,0,P|378:82|364:163,1,170,2|0,0:0|0:0,0:0:0:0:
300,224,74694,1,8,0:0:0:0:
360,284,74928,1,0,0:0:0:0:
419,223,75163,6,0,P|442:259|442:301,1,85,2|2,0:0|0:0,0:0:0:0:
384,364,75631,1,8,0:0:0:0:
300,344,75866,1,0,0:0:0:0:
256,272,76100,2,0,L|256:187,2,85,2|2|8,0:0|0:0|0:0,0:0:0:0:
212,344,76803,1,0,0:0:0:0:
128,364,77038,38,0,P|87:374|46:365,2,85,2|2|10,0:0|0:0|0:0,0:0:0:0:
84,292,77741,2,0,L|-6:147,1,170,2|2,0:0|0:0,0:0:0:0:
24,68,78444,1,10,0:0:0:0:
24,68,78561,1,0,0:0:0:0:
24,68,78678,1,2,0:0:0:0:
96,20,78913,6,0,P|136:9|177:18,1,85,2|2,0:0|0:0,0:0:0:0:
215,95,79381,2,0,P|257:103|298:93,1,85,8|0,0:0|0:0,0:0:0:0:
334,18,79850,2,0,P|375:9|416:20,1,85,2|2,0:0|0:0,0:0:0:0:
480,76,80319,2,0,P|488:117|477:157,1,85,8|2,0:0|0:0,0:0:0:0:
416,216,80788,38,0,L|324:304,2,127.5,2|2|2,0:0|0:0|0:0,0:0:0:0:
416,216,82194,1,10,0:0:0:0:
476,157,82428,1,2,0:0:0:0:
396,135,82663,6,0,P|358:155|338:192,1,85,2|2,0:0|0:0,0:0:0:0:
300,268,83131,1,8,0:0:0:0:
212,268,83366,1,0,0:0:0:0:
172,192,83600,2,0,P|151:155|114:135,2,85,2|2|8,0:0|0:0|0:0,0:0:0:0:
212,268,84303,37,2,0:0:0:0:
294,255,84538,1,2,0:0:0:0:
309,172,84772,1,2,0:0:0:0:
233,132,85006,1,10,0:0:0:0:
172,192,85241,2,0,L|50:311,1,170,2|2,0:0|0:0,0:0:0:0:
0,244,85944,1,10,0:0:0:0:
0,244,86061,1,0,0:0:0:0:
0,244,86178,1,2,0:0:0:0:
50,175,86413,6,0,L|172:56,1,170,2|8,0:0|0:0,0:0:0:0:
232,116,87116,2,0,P|302:156|374:118,2,170,2|2|0,0:0|0:0|0:0,0:0:0:0:
256,192,88170,12,0,89225,0:0:0:0:
376,128,90163,38,0,L|436:67,2,85,2|2|8,0:0|0:0|0:0,0:0:0:0:
256,4,91100,2,0,L|256:89,2,85,2|2|8,0:0|0:0|0:0,0:0:0:0:
136,128,92038,2,0,L|75:67,2,85,2|2|10,0:0|0:0|0:0,0:0:0:0:
199,187,92741,2,0,P|238:260|205:335,1,170,2|2,0:0|0:0,0:0:0:0:
148,264,93444,5,10,0:0:0:0:
148,264,93561,1,0,0:0:0:0:
148,264,93678,1,2,0:0:0:0:
108,188,93913,2,0,P|117:147|146:115,1,85,2|2,0:0|0:0,0:0:0:0:
256,48,94381,37,10,0:0:0:0:
256,52,94498,1,0,0:0:0:0:
256,56,94616,1,2,0:0:0:0:
256,136,94850,2,0,L|256:221,1,85,2|2,0:0|0:0,0:0:0:0:
364,264,95319,5,10,0:0:0:0:
364,264,95436,1,0,0:0:0:0:
364,264,95553,1,2,0:0:0:0:
404,188,95788,2,0,P|394:147|365:115,2,85,2|2|10,0:0|0:0|0:0,0:0:0:0:
319,187,96491,2,0,P|281:115|320:44,1,170,2|0,0:0|0:0,0:0:0:0:
365,115,97194,37,10,0:0:0:0:
368,118,97311,1,0,0:0:0:0:
371,121,97428,1,2,0:0:0:0:
404,188,97663,2,0,P|394:228|365:260,1,85,2|2,0:0|0:0,0:0:0:0:
256,328,98131,5,10,0:0:0:0:
256,323,98248,1,0,0:0:0:0:
256,318,98366,1,2,0:0:0:0:
256,240,98600,2,0,L|256:155,1,85,2|2,0:0|0:0,0:0:0:0:
146,115,99069,37,8,0:0:0:0:
108,188,99303,2,0,P|117:228|146:260,1,85,2|2,0:0|0:0,0:0:0:0:
215,208,99772,2,0,P|256:196|296:208,1,85,2|10,0:0|0:0,0:0:0:0:
365,260,100241,2,0,P|404:187|368:114,1,170,2|2,0:0|0:0,0:0:0:0:
300,64,100944,1,10,0:0:0:0:
300,64,101061,1,0,0:0:0:0:
300,64,101178,1,2,0:0:0:0:
223,27,101413,6,0,P|183:15|142:25,2,85,2|2|8,0:0|0:0|0:0,0:0:0:0:
179,100,102116,2,0,P|138:108|98:96,2,85,0|2|2,0:0|0:0|0:0,0:0:0:0:
256,140,102819,1,8,0:0:0:0:
256,192,103053,12,0,104225,0:0:0:0:
316,112,104694,37,10,0:0:0:0:
316,196,104928,1,2,0:0:0:0:
376,256,105163,2,0,L|436:317,2,85,2|2|8,0:0|0:0|0:0,0:0:0:0:
256,384,106100,2,0,L|256:299,2,85,2|2|8,0:0|0:0|0:0,0:0:0:0:
136,256,107038,2,0,L|75:317,2,85,2|2|10,0:0|0:0|0:0,0:0:0:0:
199,196,107741,2,0,P|238:123|205:48,1,170,2|2,0:0|0:0,0:0:0:0:
148,120,108444,5,10,0:0:0:0:
148,120,108561,1,0,0:0:0:0:
148,120,108678,1,2,0:0:0:0:
108,196,108913,2,0,P|117:236|146:268,1,85,2|2,0:0|0:0,0:0:0:0:
256,332,109381,37,10,0:0:0:0:
256,327,109498,1,0,0:0:0:0:
256,322,109616,1,2,0:0:0:0:
256,248,109850,2,0,L|256:163,1,85,2|2,0:0|0:0,0:0:0:0:
364,120,110319,5,10,0:0:0:0:
364,120,110436,1,0,0:0:0:0:
364,120,110553,1,2,0:0:0:0:
404,195,110788,2,0,P|394:236|365:268,2,85,2|2|10,0:0|0:0|0:0,0:0:0:0:
319,196,111491,2,0,P|281:268|320:339,1,170,2|0,0:0|0:0,0:0:0:0:
404,344,112194,37,10,0:0:0:0:
365,268,112428,1,0,0:0:0:0:
404,196,112663,2,0,P|394:155|365:123,1,85,2|2,0:0|0:0,0:0:0:0:
295,75,113131,2,0,P|255:63|215:74,1,85,8|0,0:0|0:0,0:0:0:0:
146,123,113600,2,0,P|117:155|108:196,2,85,2|2|8,0:0|0:0|0:0,0:0:0:0:
194,197,114303,5,2,0:0:0:0:
274,175,114538,1,2,0:0:0:0:
279,88,114772,1,2,0:0:0:0:
201,57,115006,1,10,0:0:0:0:
146,123,115241,2,0,P|108:194|143:268,1,170,2|0,0:0|0:0,0:0:0:0:
194,197,115944,37,10,0:0:0:0:
194,197,116061,1,0,0:0:0:0:
194,197,116178,1,2,0:0:0:0:
256,136,116413,2,0,P|329:100|401:139,1,170,2|8,0:0|0:0,0:0:0:0:
328,188,117116,2,0,L|215:315,2,170,2|2|0,0:0|0:0|0:0,0:0:0:0:
256,192,118170,12,4,120163,0:0:0:0:
256,316,131413,6,0,P|292:297|312:259,1,85,2|0,0:0|0:0,0:0:0:0:
232,236,131881,2,0,P|244:196|232:156,1,85,2|0,0:0|0:0,0:0:0:0:
156,196,132350,2,0,P|136:158|99:139,1,85,2|0,0:0|0:0,0:0:0:0:
76,220,132819,1,0,0:0:0:0:
8,168,133053,1,0,0:0:0:0:
36,88,133288,38,0,P|70:62|111:60,1,85,2|0,0:0|0:0,0:0:0:0:
188,92,133756,2,0,P|229:89|263:64,1,85,2|0,0:0|0:0,0:0:0:0:
324,4,134225,2,0,B|352:40|352:80|332:112|332:112|299:155,2,170,0|0|4,0:0|0:0|1:0,0:0:0:0:
324,4,136100,22,0,L|285:80,1,85,8|0,0:0|0:0,0:0:0:0:
208,44,136569,2,0,L|169:120,1,85
96,78,137038,2,0,P|126:190|238:162,1,255,0|0,1:0|0:0,0:0:0:0:
276,88,137975,2,0,B|304:56|304:56|352:32,2,85,8|0|0,0:0|0:0|0:0,0:0:0:0:
237,163,138678,1,0,0:0:0:0:
237,163,138795,1,0,0:0:0:0:
237,163,138913,6,0,P|125:189|96:78,1,255,0|0,1:0|0:0,0:0:0:0:
167,120,139850,1,8,0:0:0:0:
238,163,140084,2,0,L|275:185,4,42.5
352,228,140788,2,0,P|375:305|317:361,1,170,0|0,1:0|0:0,0:0:0:0:
256,304,141491,1,0,0:0:0:0:
194,361,141725,2,0,P|136:305|159:228,1,170,8|8,0:0|0:0,0:0:0:0:
212,160,142428,1,0,0:0:0:0:
272,100,142663,38,0,P|275:216|160:228,1,255,0|0,1:0|0:0,0:0:0:0:
96,172,143600,2,0,L|32:115,1,85,8|0,0:0|0:0,0:0:0:0:
84,48,144069,2,0,L|147:104,1,85,0|0,0:0|0:0,0:0:0:0:
211,160,144538,2,0,P|230:122|228:80,1,85,0|0,1:0|0:0,0:0:0:0:
304,40,145006,2,0,P|331:71|371:84,1,85,0|0,0:0|0:0,0:0:0:0:
380,0,145475,1,8,0:0:0:0:
452,44,145709,1,0,0:0:0:0:
448,128,145944,2,0,P|434:167|403:195,1,85,0|0,0:0|0:0,0:0:0:0:
364,212,146295,1,0,0:0:0:0:
324,228,146413,6,0,B|244:256|244:256|164:228|164:228|84:256|84:256,1,255,0|0,1:0|0:0,0:0:0:0:
60,176,147350,2,0,L|140:149,1,85,8|0,0:0|0:0,0:0:0:0:
120,68,147819,2,0,L|39:94,1,85,0|0,0:0|0:0,0:0:0:0:
60,176,148288,2,0,L|109:338,1,170,0|0,1:0|0:0,0:0:0:0:
192,316,148991,1,0,0:0:0:0:
192,316,149108,1,0,0:0:0:0:
192,316,149225,38,0,L|142:153,2,170,8|8|0,0:0|0:0|1:0,0:0:0:0:
272,292,150397,2,0,L|434:242,1,170,0|0,0:0|0:0,0:0:0:0:
512,204,151100,2,0,P|522:163|511:122,1,85,8|0,0:0|0:0,0:0:0:0:
436,164,151569,1,0,0:0:0:0:
436,164,151686,1,0,0:0:0:0:
436,164,151803,2,0,P|395:175|354:164,1,85,0|0,0:0|1:0,0:0:0:0:
284,116,152272,5,0,0:0:0:0:
212,68,152506,1,0,0:0:0:0:
160,136,152741,1,0,0:0:0:0:
232,184,152975,2,0,B|266:208|266:208|308:220,2,85,8|0|0,0:0|0:0|0:0,0:0:0:0:
160,136,153678,1,0,0:0:0:0:
160,136,153795,1,0,0:0:0:0:
160,136,153913,38,0,B|120:164|136:232|160:264|220:280|220:280|296:300,1,255,0|0,1:0|0:0,0:0:0:0:
372,312,154850,2,0,L|455:329,2,85,8|0|0,0:0|0:0|0:0,0:0:0:0:
372,312,155788,2,0,P|361:271|372:230,1,85,0|0,1:0|0:0,0:0:0:0:
404,152,156256,2,0,P|415:111|404:70,1,85,0|0,0:0|0:0,0:0:0:0:
332,112,156725,1,8,0:0:0:0:
332,112,156842,1,0,0:0:0:0:
332,112,156959,1,0,0:0:0:0:
328,28,157194,1,8,0:0:0:0:
328,28,157311,1,0,0:0:0:0:
328,28,157428,1,0,0:0:0:0:
256,76,157663,5,0,1:0:0:0:
185,123,157897,1,0,0:0:0:0:
185,123,158600,1,8,0:0:0:0:
112,168,158834,2,0,L|77:192,4,42.5,0|0|0|0|0,0:0|0:0|0:0|0:0|0:0,0:0:0:0:
185,123,159538,37,0,1:0:0:0:
188,208,159772,1,0,0:0:0:0:
260,164,160006,1,0,0:0:0:0:
262,248,160240,1,0,0:0:0:0:
334,204,160475,2,0,L|407:160,2,85,8|0|0,0:0|0:0|0:0,0:0:0:0:
262,248,161178,1,0,0:0:0:0:
262,248,161295,1,0,0:0:0:0:
261,248,161413,6,0,P|138:209|259:163,1,340,0|8,1:0|0:0,0:0:0:0:
334,204,162584,1,0,0:0:0:0:
336,288,162819,1,0,0:0:0:0:
336,288,162936,1,0,0:0:0:0:
336,288,163053,1,0,0:0:0:0:
408,244,163288,37,0,1:0:0:0:
408,160,163522,1,0,0:0:0:0:
256,192,163991,1,0,0:0:0:0:
256,192,165163,22,0,P|219:120|257:47,1,170,0|0,0:0|2:0,0:0:0:0:
304,120,165866,1,0,0:0:0:0:
341,195,166100,2,0,P|316:253|258:276,2,127.5,0|0|0,0:0|0:0|0:0,0:0:0:0:
256,192,167038,2,0,P|186:233|183:314,1,170,0|0,0:0|2:0,0:0:0:0:
258,276,167741,1,0,0:0:0:0:
336,236,167975,2,0,L|450:177,2,127.5,0|0|0,0:0|0:0|0:0,0:0:0:0:
258,276,168913,6,0,P|221:204|259:131,1,170,0|0,0:0|2:0,0:0:0:0:
336,88,169616,1,0,0:0:0:0:
412,128,169850,2,0,P|419:66|383:15,2,127.5,0|0|0,0:0|0:0|0:0,0:0:0:0:
340,172,170788,2,0,L|195:259,1,170,0|0,0:0|2:0,0:0:0:0:
120,220,171491,1,0,0:0:0:0:
57,276,171725,2,0,P|36:217|60:159,2,127.5,0|0|0,0:0|0:0|0:0,0:0:0:0:
132,316,172663,37,4,0:0:0:0:
257,368,173131,1,4,0:0:0:0:
381,316,173600,1,4,0:0:0:0:
433,191,174069,1,4,0:0:0:0:
381,67,174538,1,4,0:0:0:0:
256,15,175006,1,4,0:0:0:0:
132,67,175475,1,4,0:0:0:0:
80,192,175944,1,4,0:0:0:0:
132,316,176413,6,4,P|172:301|198:269,1,85
241,339,176881,2,4,P|266:306|273:264,1,85,4|4,0:0|0:0,0:0:0:0:
344,300,177350,2,4,P|348:258|331:219,1,85,4|4,0:0|0:0,0:0:0:0:
408,203,177818,2,4,P|389:166|353:144,1,85,4|4,0:0|0:0,0:0:0:0:
256,192,178288,12,4,179694,0:0:0:0:
136,128,180163,38,0,L|76:67,2,85,2|2|8,0:0|0:0|0:0,0:0:0:0:
256,4,181100,2,0,L|256:89,2,85,2|2|8,0:0|0:0|0:0,0:0:0:0:
376,128,182038,2,0,L|437:67,2,85,2|2|10,0:0|0:0|0:0,0:0:0:0:
313,187,182741,2,0,P|272:259|305:334,1,170,2|2,0:0|0:0,0:0:0:0:
364,264,183444,1,10,0:0:0:0:
364,264,183561,1,0,0:0:0:0:
364,264,183678,1,2,0:0:0:0:
404,188,183913,6,0,P|445:177|486:187,1,85,2|2,0:0|0:0,0:0:0:0:
446,263,184381,2,0,P|406:273|364:264,1,85,8|0,0:0|0:0,0:0:0:0:
312,188,184850,2,0,P|272:177|231:187,1,85,2|2,0:0|0:0,0:0:0:0:
160,236,185318,2,0,P|119:245|79:235,1,85,8|2,0:0|0:0,0:0:0:0:
32,164,185788,2,0,L|-17:46,2,127.5,2|2|2,0:0|0:0|0:0,0:0:0:0:
32,164,187194,37,10,0:0:0:0:
79,234,187428,1,2,0:0:0:0:
163,229,187663,2,0,P|151:189|121:160,1,85,2|2,0:0|0:0,0:0:0:0:
79,234,188131,2,0,P|91:274|121:304,1,85,8|0,0:0|0:0,0:0:0:0:
196,340,188600,2,0,L|273:376,2,85,2|2|8,0:0|0:0|0:0,0:0:0:0:
121,304,189303,5,2,0:0:0:0:
40,285,189538,1,2,0:0:0:0:
30,202,189772,1,2,0:0:0:0:
107,166,190006,1,10,0:0:0:0:
164,227,190241,2,0,P|190:149|138:86,1,170,2|2,0:0|0:0,0:0:0:0:
107,166,190944,1,10,0:0:0:0:
104,169,191061,1,0,0:0:0:0:
101,172,191178,1,2,0:0:0:0:
80,248,191413,37,2,0:0:0:0:
140,308,191647,1,2,0:0:0:0:
216,268,191881,2,0,P|258:258|298:268,1,85,8|0,0:0|0:0,0:0:0:0:
372,308,192350,1,2,0:0:0:0:
432,248,192584,1,2,0:0:0:0:
405,166,192819,1,8,0:0:0:0:
378,84,193053,6,0,P|357:47|321:25,1,85,2|2,0:0|0:0,0:0:0:0:
296,107,193522,2,0,P|255:118|214:109,1,85,2|10,0:0|0:0,0:0:0:0:
192,25,193991,2,0,P|134:82|151:162,1,170,2|0,0:0|0:0,0:0:0:0:
212,224,194694,1,8,0:0:0:0:
152,284,194928,1,0,0:0:0:0:
93,223,195163,38,0,P|70:259|70:301,1,85,2|2,0:0|0:0,0:0:0:0:
128,364,195631,1,8,0:0:0:0:
212,344,195866,1,0,0:0:0:0:
256,272,196100,2,0,L|256:187,2,85,2|2|8,0:0|0:0|0:0,0:0:0:0:
300,344,196803,1,0,0:0:0:0:
384,364,197038,6,0,P|425:374|466:365,2,85,2|2|10,0:0|0:0|0:0,0:0:0:0:
428,292,197741,2,0,L|518:147,1,170,2|2,0:0|0:0,0:0:0:0:
488,68,198444,1,10,0:0:0:0:
488,68,198561,1,0,0:0:0:0:
488,68,198678,1,2,0:0:0:0:
416,20,198913,38,0,P|376:9|335:18,1,85,2|2,0:0|0:0,0:0:0:0:
296,96,199381,2,0,P|255:104|215:94,1,85,8|0,0:0|0:0,0:0:0:0:
178,18,199850,2,0,P|137:9|96:20,1,85,2|2,0:0|0:0,0:0:0:0:
32,76,200319,2,0,P|24:117|35:157,1,85,8|2,0:0|0:0,0:0:0:0:
96,216,200788,2,0,L|188:304,2,127.5,2|2|2,0:0|0:0|0:0,0:0:0:0:
96,216,202194,1,10,0:0:0:0:
36,157,202428,1,2,0:0:0:0:
116,135,202663,6,0,P|154:155|174:192,1,85,2|2,0:0|0:0,0:0:0:0:
212,268,203131,1,8,0:0:0:0:
300,268,203366,1,0,0:0:0:0:
340,192,203600,2,0,P|361:155|398:135,2,85,2|2|8,0:0|0:0|0:0,0:0:0:0:
300,268,204303,37,2,0:0:0:0:
218,255,204538,1,2,0:0:0:0:
203,172,204772,1,2,0:0:0:0:
279,132,205006,1,10,0:0:0:0:
340,192,205241,2,0,L|462:311,1,170,2|2,0:0|0:0,0:0:0:0:
512,244,205944,1,10,0:0:0:0:
512,244,206061,1,0,0:0:0:0:
512,244,206178,1,2,0:0:0:0:
462,175,206413,6,0,L|340:56,1,170,2|8,0:0|0:0,0:0:0:0:
280,116,207116,2,0,P|210:156|138:118,2,170,2|2|0,0:0|0:0|0:0,0:0:0:0:
256,192,208170,12,0,209225,0:0:0:0:
136,128,210163,38,0,L|76:67,2,85,2|2|8,0:0|0:0|0:0,0:0:0:0:
256,4,211100,2,0,L|256:89,2,85,2|2|8,0:0|0:0|0:0,0:0:0:0:
376,128,212038,2,0,L|437:67,2,85,2|2|10,0:0|0:0|0:0,0:0:0:0:
313,187,212741,2,0,P|272:259|305:334,1,170,2|2,0:0|0:0,0:0:0:0:
364,264,213444,5,10,0:0:0:0:
364,264,213561,1,0,0:0:0:0:
364,264,213678,1,2,0:0:0:0:
404,188,213913,2,0,P|395:147|366:115,1,85,2|2,0:0|0:0,0:0:0:0:
340,36,214381,37,10,0:0:0:0:
256,52,214616,1,2,0:0:0:0:
256,136,214850,2,0,L|256:221,1,85,2|2,0:0|0:0,0:0:0:0:
224,300,215319,5,10,0:0:0:0:
148,264,215553,1,2,0:0:0:0:
108,188,215788,2,0,P|118:147|147:115,2,85,2|2|10,0:0|0:0|0:0,0:0:0:0:
193,187,216491,2,0,P|231:115|192:44,1,170,2|0,0:0|0:0,0:0:0:0:
108,40,217194,37,10,0:0:0:0:
147,115,217428,1,2,0:0:0:0:
108,188,217663,2,0,P|118:228|147:260,1,85,2|2,0:0|0:0,0:0:0:0:
172,340,218131,5,10,0:0:0:0:
256,324,218366,1,2,0:0:0:0:
256,240,218600,2,0,L|256:155,1,85,2|2,0:0|0:0,0:0:0:0:
366,115,219069,37,8,0:0:0:0:
404,188,219303,2,0,P|395:228|366:260,1,85,2|2,0:0|0:0,0:0:0:0:
297,208,219772,2,0,P|256:196|216:208,1,85,2|10,0:0|0:0,0:0:0:0:
147,260,220241,2,0,P|108:187|144:114,1,170,2|2,0:0|0:0,0:0:0:0:
212,64,220944,1,10,0:0:0:0:
212,64,221061,1,0,0:0:0:0:
212,64,221178,1,2,0:0:0:0:
288,28,221413,6,0,P|329:17|370:26,2,85,2|2|8,0:0|0:0|0:0,0:0:0:0:
332,100,222116,2,0,P|374:107|415:96,2,85,0|2|2,0:0|0:0|0:0,0:0:0:0:
256,140,222819,1,8,0:0:0:0:
256,192,223053,12,10,224694,0:0:0:0:
136,256,225163,38,0,L|76:317,2,85,2|2|8,0:0|0:0|0:0,0:0:0:0:
256,384,226100,2,0,L|256:299,2,85,2|2|8,0:0|0:0|0:0,0:0:0:0:
376,256,227038,2,0,L|437:317,2,85,2|2|10,0:0|0:0|0:0,0:0:0:0:
313,197,227741,2,0,P|272:125|305:50,1,170,2|2,0:0|0:0,0:0:0:0:
364,120,228444,5,10,0:0:0:0:
364,120,228561,1,0,0:0:0:0:
364,120,228678,1,2,0:0:0:0:
404,196,228913,2,0,P|395:236|366:268,1,85,2|2,0:0|0:0,0:0:0:0:
340,348,229381,37,10,0:0:0:0:
256,332,229616,1,2,0:0:0:0:
256,248,229850,2,0,L|256:163,1,85,2|2,0:0|0:0,0:0:0:0:
224,84,230319,5,10,0:0:0:0:
148,120,230553,1,2,0:0:0:0:
108,195,230788,2,0,P|118:236|147:268,2,85,2|2|10,0:0|0:0|0:0,0:0:0:0:
193,196,231491,2,0,P|231:268|192:339,1,170,2|0,0:0|0:0,0:0:0:0:
108,344,232194,37,10,0:0:0:0:
147,268,232428,1,0,0:0:0:0:
108,196,232663,2,0,P|118:155|147:123,1,85,2|2,0:0|0:0,0:0:0:0:
216,76,233131,2,0,P|257:63|297:75,1,85,8|0,0:0|0:0,0:0:0:0:
366,123,233600,2,0,P|395:155|404:196,2,85,2|2|8,0:0|0:0|0:0,0:0:0:0:
233,88,234303,5,2,0:0:0:0:
318,197,234538,1,2,0:0:0:0:
311,57,234772,1,2,0:0:0:0:
238,175,235006,1,10,0:0:0:0:
366,123,235241,2,0,P|404:194|369:268,1,170,2|0,0:0|0:0,0:0:0:0:
318,197,235944,37,10,0:0:0:0:
318,197,236061,1,0,0:0:0:0:
318,197,236178,1,2,0:0:0:0:
256,136,236413,2,0,P|183:100|111:139,1,170,2|8,0:0|0:0,0:0:0:0:
184,188,237116,2,0,L|297:315,2,170,2|2|0,0:0|0:0|1:0,0:0:0:0:
256,192,238170,12,2,239225,0:0:0:0:
