osu file format v13

[General]
AudioFilename: Pegboard Nerds - Hero (feat. Elizaveta).mp3
AudioLeadIn: 0
PreviewTime: 16565
Countdown: 0
SampleSet: Normal
StackLeniency: 0.2
Mode: 0
LetterboxInBreaks: 1
WidescreenStoryboard: 0

[Editor]
Bookmarks: 90365
DistanceSpacing: 0.9
BeatDivisor: 4
GridSize: 8
TimelineZoom: 1

[Metadata]
Title:Hero
TitleUnicode:Hero
Artist:Pegboard Nerds (feat. Elizaveta)
ArtistUnicode:Pegboard Nerds (feat. Elizaveta)
Creator:Nozox
Version:Hero
Source:
Tags:
BeatmapID:519572
BeatmapSetID:222209

[Difficulty]
HPDrainRate:6
CircleSize:4
OverallDifficulty:7
ApproachRate:9
SliderMultiplier:2
SliderTickRate:2

[Events]
//Background and Video events
0,0,"maxresdefault.jpg",0,0
//Break Periods
//Storyboard Layer 0 (Background)
//Storyboard Layer 1 (Fail)
//Storyboard Layer 2 (Pass)
//Storyboard Layer 3 (Foreground)
//Storyboard Sound Samples
//Background Colour Transformations
3,100,163,162,255

[TimingPoints]
4165,400,4,1,0,100,1,0
16565,-125,4,1,0,100,0,0
55365,-100,4,1,0,100,0,0
58565,-90.9090909090909,4,1,0,100,0,0
61765,-83.3333333333333,4,1,0,100,0,0
64965,-76.9230769230769,4,1,0,100,0,0
66565,-71.4285714285714,4,1,0,100,0,0
68165,-66.6666666666667,4,1,0,100,0,1
93765,-100,4,1,0,100,0,0
106565,-83.3333333333333,4,1,0,100,0,0
116165,-100,4,1,0,100,0,0
117765,-83.3333333333333,4,1,0,100,0,0
144965,-100,4,1,0,100,0,0
148165,-90.9090909090909,4,1,0,100,0,0
151365,-83.3333333333333,4,1,0,100,0,0
154565,-76.9230769230769,4,1,0,100,0,0
156165,-71.4285714285714,4,1,0,100,0,0
157765,-66.6666666666667,4,1,0,100,0,1
183565,-100,4,1,0,100,0,0
196165,-125,4,1,0,100,0,0
205965,-125,4,1,0,40,0,0
208965,-200,4,1,0,40,0,0
234565,-83.3333333333333,4,1,0,100,0,0
285765,-200,4,1,0,40,0,0

[Colours]
Combo1 : 198,149,0
Combo2 : 0,111,0
Combo3 : 0,34,74
Combo4 : 74,4,15

[HitObjects]
104,56,4165,5,0,0:0:0:0:
104,56,4365,1,0,0:0:0:0:
416,272,4765,1,0,0:0:0:0:
416,272,4965,1,0,0:0:0:0:
256,336,5765,2,0,B|232:328|256:312|256:312|232:304|256:288|256:288|232:280|256:264|256:264|232:256|256:240|256:240|232:232|256:216|256:216|232:208|256:192|256:192|232:184|256:168|256:168|232:160|256:144|256:144|232:136|256:120|256:120|232:112|256:96|256:96|232:88|256:72|256:72|248:32,1,400
104,328,7365,5,0,0:0:0:0:
104,328,7565,1,0,0:0:0:0:
416,112,7965,1,0,0:0:0:0:
416,112,8165,1,0,0:0:0:0:
256,48,8965,2,0,B|232:56|256:72|256:72|232:80|256:96|256:96|232:104|256:120|256:120|232:128|256:144|256:144|232:152|256:168|256:168|232:176|256:192|256:192|232:200|256:216|256:216|232:224|256:240|256:240|232:248|256:264|256:264|232:272|256:288|256:288|232:296|256:312|256:312|248:352,1,400
80,144,10565,6,0,P|96:72|168:64,1,150
432,144,11165,2,0,P|416:72|344:64,1,150
256,48,12165,2,0,B|344:48|344:48|368:160|208:224,1,300
96,296,12965,1,0,0:0:0:0:
0,160,13165,1,0,0:0:0:0:
104,32,13365,1,0,0:0:0:0:
272,32,13565,1,0,0:0:0:0:
376,160,13765,5,0,0:0:0:0:
376,160,13965,1,0,0:0:0:0:
272,296,14365,1,0,0:0:0:0:
272,296,14565,1,0,0:0:0:0:
96,184,15365,2,0,B|168:112|168:112|256:152|344:112|344:112|440:192,1,400
368,256,16565,5,0,0:0:0:0:
256,320,16765,1,0,0:0:0:0:
144,256,16965,2,0,B|80:208|80:208|80:128,2,160,0|0|0,0:0|0:0|0:0,0:0:0:0:
144,96,18165,1,0,0:0:0:0:
256,32,18365,1,0,0:0:0:0:
368,96,18565,2,0,B|432:144|432:144|432:224,2,160,0|0|0,0:0|0:0|0:0,0:0:0:0:
120,184,19765,6,0,B|80:192|80:192|56:224,2,80,0|0|0,0:0|0:0|0:0,0:0:0:0:
392,48,20565,1,0,0:0:0:0:
216,296,20965,1,0,0:0:0:0:
392,184,21365,2,0,B|432:192|432:192|456:224,2,80,0|0|0,0:0|0:0|0:0,0:0:0:0:
120,48,22165,1,0,0:0:0:0:
296,296,22565,1,0,0:0:0:0:
376,48,22965,6,0,L|336:128,1,80
208,144,23365,2,0,P|200:208|304:256,1,160
269,261,24165,1,0,0:0:0:0:
269,261,24765,1,0,0:0:0:0:
392,224,24965,2,0,B|440:168|352:136|408:64,1,160
144,64,25765,1,0,0:0:0:0:
144,320,26165,1,0,0:0:0:0:
80,208,26365,1,0,0:0:0:0:
208,208,26565,2,0,B|208:152|208:152|208:96|272:40|336:96|336:152|336:152|336:240,2,320,0|0|0,0:0|0:0|0:0,0:0:0:0:
344,128,28765,5,0,0:0:0:0:
224,224,28965,1,0,0:0:0:0:
272,80,29165,1,0,0:0:0:0:
320,224,29365,1,0,0:0:0:0:
200,128,29565,1,0,0:0:0:0:
80,224,29765,6,0,P|96:312|168:320,1,160
312,320,30565,1,0,0:0:0:0:
416,200,30965,1,0,0:0:0:0:
464,136,31165,1,0,0:0:0:0:
416,72,31365,1,0,0:0:0:0:
416,72,31765,1,0,0:0:0:0:
200,216,32165,1,0,0:0:0:0:
160,56,32565,6,0,B|192:32|192:32|224:56,2,80,0|0|0,0:0|0:0|0:0,0:0:0:0:
88,304,33365,2,0,B|136:352|192:272|256:352,2,160,0|0|0,0:0|0:0|0:0,0:0:0:0:
24,192,34365,1,0,0:0:0:0:
112,96,34565,1,0,0:0:0:0:
240,320,34965,1,0,0:0:0:0:
368,96,35365,1,0,0:0:0:0:
152,240,35765,2,0,P|112:208|104:168,1,80
224,136,36165,5,0,0:0:0:0:
432,288,36565,1,0,0:0:0:0:
400,32,36965,1,0,0:0:0:0:
144,56,37365,1,0,0:0:0:0:
176,312,37765,1,0,0:0:0:0:
64,200,38365,5,0,0:0:0:0:
176,136,38565,2,0,B|264:72|264:72|336:80,1,160
424,144,39165,1,0,0:0:0:0:
376,264,39365,2,0,B|360:288|352:264|352:264|336:288|328:264|328:264|312:288|304:264|304:264|288:288|280:264|280:264|264:288|256:264|256:264|240:288|232:264|232:264|216:288|208:264|208:264|192:288|184:264|184:264|168:288|160:264|160:264|160:264,2,320,0|0|0,0:0|0:0|0:0,0:0:0:0:
120,192,41565,5,0,0:0:0:0:
200,88,41765,1,0,0:0:0:0:
280,192,41965,1,0,0:0:0:0:
200,296,42165,1,0,0:0:0:0:
120,192,42365,1,0,0:0:0:0:
120,192,42565,2,0,P|240:112|120:256,1,640
432,168,44765,5,0,0:0:0:0:
344,72,44965,1,0,0:0:0:0:
256,168,45165,1,0,0:0:0:0:
344,264,45365,1,0,0:0:0:0:
432,168,45565,1,0,0:0:0:0:
432,168,45765,2,0,P|312:88|432:232,1,640
112,80,47965,5,0,0:0:0:0:
240,80,48165,1,0,0:0:0:0:
240,208,48365,1,0,0:0:0:0:
112,208,48565,1,0,0:0:0:0:
112,80,48765,1,0,0:0:0:0:
112,80,48965,2,0,B|192:56|384:176|120:288|64:160|144:16|264:32|280:32|400:16|480:160|424:288|160:176|352:56|448:80,1,640
336,208,51165,5,0,0:0:0:0:
464,208,51365,1,0,0:0:0:0:
464,336,51565,1,0,0:0:0:0:
336,336,51765,1,0,0:0:0:0:
336,208,51965,1,0,0:0:0:0:
336,208,52165,2,0,B|259:231|67:111|331:0|387:127|307:271|187:255|171:255|51:271|-28:127|27:0|291:111|99:231|12:208,1,640
256,192,53965,12,0,55365,0:0:0:0:
64,240,55565,6,0,L|112:208,1,50
256,272,55865,2,0,L|304:240,1,50
360,96,56165,2,0,B|392:88|392:88|408:64|408:64|488:64,2,100,0|0|0,0:0|0:0|0:0,0:0:0:0:
160,96,57165,1,0,0:0:0:0:
160,152,57265,1,0,0:0:0:0:
192,200,57365,1,0,0:0:0:0:
240,232,57465,1,0,0:0:0:0:
296,232,57565,1,0,0:0:0:0:
416,336,57765,2,0,P|464:320|472:240,2,100,0|0|0,0:0|0:0|0:0,0:0:0:0:
408,64,58565,5,0,0:0:0:0:
169,89,58765,2,0,L|208:128,1,55.0000016784668
326,262,59065,2,0,L|288:224,1,55.0000016784668,0|0,0:0|0:0,0:0:0:0:
328,48,59365,2,0,P|379:45|394:93,2,110.000003356934,0|0|0,0:0|0:0|0:0,0:0:0:0:
224,288,60365,1,0,0:0:0:0:
168,264,60465,1,0,0:0:0:0:
120,224,60565,1,0,0:0:0:0:
96,168,60665,1,0,0:0:0:0:
96,104,60765,1,0,0:0:0:0:
272,88,60965,2,0,B|312:128|344:64|400:128,2,110.000003356934,0|0|0,0:0|0:0|0:0,0:0:0:0:
296,312,61765,5,0,0:0:0:0:
176,176,61965,2,0,B|144:176|144:176|144:112,1,59.9999981689454
280,32,62265,2,0,B|312:32|312:32|312:96,1,59.9999981689454
144,64,62765,2,0,B|144:32|144:32|184:32,1,59.9999981689454
312,152,63065,2,0,B|312:184|312:184|272:184,1,59.9999981689454
128,280,63365,5,0,0:0:0:0:
312,272,63565,2,0,L|360:224|360:224,1,59.9999981689454
312,272,63865,2,0,L|368:320,1,59.9999981689454
240,272,64365,2,0,L|184:328,1,59.9999981689454
240,272,64665,2,0,L|184:224,1,59.9999981689454
400,216,64965,6,0,P|424:160|384:88,1,129.999994049073
272,48,65365,2,0,P|200:32|112:64,1,129.999994049073
32,128,65765,2,0,P|6:186|30:244,1,129.999994049073
144,320,66165,2,0,P|206:335|269:324,1,129.999994049073
336,192,66565,2,0,L|360:120,6,69.9999978637696,0|0|0|0|0|0|0,0:0|0:0|0:0|0:0|0:0|0:0|0:0,0:0:0:0:
160,64,67365,1,0,0:0:0:0:
384,64,67565,1,0,0:0:0:0:
272,256,67765,1,0,0:0:0:0:
160,64,67965,1,0,0:0:0:0:
272,256,68165,5,0,0:0:0:0:
80,288,68365,2,0,B|48:272|48:272|48:216,1,75.0000028610231
48,88,68665,2,0,B|48:48|48:48|72:23,1,75.0000028610231
296,72,68965,2,0,B|336:112|336:112|400:72|448:152,2,150.000005722046,0|0|0,0:0|0:0|0:0,0:0:0:0:
176,224,69765,5,0,0:0:0:0:
392,280,69965,1,0,0:0:0:0:
392,280,70065,2,0,B|424:208|368:136,1,150.000005722046
370,139,70365,1,0,0:0:0:0:
152,88,70565,2,0,B|112:120|112:120|112:240,2,150.000005722046,0|0|0,0:0|0:0|0:0,0:0:0:0:
160,304,71365,5,0,0:0:0:0:
264,88,71565,2,0,L|320:32,1,75.0000028610231
496,192,71865,2,0,L|432:264,1,75.0000028610231
208,272,72165,2,0,B|136:256|136:256|128:272|128:272|32:248,2,150.000005722046,0|0|0,0:0|0:0|0:0,0:0:0:0:
216,80,72965,5,0,0:0:0:0:
448,136,73165,1,0,0:0:0:0:
448,136,73265,2,0,B|464:240|464:240|416:280,1,150.000005722046
429,268,73565,1,0,0:0:0:0:
192,272,73765,1,0,0:0:0:0:
336,80,73965,1,0,0:0:0:0:
256,192,74065,12,0,74565,0:0:0:0:
120,80,74765,6,0,B|120:120|120:120|160:160,1,75.0000028610231
376,80,75065,2,0,B|400:104|400:104|400:144,1,75.0000028610231
504,320,75365,1,0,0:0:0:0:
264,320,75565,1,0,0:0:0:0:
24,320,75765,1,0,0:0:0:0:
184,176,76165,5,0,0:0:0:0:
184,176,76365,1,0,0:0:0:0:
248,176,76465,2,0,P|344:168|360:120,1,150.000005722046
352,64,76765,1,0,0:0:0:0:
112,80,76965,2,0,B|56:136|56:136|88:216,3,150.000005722046,0|0|0|0,0:0|0:0|0:0|0:0,0:0:0:0:
72,336,77765,5,0,0:0:0:0:
432,64,78165,1,0,0:0:0:0:
16,232,78565,1,0,0:0:0:0:
464,160,78965,1,0,0:0:0:0:
16,128,79365,1,0,0:0:0:0:
440,280,79765,1,0,0:0:0:0:
72,24,80165,1,0,0:0:0:0:
368,360,80565,1,0,0:0:0:0:
104,176,80965,6,0,B|120:136|128:176|128:176|144:136|152:176|152:176|168:136|176:176|176:176|192:136|200:176|200:176|216:136|224:176|224:176|240:136|248:176|248:176|264:136,1,300.000011444092
408,72,81565,2,0,L|424:272,1,150.000005722046
136,248,81965,2,0,L|120:80,1,150.000005722046
280,320,82565,5,0,0:0:0:0:
416,120,82765,1,0,0:0:0:0:
376,72,82865,2,0,P|304:40|224:40,1,150.000005722046
176,56,83165,1,0,0:0:0:0:
128,288,83365,1,0,0:0:0:0:
368,288,83565,1,0,0:0:0:0:
168,160,83765,2,0,B|280:160|280:160|280:264|152:312,1,300.000011444092
48,224,84365,6,0,L|120:176,1,75.0000028610231
216,296,84665,2,0,L|296:240,1,75.0000028610231
328,104,84965,2,0,B|416:48|416:48|472:56,2,150.000005722046,0|0|0,0:0|0:0|0:0,0:0:0:0:
32,120,85765,5,0,0:0:0:0:
176,312,85965,1,0,0:0:0:0:
248,312,86065,1,0,0:0:0:0:
312,288,86165,1,0,0:0:0:0:
352,232,86265,1,0,0:0:0:0:
376,168,86365,1,0,0:0:0:0:
112,64,86565,1,0,0:0:0:0:
112,352,86765,1,0,0:0:0:0:
344,184,86965,2,0,B|344:107|344:107|352:99|408:211|456:99|464:107|464:107|464:187,1,300.000011444092
368,320,87565,5,0,0:0:0:0:
304,312,87665,2,0,B|264:304|264:304|232:192,1,150.000005722046
232,136,87965,1,0,0:0:0:0:
472,128,88165,2,0,B|488:232|488:232|424:296,2,150.000005722046,0|0|0,0:0|0:0|0:0,0:0:0:0:
304,248,88965,5,0,0:0:0:0:
192,48,89165,1,0,0:0:0:0:
128,56,89265,1,0,0:0:0:0:
80,104,89365,1,0,0:0:0:0:
64,168,89465,1,0,0:0:0:0:
64,232,89565,1,0,0:0:0:0:
288,320,89765,2,0,P|368:344|448:320,2,150.000005722046,0|0|0,0:0|0:0|0:0,0:0:0:0:
296,240,90365,2,0,P|376:224|448:248,1,150.000005722046,0|0,0:0|0:0,0:0:0:0:
192,320,90965,6,0,L|192:160,1,150.000005722046
312,32,91365,2,0,L|312:182,1,150.000005722046
128,320,91765,2,0,L|128:170,1,150.000005722046
376,32,92165,2,0,L|376:182,1,150.000005722046
64,320,92565,2,0,L|64:170,1,150.000005722046
440,32,92965,2,0,L|440:182,1,150.000005722046
288,184,93365,2,0,P|234:228|179:185,1,150.000005722046,0|0,0:0|0:0,0:0:0:0:
112,48,93765,1,0,0:0:0:0:
248,128,93965,1,0,0:0:0:0:
128,328,94565,6,0,B|136:296|144:328|144:328|152:296|160:328|160:328|168:296|176:328|176:328|184:296|192:328|192:328|200:296|208:328|208:328|216:296,1,200
264,304,95065,2,0,L|320:296,3,50,0|0|0|0,0:0|0:0|0:0|0:0,0:0:0:0:
448,208,95665,1,0,0:0:0:0:
312,144,95965,1,0,0:0:0:0:
160,208,96165,1,0,0:0:0:0:
32,128,96465,1,0,0:0:0:0:
168,56,96765,1,0,0:0:0:0:
328,32,96965,2,0,B|352:48|328:64|328:64|352:80|328:96|328:96|352:112|328:128|328:128|352:144|328:160|328:160|352:176|328:192|328:192|352:208|328:224|328:224|352:240|328:256|328:256|352:272|328:288|328:288|352:304|328:320|328:320|352:336|328:352,1,400
56,48,98565,5,0,0:0:0:0:
240,48,98865,1,0,0:0:0:0:
424,48,99165,1,0,0:0:0:0:
424,248,99365,1,0,0:0:0:0:
240,248,99665,1,0,0:0:0:0:
56,248,99965,1,0,0:0:0:0:
96,328,100165,2,0,B|96:288|128:312|128:312|128:264|160:296|160:296|160:248|192:280|192:280|192:232|224:264|224:264|224:216|256:248|256:248|256:200|288:232|288:232|288:184|320:216|320:216|320:216|320:216,1,400
184,128,101765,5,0,0:0:0:0:
176,280,102065,1,0,0:0:0:0:
312,208,102365,1,0,0:0:0:0:
272,136,102565,1,0,0:0:0:0:
128,200,102865,1,0,0:0:0:0:
264,280,103165,1,0,0:0:0:0:
352,336,103365,2,0,B|365:331|341:315|341:315|365:299|341:283|341:283|365:267|341:251|341:251|365:235|341:219|341:219|365:203|341:187|341:187|365:171|341:155|341:155|365:139|341:123|341:123|365:107|341:91|341:91|365:75|341:59|341:59|365:43|341:27,1,400
256,344,104965,5,0,0:0:0:0:
256,192,105265,1,0,0:0:0:0:
256,40,105565,1,0,0:0:0:0:
256,192,105765,12,0,106565,0:0:0:0:
120,72,107365,5,0,0:0:0:0:
240,280,107765,2,0,B|296:336|296:336|336:344,2,119.999996337891,0|0|0,0:0|0:0|0:0,0:0:0:0:
240,280,108565,1,0,0:0:0:0:
376,80,108965,1,0,0:0:0:0:
80,288,109365,1,0,0:0:0:0:
152,192,109565,1,0,0:0:0:0:
64,112,109765,1,0,0:0:0:0:
304,64,110165,2,0,B|416:120|272:240|448:288,1,239.999992675781
160,328,110965,5,0,0:0:0:0:
240,240,111165,1,0,0:0:0:0:
312,144,111365,1,0,0:0:0:0:
72,88,111765,1,0,0:0:0:0:
384,304,112165,1,0,0:0:0:0:
136,296,112565,2,0,B|80:312|80:312|40:256,1,119.999996337891,0|0,0:0|0:0,0:0:0:0:
48,144,112965,2,0,B|64:104|80:144|80:144|96:104|112:144|112:144|128:104|144:144|144:144|160:104|176:144|176:144|192:104|208:144|208:144|224:104|240:144|240:144|256:104|272:144,1,359.999989013672
265,130,113765,1,0,0:0:0:0:
48,144,114565,6,0,B|64:104|80:144|80:144|96:104|112:144|112:144|128:104|144:144|144:144|160:104|176:144|176:144|192:104|208:144|208:144|224:104|240:144|240:144|256:104|272:144,1,359.999989013672
265,130,115365,1,0,0:0:0:0:
432,200,115665,1,0,0:0:0:0:
296,320,115965,1,0,0:0:0:0:
192,328,116165,2,0,B|165:315|165:315|189:299|165:283|165:283|189:267|165:251|165:251|189:235|165:219|165:219|189:203|165:187|165:187|189:171|165:155|165:155|189:139|165:123|165:123|189:107|165:91|165:91|189:75|165:59|165:59|189:43|165:27,2,400,0|0|0,0:0|0:0|0:0,0:0:0:0:
320,152,118365,5,0,0:0:0:0:
240,56,118565,1,0,0:0:0:0:
136,120,118765,1,0,0:0:0:0:
144,240,118965,1,0,0:0:0:0:
264,264,119165,1,0,0:0:0:0:
376,208,119365,2,0,P|456:224|376:320,2,239.999992675781,0|0|0,0:0|0:0|0:0,0:0:0:0:
256,208,120565,5,0,0:0:0:0:
136,208,120765,1,0,0:0:0:0:
16,208,120965,2,0,B|40:192|16:184|16:184|40:168|16:160|16:160|40:144|16:136|16:136|40:120|16:112|16:112|40:96|16:88|16:88|40:72|16:64|16:64|40:48|40:48|56:72|64:48|64:48|80:72|88:48|88:48|104:72|112:48|112:48|128:72|136:48|136:48|152:72|160:48|160:48|176:72|184:48|184:48|200:72,1,479.999985351563
360,160,122065,1,0,0:0:0:0:
272,320,122365,1,0,0:0:0:0:
272,320,122565,2,0,B|112:320|112:320|40:264,2,239.999992675781,0|0|0,0:0|0:0|0:0,0:0:0:0:
40,40,123765,5,0,0:0:0:0:
144,104,123965,1,0,0:0:0:0:
232,192,124165,2,0,B|232:48|392:216|392:32,2,239.999992675781,0|0|0,0:0|0:0|0:0,0:0:0:0:
88,312,125265,1,0,0:0:0:0:
272,288,125565,1,0,0:0:0:0:
272,288,125765,2,0,B|272:192|272:192|336:264|392:176,2,239.999992675781,0|0|0,0:0|0:0|0:0,0:0:0:0:
96,136,127365,6,0,B|176:224|176:224|256:224,2,179.999994506836,0|0|0,0:0|0:0|0:0,0:0:0:0:
200,56,128165,1,0,0:0:0:0:
432,120,128565,2,0,B|448:184|448:184|384:224,1,119.999996337891,0|0,0:0|0:0,0:0:0:0:
296,264,128965,6,0,B|288:232|272:272|272:272|256:232|240:272|240:272|224:232|208:272|208:272|192:232|176:272|176:272|160:232|144:272|144:272|128:232|112:272|112:272|96:232|80:272|80:272|64:232|48:272|48:272|32:232|16:272|16:272|0:272,1,479.999985351563
256,192,130065,12,0,130565,0:0:0:0:
112,216,131165,5,0,0:0:0:0:
280,120,131365,1,0,0:0:0:0:
200,296,131565,1,0,0:0:0:0:
160,112,131765,1,0,0:0:0:0:
312,224,131965,1,0,0:0:0:0:
416,64,132165,5,0,0:0:0:0:
416,64,132365,1,0,0:0:0:0:
96,280,132765,1,0,0:0:0:0:
96,280,132965,2,0,B|104:248|112:280|112:280|120:248|128:280|128:280|136:248|144:280|144:280|152:248|160:280|160:280|168:248|176:280|176:280|184:248|192:280|192:280|200:248|208:280,1,239.999992675781,0|0,0:0|0:0,0:0:0:0:
256,256,133465,6,0,L|328:240,3,59.9999981689454,0|0|0|0,0:0|0:0|0:0|0:0,0:0:0:0:
432,104,134065,1,0,0:0:0:0:
144,144,134365,1,0,0:0:0:0:
144,144,134565,1,0,0:0:0:0:
400,272,134865,1,0,0:0:0:0:
120,328,135165,1,0,0:0:0:0:
104,88,135365,5,0,0:0:0:0:
104,88,135565,1,0,0:0:0:0:
424,296,135965,1,0,0:0:0:0:
424,296,136165,2,0,B|400:280|424:272|424:272|400:256|424:248|424:248|400:232|424:224|424:224|400:208|424:200|424:200|400:184|424:176|424:176|400:160|424:152|424:152|400:136|400:136|384:160|376:136|376:136|360:160|352:136|352:136|336:160|328:136|328:136|312:160|304:136|304:136|288:160|280:136|280:136|264:160|256:136|256:136|240:160,1,479.999985351563
88,264,137265,1,0,0:0:0:0:
176,264,137565,1,0,0:0:0:0:
232,264,137765,1,0,0:0:0:0:
320,264,138065,1,0,0:0:0:0:
408,264,138365,1,0,0:0:0:0:
400,72,138565,5,0,0:0:0:0:
400,72,138765,1,0,0:0:0:0:
64,248,139165,1,0,0:0:0:0:
64,248,139365,1,0,0:0:0:0:
328,32,140165,5,0,0:0:0:0:
184,136,140465,1,0,0:0:0:0:
40,240,140765,1,0,0:0:0:0:
184,344,140965,1,0,0:0:0:0:
328,240,141265,1,0,0:0:0:0:
472,136,141565,1,0,0:0:0:0:
384,40,141765,2,0,L|384:192,1,119.999996337891
64,320,142365,2,0,L|64:168,1,119.999996337891
256,192,143365,12,0,144965,0:0:0:0:
448,144,145165,6,0,L|400:176,1,50
256,112,145465,2,0,L|208:144,1,50
152,288,145765,2,0,B|112:320|112:320|24:320,2,100,0|0|0,0:0|0:0|0:0,0:0:0:0:
368,168,146765,5,0,0:0:0:0:
320,200,146865,1,0,0:0:0:0:
264,216,146965,1,0,0:0:0:0:
208,216,147065,1,0,0:0:0:0:
152,200,147165,1,0,0:0:0:0:
80,56,147365,2,0,B|120:32|120:32|184:40,2,100,0|0|0,0:0|0:0|0:0,0:0:0:0:
88,264,148165,5,0,0:0:0:0:
224,152,148365,2,0,B|192:152|192:152|192:184,1,55.0000016784668
344,264,148665,2,0,B|376:264|376:264|376:232,1,55.0000016784668
384,64,148965,2,0,P|424:24|480:16,2,110.000003356934,0|0|0,0:0|0:0|0:0,0:0:0:0:
144,96,149965,5,0,0:0:0:0:
96,136,150065,1,0,0:0:0:0:
72,192,150165,1,0,0:0:0:0:
96,248,150265,1,0,0:0:0:0:
144,288,150365,1,0,0:0:0:0:
320,312,150565,2,0,L|464:312,2,110.000003356934,0|0|0,0:0|0:0|0:0,0:0:0:0:
168,216,151365,5,0,0:0:0:0:
320,96,151565,2,0,B|352:96|352:96|352:128,1,59.9999981689454,0|0,0:0|0:0,0:0:0:0:
352,124,151865,2,0,B|384:124|384:124|384:152,1,59.9999981689454,0|0,0:0|0:0,0:0:0:0:
192,296,152365,2,0,B|160:296|160:296|160:268,1,59.9999981689454,0|0,0:0|0:0,0:0:0:0:
160,268,152665,2,0,B|128:268|128:268|128:240,1,59.9999981689454,0|0,0:0|0:0,0:0:0:0:
160,64,152965,5,0,0:0:0:0:
200,256,153165,2,0,L|264:192,1,59.9999981689454
368,88,153465,2,0,L|432:24,1,59.9999981689454
410,258,153965,2,0,L|368:216,1,59.9999981689454
242,90,154264,2,0,L|200:48,1,59.9999981689454
96,224,154565,6,0,L|24:112,1,129.999994049073
224,56,154965,2,0,L|153:165,1,129.999994049073
416,224,155365,2,0,L|488:112,1,129.999994049073
288,56,155765,2,0,L|358:165,1,129.999994049073
200,304,156165,2,0,P|168:312|128:280,6,69.9999978637696,0|0|0|0|0|0|0,0:0|0:0|0:0|0:0|0:0|0:0|0:0,0:0:0:0:
256,88,156965,1,0,0:0:0:0:
256,312,157165,1,0,0:0:0:0:
336,104,157365,1,0,0:0:0:0:
256,312,157565,1,0,0:0:0:0:
256,88,157765,1,0,0:0:0:0:
104,272,157965,6,0,B|144:312|144:312|176:312,1,75.0000028610231
320,312,158265,2,0,B|338:312|338:312|378:272,1,75.0000028610231
376,48,158565,2,0,B|480:24|480:24|512:56,2,150.000005722046,0|0|0,0:0|0:0|0:0,0:0:0:0:
96,80,159365,5,0,0:0:0:0:
168,296,159565,1,0,0:0:0:0:
224,312,159665,2,0,P|304:320|360:272,1,150.000005722046
376,224,159965,1,0,0:0:0:0:
368,64,160165,2,0,B|264:32|264:32|232:56|232:56|224:64,2,150.000005722046,0|0|0,0:0|0:0|0:0,0:0:0:0:
336,304,160965,1,0,0:0:0:0:
120,224,161165,2,0,B|80:224|80:224|64:184,1,75.0000028610231
232,40,161465,2,0,B|272:40|272:40|288:80,1,75.0000028610231
376,280,161765,2,0,B|480:296|480:296|520:272,2,150.000005722046,0|0|0,0:0|0:0|0:0,0:0:0:0:
376,280,162565,5,0,0:0:0:0:
176,320,162765,1,0,0:0:0:0:
120,272,162865,1,0,0:0:0:0:
96,200,162965,1,0,0:0:0:0:
112,128,163065,1,0,0:0:0:0:
168,80,163165,1,0,0:0:0:0:
392,88,163365,2,0,B|440:128|368:192|440:232,2,150.000005722046,0|0|0,0:0|0:0|0:0,0:0:0:0:
328,304,164165,6,0,B|424:248|424:248|424:192,1,150.000005722046
424,144,164465,2,0,B|376:56|376:56|320:56,1,150.000005722046
264,56,164765,2,0,B|208:24|168:102|120:64,3,150.000005722046,0|0|0|0,0:0|0:0|0:0|0:0,0:0:0:0:
88,224,165765,5,0,0:0:0:0:
264,104,165965,1,0,0:0:0:0:
328,120,166065,2,0,P|392:192|336:272,1,150.000005722046
352,296,166365,1,0,0:0:0:0:
128,296,166565,2,0,P|64:336|8:272,2,150.000005722046,0|0|0,0:0|0:0|0:0,0:0:0:0:
128,168,167165,2,0,P|64:128|8:192,1,150.000005722046,0|0,0:0|0:0,0:0:0:0:
480,32,167765,5,0,0:0:0:0:
32,96,168165,1,0,0:0:0:0:
480,152,168565,1,0,0:0:0:0:
32,224,168965,1,0,0:0:0:0:
480,288,169365,1,0,0:0:0:0:
32,352,169765,1,0,0:0:0:0:
272,40,170165,2,0,B|248:56|272:64|272:64|248:80|272:88|272:88|248:104|272:112|272:112|248:128|272:136|272:136|248:152|272:160|272:160|248:176|272:184|272:184|248:200|272:208|272:208|248:224|272:232|272:232|272:252|272:320,1,300.000011444092
48,128,170965,5,0,0:0:0:0:
192,296,171165,1,0,0:0:0:0:
264,88,171365,1,0,0:0:0:0:
48,128,171565,1,0,0:0:0:0:
192,296,171765,1,0,0:0:0:0:
376,88,172165,6,0,B|464:144|416:232|416:232,1,150.000005722046
400,280,172465,2,0,P|320:328|256:312,1,150.000005722046
224,272,172765,2,0,P|192:200|232:120,2,150.000005722046,0|0|0,0:0|0:0|0:0,0:0:0:0:
256,192,173265,12,0,173765,0:0:0:0:
360,48,173965,6,0,B|352:80|352:80|304:112,1,75.0000028610231
168,96,174265,2,0,B|136:96|136:96|80:160,1,75.0000028610231
72,328,174565,2,0,B|95:373|160:304|211:346,2,150.000005722046,0|0|0,0:0|0:0|0:0,0:0:0:0:
328,280,175365,5,0,0:0:0:0:
352,128,175565,1,0,0:0:0:0:
312,72,175665,1,0,0:0:0:0:
248,48,175765,1,0,0:0:0:0:
184,48,175865,1,0,0:0:0:0:
128,80,175965,1,0,0:0:0:0:
96,232,176165,2,0,B|32:272|96:328|8:368,1,150.000005722046,0|0,0:0|0:0,0:0:0:0:
256,192,176465,12,0,176965,0:0:0:0:
88,144,177165,5,0,0:0:0:0:
144,112,177265,2,0,P|224:80|288:112,1,150.000005722046
336,136,177565,1,0,0:0:0:0:
384,272,177765,2,0,B|456:344|456:344|504:344,2,150.000005722046,0|0|0,0:0|0:0|0:0,0:0:0:0:
184,304,178565,5,0,0:0:0:0:
80,128,178765,1,0,0:0:0:0:
112,72,178865,1,0,0:0:0:0:
168,40,178965,1,0,0:0:0:0:
232,24,179065,1,0,0:0:0:0:
296,24,179165,1,0,0:0:0:0:
480,152,179365,2,0,B|464:248|464:248|384:304,1,150.000005722046
256,192,179665,12,0,180165,0:0:0:0:
176,184,180565,6,0,B|176:88|176:88|240:56,1,150.000005722046
176,184,180965,2,0,B|243:116|243:116|311:138,1,150.000005722046
176,184,181365,2,0,B|272:184|272:184|303:247,1,150.000005722046
176,184,181765,2,0,B|243:251|243:251|221:319,1,150.000005722046
176,184,182165,2,0,B|175:280|175:280|112:311,1,150.000005722046
176,184,182565,2,0,B|108:251|108:251|40:229,1,150.000005722046
176,183,182965,2,0,B|79:183|79:183|48:120,1,150.000005722046
176,183,183365,2,0,B|108:116|108:116|130:48,1,150.000005722046
368,72,184165,5,0,0:0:0:0:
352,256,184565,2,0,P|368:312|432:312,2,100,0|0|0,0:0|0:0|0:0,0:0:0:0:
352,256,185265,1,0,0:0:0:0:
352,256,185565,1,0,0:0:0:0:
216,168,185765,1,0,0:0:0:0:
216,168,186065,1,0,0:0:0:0:
216,168,186365,1,0,0:0:0:0:
360,88,186565,2,0,L|360:208,1,100
144,312,187365,5,0,0:0:0:0:
136,112,187765,2,0,P|176:56|232:64,1,100
352,104,188165,2,0,B|440:104|440:104|488:56|488:56,2,150,0|0|0,0:0|0:0|0:0,0:0:0:0:
216,192,188965,2,0,B|128:192|128:192|80:240|84:235,2,150,0|0|0,0:0|0:0|0:0,0:0:0:0:
344,288,189765,1,0,0:0:0:0:
344,288,189965,1,0,0:0:0:0:
160,80,190565,6,0,B|80:80|80:80|152:128|136:224,1,200
176,304,191365,1,0,0:0:0:0:
416,312,191665,1,0,0:0:0:0:
176,304,191965,1,0,0:0:0:0:
304,208,192165,1,0,0:0:0:0:
64,208,192465,1,0,0:0:0:0:
304,208,192765,1,0,0:0:0:0:
224,72,192965,2,0,B|200:112|200:112|224:160,1,100
416,72,193765,6,0,B|384:80|416:88|416:88|384:96|416:104|416:104|384:112|416:120|416:120|384:128|416:136|416:136|384:144|416:152|416:152|384:160|416:168|416:168|416:184,2,200,0|0|0,0:0|0:0|0:0,0:0:0:0:
272,120,194865,1,0,0:0:0:0:
160,224,195165,1,0,0:0:0:0:
152,72,195365,1,0,0:0:0:0:
272,168,195665,1,0,0:0:0:0:
368,288,195965,1,0,0:0:0:0:
448,200,196165,2,0,B|379:200|427:136|379:56|379:56|307:128|251:96|251:96|195:128|123:56|123:56|75:136|123:200|53:199,1,640
112,96,198565,5,0,0:0:0:0:
152,40,198765,1,0,0:0:0:0:
216,16,198965,1,0,0:0:0:0:
280,32,199165,1,0,0:0:0:0:
336,64,199365,2,0,B|336:144|480:144|480:144|480:224|480:224|336:224|336:304|336:304|272:304|272:304|272:224|256:208|184:208,1,640
272,56,201765,5,0,0:0:0:0:
208,32,201965,1,0,0:0:0:0:
144,32,202165,1,0,0:0:0:0:
88,64,202365,1,0,0:0:0:0:
64,128,202565,2,0,B|133:128|85:192|133:272|133:272|205:200|261:232|261:232|317:200|389:272|389:272|437:192|389:128|459:129,1,640
160,192,204965,5,0,0:0:0:0:
208,240,205165,1,0,0:0:0:0:
272,264,205365,1,0,0:0:0:0:
336,240,205565,1,0,0:0:0:0:
384,192,205765,1,0,0:0:0:0:
256,192,205965,12,0,208565,0:0:0:0:
256,224,208965,6,0,B|168:280|168:280|120:224|120:224|24:264|-16:192|24:120|120:160|120:160|168:104|168:104|256:160,1,600
253,158,211765,5,0,0:0:0:0:
253,158,212165,6,0,B|338:103|338:103|386:159|386:159|482:119|522:191|482:263|386:223|386:223|338:279|338:279|250:223,1,600
80,88,215365,6,0,B|80:192|176:192|176:192|176:312|288:312|288:312|288:192|288:192|288:104|208:104,1,600
304,64,218165,5,0,0:0:0:0:
400,88,218565,6,0,B|400:160|400:160|336:160|336:160|336:112|336:112|184:112|184:312|184:312|328:312,1,600
112,176,221765,6,0,B|112:152|112:152|112:184|120:144|120:144|120:176|128:136|128:136|128:168|136:144|136:144|136:176|144:152|144:152|144:184|152:160|152:160|152:192|160:168|160:168|160:200|168:176|168:176|168:208|176:184|176:184|176:216|184:176|184:176|184:208|192:168|192:168|192:200|200:160|200:160|200:192|208:152|208:152|208:184|216:144|216:144|216:176|224:136|224:136|224:168|232:144|232:144|232:176|240:152|240:152|240:184,1,600
344,184,224565,5,0,0:0:0:0:
304,88,224965,6,0,P|176:80|328:120,1,600
256,192,227765,12,0,228165,0:0:0:0:
256,192,229365,12,0,229765,0:0:0:0:
256,192,230565,5,0,0:0:0:0:
256,192,230965,12,0,231365,0:0:0:0:
256,192,232565,12,0,232965,0:0:0:0:
376,184,234565,6,0,B|376:80|376:80|488:80|488:176,2,239.999992675781,0|0|0,0:0|0:0|0:0,0:0:0:0:
96,88,235765,1,0,0:0:0:0:
376,248,236165,2,0,B|376:347|376:347|488:347|488:288,2,239.999992675781,0|0|0,0:0|0:0|0:0,0:0:0:0:
96,296,237365,1,0,0:0:0:0:
48,48,237765,1,0,0:0:0:0:
208,296,238165,1,0,0:0:0:0:
304,24,238565,1,0,0:0:0:0:
80,192,239365,6,0,B|216:296|216:296|296:296,1,239.999992675781
408,88,240165,1,0,0:0:0:0:
264,48,240365,1,0,0:0:0:0:
120,88,240565,1,0,0:0:0:0:
56,224,240765,1,0,0:0:0:0:
120,360,240965,2,0,B|192:320|264:352|264:352|344:304,1,239.999992675781
344,304,241765,1,0,0:0:0:0:
144,96,242565,6,0,B|224:48|280:96|384:32,2,239.999992675781,0|0|0,0:0|0:0|0:0,0:0:0:0:
416,232,243765,1,0,0:0:0:0:
416,232,244165,2,0,B|322:290|266:242|186:290,2,239.999992675781,0|0|0,0:0|0:0|0:0,0:0:0:0:
144,96,245365,1,0,0:0:0:0:
384,56,245765,2,0,B|480:200|480:200|456:264,1,239.999992675781
160,320,246565,2,0,B|64:176|64:176|87:113,1,239.999992675781
256,192,247365,12,0,248365,0:0:0:0:
184,144,248565,5,0,0:0:0:0:
296,240,248765,1,0,0:0:0:0:
256,192,248965,12,0,249765,0:0:0:0:
256,192,250165,5,0,0:0:0:0:
256,192,250565,12,0,251565,0:0:0:0:
184,240,251765,5,0,0:0:0:0:
296,144,251965,1,0,0:0:0:0:
256,192,252165,12,0,252965,0:0:0:0:
64,232,253765,6,0,B|96:304|160:280|160:280|248:240|280:360,1,239.999992675781
384,104,254565,1,0,0:0:0:0:
408,248,255365,6,0,P|304:248|192:160,1,239.999992675781
200,168,256165,1,0,0:0:0:0:
136,288,256965,6,0,B|200:288|200:288|240:288|256:256|240:232|200:232|200:232|128:232,2,239.999992675781,0|0|0,0:0|0:0|0:0,0:0:0:0:
352,120,258565,6,0,B|352:80|352:80|376:104|376:64|376:64|400:88|400:48|400:48|424:72|424:32|424:32|448:56|448:16|448:16|472:40,2,239.999992675781,0|0|0,0:0|0:0|0:0,0:0:0:0:
128,80,260165,5,0,0:0:0:0:
128,144,260365,1,0,0:0:0:0:
408,304,260765,1,0,0:0:0:0:
408,240,260965,1,0,0:0:0:0:
240,72,261365,2,0,B|168:168|168:168|264:296,1,239.999992675781
240,168,262565,2,0,B|288:128|352:168|352:168|408:128|464:168,1,239.999992675781
112,272,263365,5,0,0:0:0:0:
112,272,263565,1,0,0:0:0:0:
408,72,263965,1,0,0:0:0:0:
408,72,264165,1,0,0:0:0:0:
256,240,264565,2,0,B|256:152|256:152|192:152|192:88|192:88|248:88,1,239.999992675781
376,64,265765,2,0,B|376:136|312:136|312:136|312:216|312:216|392:216,1,239.999992675781
120,88,266565,5,0,0:0:0:0:
72,168,266765,1,0,0:0:0:0:
392,296,267165,1,0,0:0:0:0:
440,216,267365,1,0,0:0:0:0:
120,280,267765,1,0,0:0:0:0:
120,280,268165,2,0,B|120:168|120:168|200:168|200:88|264:88|264:168|352:168|352:168|352:320,1,479.999985351563
120,280,269365,1,0,0:0:0:0:
352,280,269765,5,0,0:0:0:0:
352,280,269965,1,0,0:0:0:0:
112,56,270365,1,0,0:0:0:0:
112,56,270565,1,0,0:0:0:0:
256,192,270765,12,0,271365,0:0:0:0:
416,136,271965,5,0,0:0:0:0:
328,64,272165,1,0,0:0:0:0:
216,88,272365,1,0,0:0:0:0:
288,176,272565,1,0,0:0:0:0:
176,208,272765,1,0,0:0:0:0:
96,128,272965,5,0,0:0:0:0:
64,240,273165,1,0,0:0:0:0:
176,208,273365,1,0,0:0:0:0:
176,320,273565,1,0,0:0:0:0:
288,280,273765,1,0,0:0:0:0:
392,88,274165,2,0,B|224:56|224:56|160:88,1,239.999992675781
56,320,275365,1,0,0:0:0:0:
432,320,275765,1,0,0:0:0:0:
136,120,276165,6,0,B|112:56|112:56|160:24,1,119.999996337891
392,32,276765,2,0,B|434:60|434:60|410:124,1,119.999996337891
176,208,277365,2,0,B|176:280|200:280|200:304|200:304|240:304|240:304|240:280|264:280|264:208,1,239.999992675781
360,104,278565,2,0,B|360:64|424:64|424:64|424:120|424:120|424:200|360:200,1,239.999992675781
96,280,279365,5,0,0:0:0:0:
48,184,279565,1,0,0:0:0:0:
376,56,279965,1,0,0:0:0:0:
424,152,280165,1,0,0:0:0:0:
216,112,280565,1,0,0:0:0:0:
216,112,280965,2,0,B|184:64|136:80|136:144|160:184|208:176|232:208|232:248|232:248|232:208|256:176|304:184|328:144|328:80|280:56|232:128,1,479.999985351563
246,109,282165,1,0,0:0:0:0:
256,192,282565,12,0,284165,0:0:0:0:
