osu file format v12

[General]
AudioFilename: Razor Sharp.mp3
AudioLeadIn: 0
PreviewTime: 96345
Countdown: 0
SampleSet: Soft
StackLeniency: 0.7
Mode: 0
LetterboxInBreaks: 1
WidescreenStoryboard: 0

[Editor]
Bookmarks: 17799,35254,43981,61435,78890,96345,113799,131254,146526,157435,174890,192345,209799,227254,244708,262163,277435
DistanceSpacing: 1.7
BeatDivisor: 4
GridSize: 4
TimelineZoom: 1

[Metadata]
Title:Razor Sharp
TitleUnicode:Razor Sharp
Artist:Pegboard Nerds & Tristam
ArtistUnicode:Pegboard Nerds & Tristam
Creator:toloveruu
Version:Insane
Source:
Tags:glitch hop monstercat 13 awakening
BeatmapID:403918
BeatmapSetID:166142

[Difficulty]
HPDrainRate:7
CircleSize:4
OverallDifficulty:8
ApproachRate:9
SliderMultiplier:2.1
SliderTickRate:1

[Events]
//Background and Video events
0,0,"bg.jpg",0,0
//Break Periods
2,100726,128472
2,146726,156835
2,209863,276563
//Storyboard Layer 0 (Background)
//Storyboard Layer 1 (Fail)
//Storyboard Layer 2 (Pass)
//Storyboard Layer 3 (Foreground)
//Storyboard Sound Samples
//Background Colour Transformations
3,100,0,0,0

[TimingPoints]
345,545.454545454546,4,2,0,40,1,0
345,-200,4,2,0,40,0,0
4163,-66.6666666666667,4,2,0,40,0,0
4708,-200,4,2,0,40,0,0
8254,-100,4,2,0,40,0,0
8526,-66.6666666666667,4,2,0,40,0,0
9072,-200,4,2,0,40,0,0
12890,-66.6666666666667,4,2,0,40,0,0
13435,-200,4,2,0,40,0,0
14526,-133.333333333333,4,2,0,40,0,0
15617,-100,4,2,0,40,0,0
17799,-133.333333333333,4,2,0,50,0,0
21617,-57.1428571428571,4,2,0,50,0,0
22163,-133.333333333333,4,2,0,50,0,0
25708,-100,4,2,0,50,0,0
25981,-80,4,2,0,50,0,0
26254,-66.6666666666667,4,2,0,50,0,0
26526,-133.333333333333,4,2,0,50,0,0
28435,-66.6666666666667,4,2,0,50,0,0
28708,-133.333333333333,4,2,0,50,0,0
30345,-57.1428571428571,4,2,0,50,0,0
30890,-133.333333333333,4,2,0,50,0,0
31708,-80,4,2,0,50,0,0
31981,-133.333333333333,4,2,0,50,0,0
32799,-80,4,2,0,50,0,0
33072,-66.6666666666667,4,2,0,50,0,0
43981,-100,4,2,0,50,0,0
61435,-100,4,2,0,50,0,0
78890,-200,4,2,0,50,0,0
82163,-100,4,2,0,50,0,0
84345,-200,4,2,0,50,0,0
85845,-133.333333333333,4,2,0,50,0,0
86390,-100,4,2,0,50,0,0
87617,-80,4,2,0,50,0,0
87890,-133.333333333333,4,2,0,50,0,0
88163,-80,4,2,0,50,0,0
88435,-133.333333333333,4,2,0,50,0,0
88708,-80,4,2,0,50,0,0
88981,-133.333333333333,4,2,0,50,0,0
89254,-80,4,2,0,50,0,0
89526,-133.333333333333,4,2,0,50,0,0
89799,-100,4,2,0,50,0,0
90345,-80,4,2,0,50,0,0
90890,-66.6666666666667,4,2,0,50,0,0
91435,-57.1428571428571,4,2,0,50,0,0
91981,-100,4,2,0,50,0,0
94163,-50,4,2,0,50,0,0
95254,-200,4,2,0,50,0,0
96345,-133.333333333333,4,2,0,50,0,0
96890,-66.6666666666667,4,2,0,50,0,0
98526,-133.333333333333,4,2,0,50,0,0
99072,-66.6666666666667,4,2,0,50,0,0
129617,-80,4,2,0,50,0,0
130163,-100,4,2,0,50,0,0
130708,-133.333333333333,4,2,0,50,0,0
131254,-200,4,2,0,50,0,0
135345,-100,4,2,0,50,0,0
135617,-200,4,2,0,50,0,0
136163,-133.333333333333,4,2,0,50,0,0
137799,-200,4,2,0,50,0,0
138481,-133.333333333333,4,2,0,50,0,0
138890,-80,4,2,0,50,0,0
139163,-133.333333333333,4,2,0,50,0,0
139435,-80,4,2,0,50,0,0
139981,-200,4,2,0,50,0,0
140663,-100,4,2,0,50,0,0
141072,-133.333333333333,4,2,0,50,0,0
141481,-66.6666666666667,4,2,0,50,0,0
142163,-200,4,2,0,50,0,0
142708,-66.6666666666667,4,2,0,50,0,0
143799,-200,4,2,0,50,0,0
144345,-133.333333333333,4,2,0,50,0,0
144890,-100,4,2,0,50,0,0
145435,-66.6666666666667,4,2,0,50,0,0
146254,-50,4,2,0,50,0,0
157435,-133.333333333333,4,2,0,25,0,0
166163,-133.333333333333,4,2,0,30,0,0
174345,-66.6666666666667,4,2,0,40,0,0
174617,-100,4,2,0,40,0,0
174890,-133.333333333333,4,2,0,40,0,0
190163,-80,4,2,0,40,0,0
190572,-133.333333333333,4,2,0,40,0,0
191117,-100,4,2,0,40,0,0
192345,-200,4,2,0,50,0,0
195617,-100,4,2,0,50,0,0
197799,-200,4,2,0,50,0,0
199299,-133.333333333333,4,2,0,50,0,0
199708,-100,4,2,0,50,0,0
199981,-66.6666666666667,4,2,0,50,0,0
200390,-100,4,2,0,50,0,0
200799,-200,4,2,0,50,0,0
201345,-133.333333333333,4,2,0,50,0,0
201617,-100,4,2,0,50,0,0
202163,-80,4,2,0,50,0,0
202708,-66.6666666666667,4,2,0,50,0,0
203254,-57.1428571428571,4,2,0,50,0,0
203526,-100,4,2,0,50,0,0
203799,-57.1428571428571,4,2,0,50,0,0
204072,-100,4,2,0,50,0,0
204345,-57.1428571428571,4,2,0,50,0,0
204617,-100,4,2,0,50,0,0
204890,-57.1428571428571,4,2,0,50,0,0
205163,-100,4,2,0,50,0,0
208708,-200,4,2,0,50,0,0
209799,-133.333333333333,4,2,0,50,0,0
277163,-50,4,2,0,50,0,0

[Colours]
Combo1 : 255,255,155
Combo2 : 128,255,0
Combo3 : 179,102,255
Combo4 : 255,98,98

[HitObjects]
168,56,345,6,0,L|184:128,1,52.5
236,160,754,2,0,L|252:232,1,52.5
304,264,1163,2,0,L|320:336,2,52.5
280,184,1845,2,0,P|292:144|312:120,1,52.5
352,80,2254,1,0,0:0:0:0:
360,88,2526,6,0,L|384:160,1,52.5
264,208,2935,2,0,L|247:158,1,52.5
240,136,3345,1,0,0:0:0:0:
112,104,3481,1,0,0:0:0:0:
112,104,3549,1,0,0:0:0:0:
112,104,3617,2,0,L|103:139,1,26.25
44,192,3890,1,0,0:0:0:0:
120,244,4026,1,0,0:0:0:0:
64,324,4163,6,0,P|140:340|204:292,1,157.500006008148
299,233,4708,6,0,L|316:282,1,52.5
377,193,5117,2,0,L|394:242,1,52.5,0|0,0:0|0:0,0:0:0:0:
457,153,5526,2,0,L|474:202,2,52.5
401,86,6208,2,0,L|383:36,1,52.5,0|0,0:0|0:0,0:0:0:0:
323,126,6617,2,0,L|305:76,1,52.5
169,41,7163,5,0,0:0:0:0:
197,49,7299,1,0,0:0:0:0:
323,126,7572,1,0,0:0:0:0:
295,118,7708,1,0,0:0:0:0:
192,172,7845,1,0,0:0:0:0:
192,172,7913,1,0,0:0:0:0:
193,173,7981,2,0,P|197:188|197:201,1,26.25
176,328,8254,6,0,P|168:300|168:276,1,52.5
290,180,8526,6,0,P|238:236|163:278,1,157.500006008148
60,292,9072,6,0,P|17:289|-7:280,1,52.5
120,212,9481,2,0,P|144:203|167:190,1,52.5,0|0,0:0|0:0,0:0:0:0:
228,124,9890,2,0,P|251:111|276:103,1,52.5
452,52,10435,1,0,0:0:0:0:
376,80,10572,2,0,L|432:76,1,52.5
400,168,10981,2,0,L|456:164,1,52.5
424,256,11526,5,0,0:0:0:0:
476,252,11663,1,0,0:0:0:0:
280,240,11935,1,0,0:0:0:0:
228,244,12072,1,0,0:0:0:0:
116,188,12208,5,0,0:0:0:0:
116,188,12276,1,0,0:0:0:0:
116,188,12345,1,0,0:0:0:0:
124,304,12481,1,0,0:0:0:0:
228,244,12617,1,0,0:0:0:0:
280,136,12753,1,0,0:0:0:0:
398,217,12890,6,0,P|379:182|352:154,1,78.7500030040742
228,244,13163,2,0,P|246:278|273:306,1,78.7500030040742
399,217,13435,6,0,P|423:217|451:226,1,52.5,0|0,0:0|0:0,0:0:0:0:
424,344,13845,2,0,P|400:344|372:335,1,52.5,0|0,0:0|0:0,0:0:0:0:
292,272,14254,1,0,0:0:0:0:
80,196,14526,6,0,P|120:200|157:209,1,78.7500030040742
292,272,14935,2,0,P|330:281|369:285,1,78.7500030040742
488,272,15345,1,0,0:0:0:0:
472,240,15617,6,0,P|436:196|392:160,1,105
283,130,16027,2,0,L|180:112,1,105,0|0,0:0|0:0,0:0:0:0:
340,296,16435,2,0,P|300:272|248:232,1,105,0|0,0:0|0:0,0:0:0:0:
144,108,16845,1,0,0:0:0:0:
360,184,16981,2,0,P|376:144|428:74,2,105
340,336,17663,1,0,0:0:0:0:
196,196,17799,6,0,L|212:288,1,78.7500030040742
364,112,18208,2,0,L|288:152,1,78.7500030040742,0|0,0:0|0:0,0:0:0:0:
76,236,18617,2,0,P|68:184|76:144,1,78.7500030040742
180,84,19163,5,0,0:0:0:0:
148,108,19299,1,0,0:0:0:0:
364,108,19572,1,0,0:0:0:0:
332,84,19708,1,0,0:0:0:0:
148,108,19981,6,0,P|132:148|124:200,1,78.7500030040742
386,183,20390,2,0,P|378:144|364:108,1,78.7500030040742
140,140,20799,2,0,P|147:178|162:214,1,78.7500030040742
308,296,21208,5,0,0:0:0:0:
188,348,21345,1,0,0:0:0:0:
292,144,21481,1,0,0:0:0:0:
140,140,21617,6,0,P|104:176|64:204,1,91.8750008761883
300,132,21890,2,0,P|336:96|376:68,1,91.8750008761883,0|0,0:0|0:0,0:0:0:0:
492,28,22163,6,0,L|520:132,1,78.7500030040742
308,116,22572,2,0,L|287:39,1,78.7500030040742,0|0,0:0|0:0,0:0:0:0:
484,200,22981,2,0,L|466:235,1,39.3750015020371,0|0,0:0|0:0,0:0:0:0:
416,48,23254,6,0,L|444:152,1,78.7500030040742
232,136,23663,2,0,L|211:59,1,78.7500030040742,0|0,0:0|0:0,0:0:0:0:
408,220,24072,2,0,L|390:255,1,39.3750015020371,0|0,0:0|0:0,0:0:0:0:
344,72,24345,6,0,L|372:176,1,78.7500030040742
160,160,24754,2,0,L|139:83,1,78.7500030040742,0|0,0:0|0:0,0:0:0:0:
336,244,25163,2,0,L|318:279,1,39.3750015020371,0|0,0:0|0:0,0:0:0:0:
148,131,25435,6,0,L|200:95,1,39.3750015020371
436,168,25708,6,0,L|392:200,1,52.5
216,220,25981,6,0,P|190:238|166:261,1,65.625
276,48,26254,6,0,P|309:28|339:1,1,78.7500030040742
440,220,26526,6,0,L|408:136,1,78.7500030040742
400,120,26935,2,0,P|388:160|367:191,1,78.7500030040742,0|0,0:0|0:0,0:0:0:0:
228,180,27345,2,0,L|228:220,1,39.3750015020371
96,260,27617,6,0,L|132:344,1,78.7500030040742
76,148,28026,2,0,L|112:232,1,78.7500030040742,0|0,0:0|0:0,0:0:0:0:
56,36,28435,6,0,L|92:120,1,78.7500030040742,0|0,0:0|0:0,0:0:0:0:
152,228,28708,6,0,P|148:272|132:320,1,78.7500030040742
312,224,29117,2,0,P|275:210|243:187,1,78.7500030040742
192,23,29526,2,0,P|173:58|161:96,1,78.7500030040742
184,256,29935,5,0,0:0:0:0:
136,104,30072,1,0,0:0:0:0:
372,248,30208,1,0,0:0:0:0:
376,100,30345,6,0,P|352:148|324:180,1,91.8750008761883
80,264,30617,2,0,P|99:223|129:188,1,91.8750008761883
300,140,30890,6,0,L|200:164,1,78.7500030040742
296,267,31299,2,0,L|372:248,1,78.7500030040742
176,296,31708,2,0,P|150:316|132:344,1,65.625
312,92,31981,6,0,L|202:118,1,78.7500030040742
307,230,32390,2,0,L|390:209,1,78.7500030040742
176,262,32799,2,0,P|148:284|128:314,1,65.625
307,230,33072,6,0,P|336:203|359:171,1,78.7500030040742
156,80,33345,2,0,P|192:104|232:148,1,78.7500030040742
320,244,33617,6,0,P|355:226|386:202,1,78.7500030040742
144,68,33890,2,0,P|173:110|191:159,1,78.7500030040742
224,296,34163,5,0,0:0:0:0:
80,240,34299,1,0,0:0:0:0:
84,32,34435,2,0,P|72:64|64:116,1,78.7500030040742
84,352,34708,2,0,P|72:320|64:268,1,78.7500030040742
64,108,34981,2,0,P|83:73|108:43,1,78.7500030040742
256,32,35254,1,0,0:0:0:0:
256,192,35390,12,0,43845,0:0:0:0:
68,40,43981,6,0,P|136:88|200:152,1,157.5
216,68,44526,2,0,P|195:120|184:206,1,105
200,268,44935,2,0,L|220:372,1,105
340,216,45345,2,0,L|360:320,2,105
348,208,45958,1,0,0:0:0:0:
356,200,46026,1,0,0:0:0:0:
364,192,46095,1,0,0:0:0:0:
372,184,46163,6,0,L|384:112,1,52.5
320,48,46435,1,0,0:0:0:0:
236,248,46572,2,0,P|249:191|272:132,1,105
320,48,46981,1,0,0:0:0:0:
184,72,47117,2,0,P|128:96|84:136,1,105
176,276,47526,2,0,P|232:252|276:212,1,105
280,200,48345,6,0,L|312:360,1,157.5
400,252,48890,2,0,L|396:144,1,105
392,68,49299,2,0,P|340:75|289:63,1,105
224,24,49708,1,0,0:0:0:0:
92,132,49981,1,0,0:0:0:0:
360,176,50254,1,0,0:0:0:0:
316,168,50322,1,0,0:0:0:0:
272,168,50390,1,0,0:0:0:0:
228,176,50458,1,0,0:0:0:0:
188,192,50526,6,0,L|176:264,2,52.5
208,48,50935,2,0,P|256:52|320:40,1,105
408,4,51345,1,0,0:0:0:0:
360,176,51481,2,8,P|329:218|290:253,1,105,8|8,0:0|0:0,3:0:0:0:
92,284,51890,2,0,L|200:272,1,105
284,292,52299,1,0,0:0:0:0:
372,304,52435,1,0,0:0:0:0:
460,316,52572,1,0,0:0:0:0:
424,184,52708,6,0,P|364:188|308:204,1,105
196,268,53117,2,0,P|145:280|92:283,2,105
204,276,53935,1,0,0:0:0:0:
276,164,54072,2,0,L|288:228,1,52.5
372,64,54345,2,0,L|368:128,1,52.5
356,252,54617,1,0,0:0:0:0:
212,284,54754,1,0,0:0:0:0:
148,16,54890,5,0,0:0:0:0:
72,88,55026,1,0,0:0:0:0:
172,116,55163,1,0,0:0:0:0:
96,188,55299,2,0,P|112:268|128:296,1,105
256,236,55708,1,0,0:0:0:0:
389,287,55845,2,0,P|410:239|416:188,1,105
392,64,56254,1,0,0:0:0:0:
416,188,56390,2,0,L|292:208,1,105
196,192,56799,1,0,0:0:0:0:
156,288,56935,1,0,0:0:0:0:
88,200,57072,6,0,L|80:88,1,105
203,296,57481,2,0,L|196:192,2,105
212,304,58299,1,0,0:0:0:0:
336,272,58435,2,0,P|364:272|404:280,1,52.5
284,176,58708,2,0,P|303:156|337:133,1,52.5
172,152,58981,2,0,P|172:124|180:84,1,52.5
220,4,59254,5,0,0:0:0:0:
296,52,59390,1,0,0:0:0:0:
384,72,59526,1,0,0:0:0:0:
472,68,59663,2,0,L|496:200,1,105
404,192,60072,1,0,0:0:0:0:
504,276,60208,2,8,P|468:308|417:335,1,105
320,292,60617,1,0,0:0:0:0:
120,288,60754,2,0,P|180:272|240:264,1,105
332,260,61163,1,0,0:0:0:0:
280,144,61299,1,0,0:0:0:0:
124,80,61435,6,0,L|160:192,1,105
167,208,61845,1,0,0:0:0:0:
332,48,62117,1,0,0:0:0:0:
389,267,62390,2,0,P|336:260|264:240,1,105
167,208,62799,2,0,L|200:328,2,105
124,80,63481,5,0,0:0:0:0:
124,80,63549,1,0,0:0:0:0:
124,80,63617,2,0,L|108:24,2,52.5
167,208,64026,2,0,P|234:255|268:266,1,105
376,280,64435,1,0,0:0:0:0:
342,84,64572,2,0,L|360:188,1,105
168,208,64981,2,0,L|185:311,1,105
300,56,65526,6,0,L|256:112,1,52.5
208,168,65799,2,0,P|272:192|320:172,1,105
436,32,66208,2,0,P|408:84|376:128,2,105
76,216,67026,1,0,0:0:0:0:
76,216,67163,2,0,L|156:240,1,52.5
208,132,67435,2,0,L|157:116,1,52.5
88,252,67708,2,0,L|168:276,1,52.5
164,292,67913,1,0,0:0:0:0:
188,316,67981,6,0,L|268:340,1,52.5
412,288,68254,1,0,0:0:0:0:
392,260,68390,2,0,L|341:244,1,52.5
164,72,68663,1,0,0:0:0:0:
184,100,68799,1,0,0:0:0:0:
208,132,68935,2,0,P|224:80|272:36,1,105
292,28,69345,2,0,L|400:8,1,105
488,52,69754,1,0,0:0:0:0:
396,128,69890,1,0,0:0:0:0:
392,244,70026,1,0,0:0:0:0:
272,264,70163,6,0,P|214:266|151:261,1,105
112,112,70572,2,0,L|132:172,1,52.5
183,313,70845,2,0,L|166:263,1,52.5
128,161,71117,2,0,P|144:104|180:56,1,105
368,40,71526,2,0,L|260:52,2,105
384,52,72208,1,0,0:0:0:0:
464,128,72345,5,0,0:0:0:0:
480,140,72481,2,0,L|500:212,1,52.5
340,208,72754,5,0,0:0:0:0:
356,220,72890,2,0,L|376:292,1,52.5
208,132,73163,5,0,0:0:0:0:
192,120,73299,2,0,L|172:48,1,52.5
224,256,73572,2,0,L|238:306,2,52.5
124,180,73981,2,0,P|84:196|64:216,1,52.5
296,200,74254,2,0,P|321:192|343:178,1,52.5
400,0,74526,6,0,L|388:128,1,105
428,304,74935,2,0,L|437:199,2,105
296,236,75754,1,0,0:0:0:0:
28,312,75890,2,0,P|64:312|92:308,1,52.5
188,280,76163,2,0,P|196:304|196:336,1,52.5
60,200,76435,2,0,P|52:176|52:144,1,52.5
124,64,76708,5,0,0:0:0:0:
160,76,76845,1,0,0:0:0:0:
196,88,76981,1,0,0:0:0:0:
304,84,77117,6,0,L|412:120,1,105,0|0,0:0|0:0,0:0:0:0:
416,140,77526,1,0,0:0:0:0:
336,248,77663,2,0,L|444:284,1,105,0|0,0:0|0:0,0:0:0:0:
448,304,78072,1,0,0:0:0:0:
416,140,78208,2,0,P|380:104|328:68,1,105
220,44,78617,2,0,L|208:112,1,52.5
100,96,78890,6,0,L|120:160,1,52.5
212,176,79435,2,0,L|232:240,1,52.5,0|0,0:0|0:0,0:0:0:0:
260,312,79981,1,0,0:0:0:0:
320,224,80254,1,0,0:0:0:0:
164,276,80526,1,0,0:0:0:0:
180,112,80799,1,0,0:0:0:0:
296,196,81072,6,0,L|312:140,1,52.5
376,0,81617,6,0,L|358:19,1,26.25,0|0,0:0|0:0,0:0:0:0:
323,102,81890,2,0,L|326:128,1,26.25,0|0,0:0|0:0,3:0:0:0:
336,172,82163,6,0,P|360:240|364:292,1,105
148,272,82572,2,0,P|156:220|176:172,1,105
256,72,82981,2,0,P|300:40|352:24,2,105
216,208,83799,1,0,0:0:0:0:
208,48,84072,1,0,0:0:0:0:
168,192,84345,6,0,P|160:244|160:264,1,52.5
176,328,84890,1,0,0:0:0:0:
180,332,85026,1,0,0:0:0:0:
184,336,85163,1,0,0:0:0:0:
188,340,85299,1,0,0:0:0:0:
192,344,85435,2,0,L|224:348,1,26.25
380,264,85845,5,0,0:0:0:0:
368,276,85981,2,0,L|329:280,1,39.3750015020371,0|0,0:0|0:0,0:0:0:0:
140,188,86390,5,0,0:0:0:0:
152,200,86526,2,0,L|213:207,1,52.5,0|0,0:0|0:0,0:0:0:0:
360,116,86799,5,0,0:0:0:0:
348,128,86935,2,0,L|286:135,1,52.5,0|0,0:0|0:0,0:0:0:0:
108,60,87208,5,0,0:0:0:0:
120,72,87344,2,0,L|181:79,1,52.5,0|0,0:0|0:0,0:0:0:0:
280,120,87617,6,0,L|349:128,1,65.625,0|0,0:0|0:0,0:0:0:0:
412,152,87890,2,0,L|372:147,1,39.3750015020371,0|0,0:0|0:0,0:0:0:0:
188,184,88163,6,0,L|257:192,1,65.625,0|0,0:0|0:0,0:0:0:0:
320,216,88436,2,0,L|280:211,1,39.3750015020371,0|0,0:0|0:0,0:0:0:0:
100,248,88708,6,0,L|169:256,1,65.625,0|0,0:0|0:0,0:0:0:0:
232,280,88981,2,0,L|192:275,1,39.3750015020371,0|0,0:0|0:0,0:0:0:0:
16,320,89254,6,0,L|85:328,1,65.625,0|0,0:0|0:0,0:0:0:0:
148,352,89527,2,0,L|108:347,1,39.3750015020371,0|0,0:0|0:0,0:0:0:0:
16,320,89799,6,0,L|48:252,1,52.5
232,280,90072,2,0,L|254:232,1,52.5,0|0,0:0|0:0,0:0:0:0:
349,142,90345,6,0,L|377:84,1,65.625,0|0,0:0|0:0,0:0:0:0:
111,133,90618,2,0,L|83:192,1,65.625
85,291,90890,6,0,L|52:361,1,78.7500030040742
350,142,91163,2,0,L|316:212,1,78.7500030040742,0|0,0:0|0:0,0:0:0:0:
111,133,91435,6,0,L|150:48,1,91.8750008761883
204,332,91708,2,0,L|243:248,1,91.8750008761883,0|0,0:0|0:0,0:0:0:0:
384,80,91981,5,0,0:0:0:0:
284,112,92117,1,0,0:0:0:0:
399,98,92254,5,0,0:3:0:0:
268,93,92390,1,0,0:3:0:0:
409,127,92526,5,0,0:3:0:0:
258,64,92662,1,0,0:3:0:0:
409,164,92799,5,0,0:3:0:0:
258,27,92935,1,0,0:3:0:0:
104,100,93072,5,0,0:0:0:0:
244,128,93208,1,0,0:0:0:0:
200,288,93345,1,0,0:0:0:0:
130,36,93481,5,0,0:0:0:0:
267,119,93617,1,0,0:0:0:0:
159,271,93754,1,0,0:0:0:0:
191,2,93890,5,0,0:0:0:0:
291,128,94026,1,0,0:0:0:0:
267,277,94163,6,0,L|212:352,1,70
172,232,94345,2,0,L|134:146,1,70,0|0,0:0|0:0,0:0:0:0:
261,172,94526,2,0,L|353:182,1,70,0|0,0:0|0:0,0:0:0:0:
254,311,94708,6,0,L|142:386,1,70
147,203,94890,2,0,L|138:68,1,70,0|0,0:0|0:0,0:0:0:0:
298,165,95072,2,0,L|419:225,1,70,0|0,0:0|0:0,0:0:0:0:
104,348,95254,6,0,P|80:312|72:264,1,78.75
215,241,95799,6,0,P|178:229|148:204,1,78.75
84,56,96345,6,0,P|136:104|192:136,1,118.125004506111
272,112,96822,1,0,0:0:0:0:
272,112,96890,6,0,P|304:152|328:208,2,105.000004005432
112,312,97435,2,0,P|80:272|56:216,2,105.000004005432
256,84,97981,2,0,P|237:132|231:184,2,105.000004005432
428,292,98526,6,0,L|300:224,1,118.125004506111
231,184,99004,1,0,0:0:0:0:
231,184,99072,6,0,P|172:156|120:136,2,105.000004005432
372,152,99617,2,0,P|418:175|467:195,2,105.000004005432
192,204,100163,2,0,P|132:175|80:155,2,105.000004005432
140,64,129072,5,0,0:0:0:0:
152,76,129617,6,0,P|180:136|200:264,1,196.875
192,304,130163,6,0,P|224:224|296:160,1,157.5
304,168,130708,6,0,L|332:288,1,118.125004506111
364,292,131254,6,0,L|347:221,1,52.5
343,135,131799,2,0,L|332:84,1,52.5
140,52,132345,2,0,L|152:104,1,52.5
180,100,132754,2,0,L|192:152,1,52.5
220,156,133163,2,0,L|232:208,1,52.5
72,308,133981,5,0,0:0:0:0:
188,284,134117,1,0,0:0:0:0:
268,196,134254,1,0,0:0:0:0:
296,80,134390,1,0,0:0:0:0:
344,308,134526,2,0,L|332:244,1,52.5
188,284,134935,2,0,L|200:220,1,52.5
304,220,135345,6,0,L|292:156,1,52.5
264,24,135617,6,0,L|273:75,1,52.5,0|0,0:0|0:0,0:0:0:0:
236,264,136026,1,0,0:0:0:0:
312,100,136163,6,0,L|321:151,1,39.3750015020371,0|0,0:0|0:0,0:0:0:0:
332,228,136435,2,0,P|328:288|320:320,1,78.7500030040742
56,244,136981,1,0,0:0:0:0:
96,260,137117,1,0,0:0:0:0:
272,164,137390,1,0,0:0:0:0:
232,148,137526,1,0,0:0:0:0:
56,244,137799,6,0,P|88:284|152:320,1,105
408,340,138481,1,0,0:0:0:0:
292,288,138617,2,0,L|244:304,1,39.3750015020371
132,313,138890,6,0,L|153:250,1,65.625
116,152,139163,2,0,L|137:89,1,39.3750015020371,0|0,0:0|0:0,0:0:0:0:
244,52,139435,1,0,0:0:0:0:
372,80,139572,1,0,0:0:0:0:
452,184,139708,1,0,0:0:0:0:
456,200,139981,6,0,P|440:224|408:248,2,52.5
409,60,140663,6,0,P|390:78|376:100,2,52.5
352,252,141072,6,0,L|344:356,1,78.7500030040742
344,368,141481,6,0,P|276:352|256:336,1,78.7500030040742
236,144,141754,1,0,0:0:0:0:
68,240,141890,2,0,P|136:256|156:272,1,78.7500030040742
269,347,142163,6,0,P|292:324|320:260,1,78.75
368,172,142708,1,0,0:0:0:0:
236,144,142845,1,0,0:0:0:0:
313,283,142981,2,0,P|352:308|400:324,1,78.7500030040742
385,179,143254,1,0,0:0:0:0:
239,88,143391,1,0,0:0:0:0:
271,288,143527,2,0,P|306:334|356:374,1,78.7500030040742
236,144,143799,6,0,P|200:98|150:57,1,78.7500030040742
148,64,144345,6,0,L|120:188,1,118.125004506111
160,156,144890,6,0,L|123:317,1,157.5
156,280,145435,6,0,P|184:248|228:224,1,78.7500030040742
328,228,145708,1,0,0:0:0:0:
93,255,145845,6,0,P|142:228|207:218,1,78.7500030040742
328,268,146118,1,0,0:0:0:0:
244,108,146254,6,0,P|144:64|68:116,1,210
112,112,157435,6,0,L|144:144,1,39.3750015020371
212,168,157708,2,0,L|244:200,1,39.3750015020371
316,216,157981,2,0,P|348:236|386:286,1,78.7500030040742
124,240,158390,2,0,P|92:220|53:169,1,78.7500030040742
112,112,158799,2,0,L|164:88,1,39.3750015020371
283,67,159072,2,0,L|244:72,1,39.3750015020371,0|0,0:0|0:0,0:0:0:0:
392,76,159345,1,0,0:0:0:0:
387,95,159413,1,0,0:0:0:0:
382,114,159481,1,0,0:0:0:0:
378,133,159549,1,0,0:0:0:0:
373,152,159617,6,0,L|352:248,1,78.7500030040742
248,160,160026,2,0,L|230:236,2,78.7500030040742
284,68,160708,2,0,L|316:100,1,39.3750015020371
128,48,160981,2,0,L|160:80,1,39.3750015020371
248,160,161254,2,0,B|300:216|300:216|320:264,1,118.125004506111
324,224,161799,6,0,P|352:153|380:122,1,118.125004506111
208,256,162345,2,0,P|240:308|276:328,1,78.7500030040742
432,284,162754,2,0,L|340:304,1,78.7500030040742
124,304,163163,2,0,L|176:308,1,39.3750015020371
83,177,163435,2,0,L|117:217,1,39.3750015020371
147,20,163708,1,0,0:0:0:0:
145,40,163776,1,0,0:0:0:0:
144,60,163844,1,0,0:0:0:0:
142,79,163912,1,0,0:0:0:0:
140,99,163981,6,0,P|165:95|204:100,1,39.3750015020371
288,128,164254,1,0,0:0:0:0:
84,176,164390,6,0,P|120:192|167:200,1,78.7500030040742
292,132,164799,1,0,0:0:0:0:
144,232,164935,2,0,P|160:296|172:316,1,78.7500030040742
346,306,165345,2,0,P|361:270|368:232,1,78.7500030040742
312,176,165754,1,0,0:0:0:0:
376,132,165890,1,0,0:0:0:0:
308,96,166026,1,0,0:0:0:0:
376,52,166163,6,0,L|456:64,1,78.7500030040742
200,80,166572,2,0,L|122:68,2,78.7500030040742
216,96,167390,1,0,0:0:0:0:
220,100,167526,2,0,L|280:116,1,39.3750015020371
348,156,167799,2,0,L|332:216,1,39.3750015020371
292,284,168072,2,0,L|232:268,1,39.3750015020371
164,228,168345,6,0,L|180:168,1,39.3750015020371
220,100,168617,1,0,0:0:0:0:
48,212,168754,2,0,P|80:168|112:144,1,78.7500030040742
224,104,169163,1,0,0:0:0:0:
12,168,169299,2,0,P|57:137|95:125,1,78.7500030040742,0|0,0:0|0:0,3:0:0:0:
228,108,169708,2,0,L|284:116,1,39.3750015020371
432,64,170117,5,0,0:0:0:0:
376,120,170254,1,0,0:0:0:0:
304,152,170390,1,0,0:0:0:0:
224,144,170526,2,0,P|184:136|136:136,1,78.7500030040742
112,160,170935,1,0,0:0:0:0:
176,304,171208,1,0,0:0:0:0:
272,180,171481,1,0,0:0:0:0:
112,160,171754,6,0,L|104:216,1,39.3750015020371
184,104,172026,1,0,0:0:0:0:
204,224,172163,2,0,L|198:262,1,39.3750015020371,0|0,0:0|0:0,0:0:0:0:
340,288,172435,2,0,L|345:249,1,39.3750015020371,0|0,0:0|0:0,0:0:0:0:
356,172,172708,5,0,0:0:0:0:
412,116,172845,1,0,0:0:0:0:
336,96,172981,1,0,0:0:0:0:
388,36,173117,2,0,L|472:24,1,78.7500030040742
204,64,173526,5,0,0:0:0:0:
152,124,173662,2,0,L|68:136,1,78.7500030040742
192,304,174072,5,0,0:0:0:0:
244,244,174208,1,0,0:0:0:0:
316,208,174345,2,0,L|393:196,1,78.7500030040742
324,92,174617,6,0,L|401:80,1,52.5
152,124,174890,6,0,L|75:136,1,78.7500030040742
308,64,175299,2,0,L|231:76,2,78.7500030040742
76,216,176117,1,0,0:0:0:0:
144,344,176254,2,0,P|125:323|107:291,1,39.3750015020371
272,248,176526,2,0,P|291:247|311:249,1,39.3750015020371
448,276,176799,1,0,0:0:0:0:
392,140,176935,1,0,0:0:0:0:
384,132,177004,1,0,0:0:0:0:
376,124,177072,6,0,L|396:56,1,39.3750015020371
224,136,177345,1,0,0:0:0:0:
208,120,177482,6,0,L|232:38,1,78.7500030040742
376,124,177890,1,0,0:0:0:0:
392,140,178027,2,0,L|367:221,1,78.7500030040742
236,340,178435,2,8,P|273:327|303:302,1,78.7500030040742
412,160,178845,1,0,0:0:0:0:
432,180,178981,1,0,0:0:0:0:
452,200,179117,1,0,0:0:0:0:
472,220,179254,6,0,P|464:256|432:304,1,78.7500030040742
328,344,179663,2,0,L|300:256,1,78.7500030040742
39,219,180208,6,0,P|48:258|68:291,1,78.7500030040742
184,344,180617,2,0,L|212:256,1,78.7500030040742
256,208,181026,1,0,0:0:0:0:
324,168,181163,1,0,0:0:0:0:
404,164,181299,1,0,0:0:0:0:
440,172,181367,1,0,0:0:0:0:
476,180,181435,6,0,L|464:124,2,39.3750015020371
492,304,181845,2,0,P|455:323|408:324,1,78.7500030040742
360,272,182254,1,0,0:0:0:0:
280,268,182390,2,0,L|252:352,1,78.7500030040742
176,328,182799,1,0,0:0:0:0:
124,268,182935,1,0,0:0:0:0:
200,252,183072,5,0,0:0:0:0:
148,192,183208,1,0,0:0:0:0:
224,176,183345,1,0,0:0:0:0:
172,116,183481,1,0,0:0:0:0:
248,100,183617,6,0,L|332:92,1,78.7500030040742
420,84,184026,1,0,0:0:0:0:
348,224,184299,1,0,0:0:0:0:
248,100,184572,2,0,P|216:72|180:52,1,78.7500030040742
50,192,184981,2,0,P|88:182|128:180,1,78.7500030040742,8|0,0:0|0:0,0:0:0:0:
280,184,185390,1,0,0:0:0:0:
204,204,185526,1,0,0:0:0:0:
348,224,185663,1,0,0:0:0:0:
204,204,185799,6,0,L|164:240,1,39.3750015020371
348,144,186072,1,0,0:0:0:0:
168,200,186208,6,0,P|144:240|136:284,1,78.7500030040742
416,184,186617,1,0,0:0:0:0:
136,200,186754,6,0,P|72:192|40:176,1,78.7500030040742
416,104,187163,1,0,0:0:0:0:
176,48,187299,6,0,P|192:104|216:140,1,78.7500030040742
328,204,187708,2,0,P|312:180|292:164,1,39.3750015020371
184,72,187981,6,0,P|196:128|196:168,1,78.7500030040742
160,220,188390,1,0,0:0:0:0:
292,132,188663,1,0,0:0:0:0:
368,268,188935,1,0,0:0:0:0:
212,240,189208,1,0,0:0:0:0:
60,188,189345,2,0,L|68:244,1,39.3750015020371
72,108,189617,2,0,L|80:164,1,39.3750015020371
84,28,189890,2,0,L|92:84,1,39.3750015020371
120,200,190163,6,0,P|152:212|204:212,1,65.625
316,148,190435,1,0,0:0:0:0:
104,224,190572,6,0,P|136:224|188:236,1,78.7500030040742
344,332,190981,1,0,0:0:0:0:
136,272,191117,6,0,P|144:216|140:168,1,105
48,68,191526,1,0,0:0:0:0:
56,236,191663,1,0,0:0:0:0:
456,120,191935,1,0,0:0:0:0:
272,56,192071,1,0,0:0:0:0:
312,240,192208,1,0,0:0:0:0:
116,84,192345,6,0,L|128:148,1,52.5
282,108,192890,2,0,L|272:56,1,52.5,0|0,0:0|0:0,0:0:0:0:
200,100,193435,1,0,0:0:0:0:
356,172,193708,1,0,0:0:0:0:
216,272,193981,1,0,0:0:0:0:
440,136,194254,1,0,0:0:0:0:
244,264,194526,6,0,L|192:304,1,52.5
92,308,195072,2,0,L|100:344,1,26.25
84,196,195345,2,0,L|92:232,1,26.25
100,20,195617,6,0,L|125:134,1,105
292,104,196026,2,0,L|266:218,1,105
172,368,196435,2,0,P|208:332|236:280,2,105
152,376,197254,5,0,0:0:0:0:
168,236,197526,1,0,0:0:0:0:
100,108,197799,2,0,L|128:172,1,52.5
168,236,198345,2,0,L|189:221,1,26.25
272,208,198617,2,0,L|293:193,1,26.25
376,176,198890,2,0,L|397:161,1,26.25
380,304,199163,5,0,0:0:0:0:
368,332,199299,2,0,L|332:355,1,39.3750015020371
272,208,199572,5,0,0:0:0:0:
284,180,199708,2,0,L|351:135,1,52.5
436,72,199981,6,0,P|380:132|360:216,1,157.500006008148
244,128,200390,6,0,P|246:197|284:259,1,105
156,268,200799,6,0,P|181:291|216:300,1,52.5
288,288,201208,1,0,0:0:0:0:
376,264,201345,2,0,L|444:268,1,39.3750015020371
152,260,201617,5,0,0:0:0:0:
248,236,201754,1,0,0:0:0:0:
336,212,201891,2,0,L|404:216,1,52.5
112,212,202163,5,0,0:0:0:0:
208,188,202300,1,0,0:0:0:0:
296,164,202435,2,0,L|364:168,1,65.625
76,164,202708,5,0,0:0:0:0:
172,140,202845,1,0,0:0:0:0:
260,116,202981,2,0,L|348:121,1,78.7500030040742
472,40,203254,6,0,L|375:34,1,91.8750008761883
304,68,203526,2,0,L|251:65,1,52.5
72,176,203799,6,0,L|168:181,1,91.8750008761883
240,148,204072,2,0,L|292:150,1,52.5
456,216,204345,6,0,L|359:210,1,91.8750008761883
288,244,204618,2,0,L|235:241,1,52.5
56,352,204890,6,0,L|152:357,1,91.8750008761883
224,324,205163,2,0,L|276:326,1,52.5
396,352,205435,5,0,0:0:0:0:
288,244,205572,1,0,0:0:0:0:
440,295,205708,5,0,0:0:0:0:
289,224,205845,1,0,0:0:0:0:
466,225,205981,5,0,0:0:0:0:
283,208,206117,1,0,0:0:0:0:
465,147,206253,5,0,0:0:0:0:
237,178,206390,1,0,0:0:0:0:
383,78,206526,5,0,0:0:0:0:
238,179,206663,1,0,0:0:0:0:
213,6,206799,1,0,0:0:0:0:
373,42,206935,5,0,0:0:0:0:
272,187,207072,1,0,0:0:0:0:
188,32,207208,1,0,0:0:0:0:
351,13,207345,5,0,0:0:0:0:
306,183,207482,1,0,0:0:0:0:
159,58,207617,5,0,0:0:0:0:
166,91,207685,1,0,0:0:0:0:
168,124,207754,1,0,0:0:0:0:
164,156,207822,1,0,0:0:0:0:
153,187,207890,1,0,0:0:0:0:
137,216,207958,1,0,0:0:0:0:
116,241,208026,1,0,0:0:0:0:
92,262,208095,1,0,0:0:0:0:
69,280,208162,5,0,0:0:0:0:
100,268,208230,1,0,0:0:0:0:
132,260,208298,1,0,0:0:0:0:
164,256,208367,1,0,0:0:0:0:
197,259,208435,1,0,0:0:0:0:
228,269,208503,1,0,0:0:0:0:
255,287,208571,1,0,0:0:0:0:
279,310,208639,1,0,0:0:0:0:
298,336,208708,6,0,L|396:324,1,78.75
320,212,209254,2,0,L|398:202,1,78.75
172,64,277163,6,0,P|224:120|256:272,1,210
