osu file format v12

[General]
AudioFilename: Peat Jr. & Fernando - Bank Dance Hall (Nightcore Mix).mp3
AudioLeadIn: 0
PreviewTime: 71504
Countdown: 1
SampleSet: Normal
StackLeniency: 0.7
Mode: 0
LetterboxInBreaks: 0
EpilepsyWarning: 1
WidescreenStoryboard: 0

[Editor]
DistanceSpacing: 1
BeatDivisor: 4
GridSize: 4

[Metadata]
Title:Bank Dance Hall (Nightcore Mix)
TitleUnicode:Bank Dance Hall (Nightcore Mix)
Artist:Peat Jr. & Fernando
ArtistUnicode:Peat Jr. & Fernando
Creator:Kurokami
Version:Hard Collab
Source:
Tags:hungarian trance hun magyar XinCrin Mystyk
BeatmapID:246980
BeatmapSetID:87059

[Difficulty]
HPDrainRate:6
CircleSize:3
OverallDifficulty:7
ApproachRate:7
SliderMultiplier:1.6
SliderTickRate:2

[Events]
//Background and Video events
0,0,"bg.jpg",0,0
//Break Periods
2,140408,151674
//Storyboard Layer 0 (Background)
//Storyboard Layer 1 (Fail)
//Storyboard Layer 2 (Pass)
//Storyboard Layer 3 (Foreground)
Sprite,Foreground,Centre,"SB\collab.png",320,240 M,0,4925,5612,819,106,622,101 F,0,4925,139544,0.8000474 M,0,5612,232290,622,101,611,100 F,0,139544,140231,0.8000474,0 F,0,152597,,0.6000947 M,0,232290,233664,611,100,830,103
Sprite,Foreground,Centre,"SB\Kurokami.png",320,240 S,0,6299,,0.5364732 F,0,6299,6986,0,1 M,0,6299,105881,540,94 F,0,6986,105881,1,0.9519651 M,0,105881,106568,540,94,706,96 F,0,105881,106568,0.9519651 F,0,106568,106654,0 F,0,152597,153284,0,0.9986468 M,0,152597,174582,540,95 F,0,153284,174582,0.9986468,0.9942859 M,0,174582,175269,540,95,705,93 F,0,219924,220611,0,0.9994191 M,0,219924,232290,547,93 F,0,220611,232290,0.9994191,0.9761429 M,0,232290,233664,547,93,706,92
Sprite,Foreground,Centre,"SB\Mystyk.png",320,240 S,0,106568,,0.6182719 F,0,106568,107255,0,1 M,0,106568,138857,538,92,538,94 M,0,138857,140231,538,94,708,95 F,0,175269,175956,0,1 M,0,175269,215459,542,92 F,0,175956,215459,1,0.9898108 M,0,219066,219753,542,92,701,92
//Storyboard Sound Samples
//Background Colour Transformations
3,100,163,162,255

[TimingPoints]
1490,343.504894944753,4,1,0,60,1,0
22730,343.504894944753,4,1,0,60,1,0
23588,-100,4,1,0,60,0,0
58969,-100,4,1,0,60,0,1
59141,-100,4,1,0,60,0,0
71507,-100,4,1,0,60,0,1
81812,-100,4,1,0,60,0,0
82499,-100,4,1,0,60,0,1
93491,-100,4,1,0,60,0,0
105858,-100,4,1,0,60,0,1
106029,-100,4,1,0,60,0,0
152574,-100,4,1,0,60,0,1
152746,-100,4,1,0,60,0,0
174387,-100,4,1,0,60,0,1
174559,-100,4,1,0,60,0,0
186946,343.504894944753,4,1,0,60,1,1
197251,-100,4,1,0,60,0,0
197938,-100,4,1,0,60,0,1
208930,-100,4,1,0,60,0,0
232288,-100,4,1,0,40,0,0
232632,-100,4,1,0,30,0,0
232975,-100,4,1,0,20,0,0
233319,-100,4,1,0,10,0,0
233662,-100,4,1,0,5,0,0

[Colours]
Combo1 : 0,128,0
Combo2 : 223,0,0
Combo3 : 218,218,218

[HitObjects]
256,144,4925,2,0,L|256:64,2,80,8|0|8,0:0|0:0|0:0,0:0:0:0:
256,304,5612,1,0,0:0:0:0:
172,168,5955,2,0,P|132:184|100:216,2,80,0|0|0,0:0|0:0|0:0,0:0:0:0:
336,168,6642,2,0,P|376:184|408:216,2,80,8|0|0,0:0|0:0|0:0,0:0:0:0:
176,140,7329,2,0,P|144:116|120:84,2,80,0|0|8,0:0|0:0|0:0,0:0:0:0:
336,140,8016,2,0,P|368:116|392:84,2,80,8|0|0,0:0|0:0|0:0,0:0:0:0:
256,280,8703,6,0,L|256:360,2,80
392,192,9390,1,8,0:0:0:0:
408,32,9734,1,0,0:0:0:0:
256,88,10077,1,0,0:0:0:0:
104,32,10421,1,8,0:0:0:0:
120,192,10764,1,8,0:0:0:0:
256,280,11108,6,0,L|256:200,1,80
256,120,11451,1,0,0:0:0:0:
336,256,11795,1,0,0:0:0:0:
176,256,12138,1,8,0:0:0:0:
103,113,12482,6,0,P|141:105|174:82,1,80
256,32,12825,2,0,L|256:112,2,80,0|0|8,0:0|0:0|0:0,0:0:0:0:
337,82,13340,2,0,P|369:105|409:113,1,80,0|8,0:0|0:0,0:0:0:0:
464,248,13856,5,0,0:0:0:0:
320,320,14199,1,0,0:0:0:0:
256,368,14371,1,0,0:0:0:0:
192,320,14543,1,0,0:0:0:0:
48,248,14886,1,8,0:0:0:0:
160,136,15230,2,0,P|152:96|128:64,2,80
352,136,15917,2,0,P|360:96|384:64,2,80,8|0|8,0:0|0:0|0:0,0:0:0:0:
392,288,16604,5,0,0:0:0:0:
256,208,16947,2,0,L|256:288,2,80
120,288,17634,1,8,0:0:0:0:
176,136,17978,1,0,0:0:0:0:
176,136,18149,1,0,0:0:0:0:
176,136,18321,1,0,0:0:0:0:
336,136,18665,1,8,0:0:0:0:
336,136,18836,1,0,0:0:0:0:
336,136,19008,1,8,0:0:0:0:
392,288,19352,5,0,0:0:0:0:
200,192,19695,1,0,0:0:0:0:
256,248,19867,1,0,0:0:0:0:
312,192,20039,1,0,0:0:0:0:
120,288,20382,1,8,0:0:0:0:
168,104,20726,2,0,P|136:128|112:168,2,80,2|0|0,0:0|0:0|0:0,0:0:0:0:
344,104,21413,2,0,P|376:128|400:168,2,80,10|0|8,0:0|0:0|0:0,0:0:0:0:
256,192,22100,12,0,23073,0:0:0:0:
184,304,23417,6,0,P|256:336|328:304,1,160
440,192,24104,1,0,0:0:0:0:
336,72,24447,1,0,0:0:0:0:
176,72,24791,1,0,0:0:0:0:
72,192,25134,1,0,0:0:0:0:
136,296,25478,6,0,P|200:332|272:296,1,160
276,200,25993,1,0,0:0:0:0:
244,120,26165,1,0,0:0:0:0:
164,120,26336,1,0,0:0:0:0:
132,200,26508,1,0,0:0:0:0:
204,248,26680,1,0,0:0:0:0:
272,296,26852,6,0,P|312:296|352:280,1,80
424,312,27195,2,0,P|440:272|440:232,1,80
404,164,27539,2,0,P|336:200|268:164,1,160
228,96,28054,1,0,0:0:0:0:
148,108,28226,1,0,0:0:0:0:
56,240,28569,1,0,0:0:0:0:
184,336,28913,6,0,L|248:288,1,80
320,256,29256,2,0,L|400:288,2,80
256,208,29771,1,0,0:0:0:0:
256,48,30115,5,0,0:0:0:0:
256,128,30287,2,0,L|256:288,1,160
328,176,30974,2,0,P|256:208|184:176,1,160
88,48,31661,6,0,P|48:112|88:184,1,160
144,232,32176,1,0,0:0:0:0:
224,248,32348,2,0,L|224:328,2,80
304,232,32863,1,0,0:0:0:0:
368,180,33035,6,0,P|403:110|363:46,1,160
224,136,33722,1,0,0:0:0:0:
224,328,34065,1,0,0:0:0:0:
256,192,34409,12,0,35783,0:0:0:0:
256,344,37157,6,0,L|256:184,1,160
256,184,37672,1,0,0:0:0:0:
324,228,37844,2,0,P|256:263|188:227,1,160
188,76,38531,2,0,P|256:40|324:76,1,160
256,120,39046,1,0,0:0:0:0:
120,128,39218,2,0,P|80:104|64:72,2,80
192,168,39733,5,0,0:0:0:0:
256,120,39905,1,0,0:0:0:0:
320,168,40076,1,0,0:0:0:0:
296,248,40248,1,0,0:0:0:0:
216,248,40420,1,0,0:0:0:0:
216,248,40592,2,0,P|168:248|136:232,2,80
296,248,41107,5,0,0:0:0:0:
376,240,41279,2,0,P|408:168|376:96,1,160
256,32,41966,1,0,0:0:0:0:
40,192,42481,5,0,0:0:0:0:
64,272,42653,2,0,P|136:272|216:240,1,160
296,240,43168,2,0,P|376:272|448:272,1,160
472,192,43683,1,0,0:0:0:0:
256,112,44027,6,0,L|256:272,1,160
256,272,44542,1,0,0:0:0:0:
184,320,44714,2,0,P|256:352|328:320,1,160
424,152,45401,6,0,P|392:80|320:56,1,160
256,104,45916,1,0,0:0:0:0:
192,56,46088,2,0,P|120:80|88:152,1,160
112,232,46603,1,0,0:0:0:0:
88,312,46775,2,0,P|168:328|232:288,1,160
272,216,47290,2,0,P|352:248|424:232,1,160
432,72,47977,5,0,0:0:0:0:
368,24,48149,1,0,0:0:0:0:
328,96,48321,2,0,P|256:128|184:96,1,160
144,24,48836,1,0,0:0:0:0:
80,72,49008,1,0,0:0:0:0:
200,184,49351,5,0,0:0:0:0:
256,128,49523,2,0,L|256:48,2,80
312,184,50038,1,0,0:0:0:0:
256,328,50553,1,0,0:0:0:0:
336,192,50897,6,0,P|376:208|400:240,2,80
176,192,51584,2,0,P|136:208|112:240,2,80
256,56,52271,1,0,0:0:0:0:
256,216,52614,2,0,L|256:384,2,160
320,312,53645,6,0,B|352:280|352:280|368:216|320:176,1,160
256,128,54160,1,0,0:0:0:0:
192,312,54332,2,0,B|160:280|160:280|144:216|192:176,1,160
256,128,54847,1,0,0:0:0:0:
192,80,55019,2,0,P|152:72|112:56,2,80
320,80,55534,2,0,P|360:72|400:56,2,80
256,128,56049,1,0,0:0:0:0:
112,192,56393,6,0,B|128:256|128:256|168:304|216:280,1,160
256,216,56908,1,0,0:0:0:0:
301,282,57080,2,0,B|344:304|384:256|384:256|400:192,1,160
312,152,57595,2,0,P|320:112|312:72,1,80
199,73,57939,2,0,P|192:112|200:152,1,80
296,232,58282,2,0,P|256:240|216:232,2,80
112,144,58969,5,0,0:0:0:0:
144,72,59141,2,0,P|216:40|288:72,1,160,0|8,0:0|0:0,0:0:0:0:
352,152,59828,2,0,P|288:184|208:152,1,160,0|8,0:0|0:0,0:0:0:0:
144,72,60515,2,0,B|88:144|120:216|120:216|192:264,1,240
336,328,61374,1,0,0:0:0:0:
464,232,61717,6,0,B|496:160|496:160|456:80|368:64,1,240,0|8,0:0|0:0,0:0:0:0:
216,88,62576,2,0,L|216:8,2,80,0|0|8,0:0|0:0|0:0,0:0:0:0:
144,136,63091,2,0,P|216:168|288:136,1,160
336,72,63607,1,8,0:0:0:0:
392,128,63778,1,0,0:0:0:0:
472,120,63950,2,0,P|496:200|464:272,1,160,0|8,0:0|0:0,0:0:0:0:
328,192,64637,6,0,P|256:160|184:192,1,160,0|8,0:0|0:0,0:0:0:0:
112,248,65324,2,0,P|179:282|256:248,1,160,0|8,0:0|0:0,0:0:0:0:
384,48,66011,2,0,B|336:104|336:104|256:48|176:104|176:104|128:48,1,320
128,48,66870,1,0,0:0:0:0:
80,192,67213,6,0,B|152:192|152:192|200:272|152:352,1,240,0|8,0:0|0:0,0:0:0:0:
256,256,67900,1,0,0:0:0:0:
256,256,68072,2,0,L|256:336,2,80,0|0|8,0:0|0:0|0:0,0:0:0:0:
256,176,68587,1,0,0:0:0:0:
184,112,68759,2,0,B|256:88|256:88|336:112,1,160,0|8,0:0|0:0,0:0:0:0:
432,192,69274,2,0,B|360:192|360:192|312:272|360:352,1,240,0|8,0:0|0:0,0:0:0:0:
256,192,70133,12,0,71164,0:0:0:0:
184,40,71507,22,0,B|152:72|152:120|152:120|200:176,1,160,0|8,0:0|0:0,0:0:0:0:
256,120,72022,1,0,0:0:0:0:
328,40,72194,2,0,B|360:72|360:120|360:120|312:176,1,160,2|8,0:0|0:0,0:0:0:0:
256,224,72709,1,0,0:0:0:0:
304,288,72881,2,0,P|344:288|384:272,2,80,0|0|8,0:0|0:0|0:0,0:0:0:0:
224,296,73396,1,0,0:0:0:0:
144,288,73568,2,0,B|96:280|64:240|64:240|64:176,1,160,2|8,0:0|0:0,0:0:0:0:
104,104,74083,5,0,0:0:0:0:
144,176,74255,2,0,P|184:176|224:160,1,80
184,88,74599,2,0,P|224:80|264:80,1,80,8|0,0:0|0:0,0:0:0:0:
344,96,74942,2,0,B|392:120|392:120|416:176|384:224,1,160,2|8,0:0|0:0,0:0:0:0:
332,284,75457,5,0,0:0:0:0:
256,248,75629,2,0,L|256:336,2,80,0|0|8,0:0|0:0|0:0,0:0:0:0:
180,284,76145,1,0,0:0:0:0:
126,221,76316,2,0,B|96:176|120:120|120:120|168:96,1,160,2|8,0:0|0:0,0:0:0:0:
256,232,77003,6,0,B|240:192|256:152|256:152|272:112|256:72,2,160,0|8|0,0:0|0:0|0:0,0:0:0:0:
424,176,78034,22,0,P|432:256|368:296,1,160,8|0,0:0|0:0,0:0:0:0:
320,352,78549,5,0,0:0:0:0:
256,312,78721,5,8,0:0:0:0:
192,352,78893,5,0,0:0:0:0:
139,295,79064,6,0,P|80:256|88:176,1,160,2|8,0:0|0:0,0:0:0:0:
256,80,79580,5,0,0:0:0:0:
328,120,79751,2,0,P|256:200|184:120,1,240
176,40,80438,2,0,P|112:84|112:168,2,160,0|8|0,0:0|0:0|0:0,0:0:0:0:
256,80,81297,2,0,P|320:40|392:72,1,160
328,120,81812,2,0,P|312:192|232:224,1,160,2|8,0:0|0:0,0:0:0:0:
84,193,82499,6,0,B|92:144|144:128|144:128|160:104|200:96,1,160,0|8,0:0|0:0,0:0:0:0:
216,256,83186,1,2,0:0:0:0:
296,256,83358,1,0,0:0:0:0:
312,96,83702,2,0,B|352:104|368:128|368:128|420:144|428:196,1,160
348,208,84217,2,0,P|400:272|472:260,2,160
164,208,85247,6,0,P|112:272|40:260,2,160,0|8|0,0:0|0:0|0:0,0:0:0:0:
256,76,86278,1,8,0:0:0:0:
384,172,86621,2,0,P|384:248|312:272,1,160,0|8,0:0|0:0,0:0:0:0:
256,216,87137,1,0,0:0:0:0:
197,272,87308,2,0,P|128:248|128:172,1,160,0|8,0:0|0:0,0:0:0:0:
216,40,87995,6,0,B|160:56|160:56|100:44|68:84,2,160,0|8|2,0:0|0:0|0:0,0:0:0:0:
256,196,89026,1,8,0:0:0:0:
296,40,89369,2,0,B|352:56|352:56|412:44|444:84,2,160,0|8|2,0:0|0:0|0:0,0:0:0:0:
256,196,90400,1,8,0:0:0:0:
216,352,90743,6,0,P|256:360|296:352,3,80,0|0|8|0,0:0|0:0|0:0|0:0,0:0:0:0:
256,280,91430,1,2,0:0:0:0:
256,116,91774,1,8,0:0:0:0:
328,260,92117,2,0,B|368:244|384:212|384:212|384:124,1,160,0|8,0:0|0:0,0:0:0:0:
324,72,92633,2,0,P|256:36|188:72,1,160
128,128,93148,2,0,B|128:212|128:212|144:244|184:260,1,160,8|4,0:0|0:0,0:0:0:0:
256,192,93835,12,0,94866,0:0:0:0:
88,136,95209,6,0,B|136:136|168:104|168:104|240:104,1,160,2|0,0:0|0:0,0:0:0:0:
224,184,95724,2,0,B|272:184|304:152|304:152|376:152,1,160,2|0,0:0|0:0,0:0:0:0:
456,164,96240,2,0,P|444:204|412:228,2,80,2|0|0,0:0|0:0|0:0,0:0:0:0:
428,88,96755,1,2,0:0:0:0:
256,352,97614,5,2,0:0:0:0:
128,256,97957,2,0,B|88:192|88:192|128:160|136:120,2,160,2|0|0,0:0|0:0|0:0,0:0:0:0:
200,296,98816,1,2,0:0:0:0:
256,240,98988,2,0,L|256:160,2,80,2|0|0,0:0|0:0|0:0,0:0:0:0:
312,296,99503,1,2,0:0:0:0:
256,48,100362,5,2,0:0:0:0:
216,200,100705,2,0,P|176:192|136:176,2,80,2|0|0,0:0|0:0|0:0,0:0:0:0:
296,200,101220,2,0,P|336:192|376:176,2,80,2|0|0,0:0|0:0|0:0,0:0:0:0:
216,280,101736,2,0,P|184:304|144:320,1,80,2|0,0:0|0:0,0:0:0:0:
296,280,102079,2,0,P|328:304|368:320,1,80,2|0,0:0|0:0,0:0:0:0:
368,232,102423,1,2,0:0:0:0:
304,168,102594,1,10,0:0:0:0:
208,168,102766,1,2,0:0:0:0:
144,232,102938,1,8,0:0:0:0:
256,192,103110,12,0,104999,0:0:0:0:
384,192,105858,6,0,P|380:268|312:312,2,160,8|8|0,0:0|0:0|0:0,0:0:0:0:
324,44,106888,2,0,P|256:12|180:44,1,160,0|8,0:0|0:0,0:0:0:0:
24,72,107575,1,8,0:0:0:0:
128,192,107919,2,0,P|132:268|200:312,2,160,0|0|8,0:0|0:0|0:0,0:0:0:0:
256,100,108949,5,8,0:0:0:0:
412,68,109293,2,0,P|464:132|452:204,1,160
332,312,109980,2,0,B|284:276|240:348|180:312,2,160,8|8|0,0:0|0:0|0:0,0:0:0:0:
492,308,111010,1,0,0:0:0:0:
380,192,111354,6,0,P|304:176|224:192,1,160,2|0,0:0|0:0,0:0:0:0:
80,260,112041,2,0,P|52:292|16:308,2,80,8|0|0,0:0|0:0|0:0,0:0:0:0:
136,112,112728,2,0,P|192:60|272:44,1,160,2|0,0:0|0:0,0:0:0:0:
420,120,113415,2,0,P|452:144|492:152,2,80,8|0|0,0:0|0:0|0:0,0:0:0:0:
271,43,114102,5,8,0:0:0:0:
271,43,114445,1,2,0:0:0:0:
156,156,114789,1,8,0:0:0:0:
156,156,115132,1,2,0:0:0:0:
256,192,115476,12,0,116506,0:0:0:0:
256,308,116850,5,8,0:0:0:0:
360,188,117193,2,0,P|396:136|400:80,1,120
364,64,117537,2,0,P|284:76|212:48,1,160,8|0,0:0|0:0,0:0:0:0:
140,16,118052,1,0,0:0:0:0:
76,64,118224,2,0,P|28:128|32:204,2,160,8|0|8,0:0|0:0|0:0,0:0:0:0:
200,164,119254,1,0,0:0:0:0:
356,192,119598,6,0,P|432:216|464:284,1,160,8|0,0:0|0:0,0:0:0:0:
412,344,120113,1,0,0:0:0:0:
332,348,120285,2,0,B|272:324|240:380|176:348,1,160,8|0,0:0|0:0,0:0:0:0:
96,344,120800,1,0,0:0:0:0:
56,276,120972,2,0,P|28:208|44:124,2,160,0|0|8,0:0|0:0|0:0,0:0:0:0:
328,104,122346,5,0,0:0:0:0:
488,112,122689,2,0,P|460:192|408:244,1,160,4|8,0:0|0:0,0:0:0:0:
328,236,123205,1,0,0:0:0:0:
252,208,123376,2,0,P|196:260|164:336,2,160,0|8|0,0:0|0:0|0:0,0:0:0:0:
408,208,124407,2,0,P|464:260|480:339,1,160,8|0,0:0|0:0,0:0:0:0:
320,344,125094,5,8,0:0:0:0:
160,344,125437,2,0,P|120:304|120:244,1,120
156,220,125781,2,0,P|132:152|56:120,1,160,8|0,0:0|0:0,0:0:0:0:
0,64,126296,2,0,P|32:44|76:44,1,80,0|8,0:0|0:0,0:0:0:0:
228,80,126811,5,0,0:0:0:0:
156,220,127155,1,4,0:0:0:0:
256,344,127498,1,0,0:0:0:0:
400,288,127842,6,0,P|464:240|480:164,1,160,8|0,0:0|0:0,0:0:0:0:
468,88,128357,1,0,0:0:0:0:
400,48,128529,2,0,P|360:60|336:88,1,80,8|0,0:0|0:0,0:0:0:0:
308,164,128873,2,0,P|276:144|256:104,1,80
252,28,129216,6,0,P|212:40|188:68,1,80,8|0,0:0|0:0,0:0:0:0:
108,87,129559,2,0,P|127:123|159:143,1,80
216,200,129903,2,0,P|180:268|104:288,1,160,8|0,0:0|0:0,0:0:0:0:
24,288,130418,1,0,0:0:0:0:
64,360,130590,6,0,P|148:368|220:340,2,160,8|0|8,0:0|0:0|0:0,0:0:0:0:
24,288,131449,1,0,0:0:0:0:
52,212,131621,2,0,P|64:176|96:152,1,80
176,148,131964,2,0,B|252:108|220:64|280:32,2,160,8|0|8,0:0|0:0|0:0,0:0:0:0:
16,136,132995,1,0,0:0:0:0:
144,232,133338,6,0,P|228:216|284:164,1,160,8|0,0:0|0:0,0:0:0:0:
320,96,133853,2,0,P|356:84|396:96,2,80,0|8|0,0:0|0:0|0:0,0:0:0:0:
240,104,134369,2,0,P|216:72|208:32,1,80
128,24,134712,6,0,P|144:108|188:168,2,160,8|0|8,0:0|0:0|0:0,0:0:0:0:
288,40,135743,1,0,0:0:0:0:
288,40,136086,1,12,0:0:0:0:
412,336,136773,1,8,0:0:0:0:
100,336,137460,2,0,P|64:272|64:188,1,160,8|2,0:0|0:0,0:0:0:0:
184,80,138147,2,0,P|220:144|220:228,1,160,8|2,0:0|0:0,0:0:0:0:
256,192,138834,12,0,140208,0:0:0:0:
168,152,152574,6,0,B|139:123|100:118|100:118|88:72|60:44,2,160
336,152,153605,2,0,B|364:123|403:118|403:118|415:72|443:44,2,160
256,288,154635,1,0,0:0:0:0:
104,344,154979,1,0,0:0:0:0:
48,192,155322,6,0,B|120:184|136:144|136:144|192:120,1,160
256,88,155838,1,0,0:0:0:0:
325,122,156009,2,0,B|375:143|375:143|391:183|463:191,1,160
320,272,156696,2,0,P|304:304|296:352,1,80
216,348,157040,2,0,P|208:300|192:268,1,80
192,192,157383,2,0,P|256:152|324:192,1,160
464,152,158070,6,0,B|416:120|416:120|360:128|320:88,1,160
256,48,158586,1,0,0:0:0:0:
192,96,158757,2,0,B|154:133|98:125|98:125|50:157,1,160
184,248,159444,2,0,P|256:280|328:248,1,160
320,168,159960,2,0,B|328:112|312:72|312:72|256:24|200:72|200:72|184:112|192:168,1,320
120,216,160818,6,0,B|168:256|168:256|216:256|256:296|256:296|296:256|344:256|344:256|392:216,1,320
256,136,161849,1,0,0:0:0:0:
104,88,162192,2,0,B|48:96|24:144|24:144|16:208,2,160
256,40,163223,1,0,0:0:0:0:
408,88,163566,5,0,0:0:0:0:
464,240,163910,1,0,0:0:0:0:
304,216,164254,1,0,0:0:0:0:
168,296,164597,1,0,0:0:0:0:
144,136,164941,2,0,B|72:112|72:112|40:88|32:40,2,160
304,112,165971,1,0,0:0:0:0:
464,128,166315,6,0,P|472:208|440:280,1,160
380,332,166830,1,0,0:0:0:0:
328,272,167002,2,0,P|256:240|184:272,1,160
132,332,167517,1,0,0:0:0:0:
72,280,167689,2,0,P|40:208|48:128,1,160
124,108,168204,2,0,B|179:85|195:45|227:85|227:85|259:45|275:85|331:109,1,240
472,192,169063,6,0,B|432:200|408:232|408:232|368:248|328:248,1,160
256,280,169578,1,0,0:0:0:0:
184,248,169750,2,0,B|144:248|104:232|104:232|80:200|40:192,1,160
168,96,170437,2,0,B|152:48|112:24|112:24|40:24,2,160
256,224,171467,1,0,0:0:0:0:
416,192,171811,5,0,0:0:0:0:
336,56,172154,1,0,0:0:0:0:
176,56,172498,1,0,0:0:0:0:
88,192,172841,1,0,0:0:0:0:
184,320,173185,5,0,0:0:0:0:
256,352,173356,1,0,0:0:0:0:
328,320,173528,1,0,0:0:0:0:
256,256,173700,2,0,L|256:176,2,80
412,288,174387,5,0,0:0:0:0:
448,216,174559,2,0,P|456:140|416:68,1,160,0|8,0:0|0:0,0:0:0:0:
256,52,175246,2,0,B|224:104|284:136|256:208,1,160,0|8,0:0|0:0,0:0:0:0:
132,308,175933,2,0,P|108:284|92:240,1,80
56,168,176276,2,0,P|136:172|176:240,2,160,8|0|8,0:0|0:0|0:0,0:0:0:0:
12,236,177135,5,0,0:0:0:0:
40,312,177307,2,0,P|52:348|80:380,2,80,0|0|8,0:0|0:0|0:0,0:0:0:0:
136,184,177994,2,0,P|172:136|180:76,2,120,0|0|0,0:0|2:0|2:0,0:0:0:0:
152,264,178681,2,0,P|208:280|268:272,2,120,0|0|0,0:0|2:0|2:0,0:0:0:0:
116,336,179368,2,0,P|192:360|272:356,1,160,0|8,0:0|0:0,0:0:0:0:
428,316,180055,6,0,P|456:240|440:164,1,160,0|8,0:0|0:0,0:0:0:0:
316,60,180742,2,0,B|277:44|253:8|253:8|233:44|197:60,1,160,0|8,0:0|0:0,0:0:0:0:
72,164,181429,2,0,P|88:204|120:224,1,80
176,280,181772,2,0,P|200:208|148:148,2,160,8|0|8,0:0|0:0|0:0,0:0:0:0:
32,348,182803,6,0,P|64:372|104:376,1,80
184,368,183146,2,0,P|224:356|264:360,1,80,8|0,0:0|0:0,0:0:0:0:
344,364,183490,2,0,P|400:304|408:228,1,160,0|8,0:0|0:0,0:0:0:0:
348,80,184177,6,0,P|308:76|272:56,1,80
116,24,184692,1,0,0:0:0:0:
84,96,184864,2,0,P|68:176|100:244,1,160,0|8,0:0|0:0,0:0:0:0:
256,192,185551,12,0,186581,2:0:0:0:
316,248,186946,6,0,L|376:300,2,80,0|0|8,0:0|0:0|0:0,0:0:0:0:
256,192,187461,1,0,0:0:0:0:
176,176,187633,2,0,P|220:116|300:124,1,160,2|8,0:0|0:0,0:0:0:0:
372,152,188148,1,0,0:0:0:0:
448,172,188320,2,0,P|476:124|472:60,2,120
392,224,189007,2,0,P|332:268|328:348,1,160,2|8,0:0|0:0,0:0:0:0:
404,312,189522,5,0,0:0:0:0:
464,260,189694,2,0,P|468:200|392:144,1,160,0|8,0:0|0:0,0:0:0:0:
316,140,190209,1,0,0:0:0:0:
236,136,190381,2,0,P|162:80|166:20,1,160,2|8,0:0|0:0,0:0:0:0:
240,56,190896,1,0,0:0:0:0:
320,56,191068,2,0,P|396:40|468:72,2,160,0|8|2,0:0|0:0|0:0,0:0:0:0:
180,344,192442,6,0,B|128:346|104:324|104:324|84:294|93:244,1,160,0|8,0:0|0:0,0:0:0:0:
36,192,192957,1,0,0:0:0:0:
92,136,193129,2,0,B|84:89|104:59|104:59|128:37|180:40,1,160,2|8,0:0|0:0,0:0:0:0:
256,68,193644,5,0,0:0:0:0:
320,116,193816,6,0,P|392:152|408:224,2,160,0|8|2,0:0|0:0|0:0,0:0:0:0:
180,192,194846,5,8,0:0:0:0:
180,192,195018,5,0,0:0:0:0:
108,228,195190,2,0,P|136:312|196:340,1,160,0|8,0:0|0:0,0:0:0:0:
276,344,195705,1,0,0:0:0:0:
356,344,195877,2,0,P|344:304|320:276,1,80,2|0,0:0|0:0,0:0:0:0:
304,196,196220,2,0,P|344:196|380:220,1,80
377,216,196564,1,0,0:0:0:0:
377,216,197251,1,10,0:0:0:0:
135,216,197766,5,0,0:0:0:0:
128,296,197938,2,0,P|204:260|212:192,1,160,0|8,0:0|0:0,0:0:0:0:
184,116,198453,1,0,0:0:0:0:
168,36,198625,2,0,P|216:40|244:60,1,80,2|0,0:0|0:0,0:0:0:0:
241,57,198969,1,8,0:0:0:0:
292,120,199140,5,0,0:0:0:0:
352,172,199312,2,0,P|424:208|496:184,1,160,0|8,0:0|0:0,0:0:0:0:
508,104,199827,1,0,0:0:0:0:
432,124,199999,2,0,P|416:204|460:264,1,160,2|8,0:0|0:0,0:0:0:0:
320,340,200686,6,0,P|280:352|240:340,1,80
204,272,201030,2,0,P|240:260|280:272,1,80,8|0,0:0|0:0,0:0:0:0:
328,208,201373,2,0,P|256:180|176:196,1,160,2|8,0:0|0:0,0:0:0:0:
108,240,201888,1,0,0:0:0:0:
32,264,202060,2,0,P|28:228|48:188,1,80
92,124,202404,2,0,P|120:92|128:56,1,80,8|0,0:0|0:0,0:0:0:0:
128,56,202747,1,0,0:0:0:0:
340,192,203262,5,0,0:0:0:0:
340,192,203434,2,0,P|412:168|432:92,1,160,0|8,0:0|0:0,0:0:0:0:
276,128,204121,2,0,P|252:204|296:268,1,160,2|8,0:0|0:0,0:0:0:0:
293,266,204636,1,0,0:0:0:0:
372,272,204808,6,0,P|328:340|256:336,1,160,0|8,0:0|0:0,0:0:0:0:
200,276,205323,1,0,0:0:0:0:
148,216,205495,2,0,P|76:212|32:280,1,160,2|8,0:0|0:0,0:0:0:0:
176,352,206182,6,0,P|216:356|252:340,1,80
292,268,206526,2,0,P|312:236|348:216,1,80,8|0,0:0|0:0,0:0:0:0:
420,184,206869,2,0,P|416:112|352:60,1,160,2|8,0:0|0:0,0:0:0:0:
196,92,207556,6,0,P|180:132|152:156,1,80,0|0,2:0|2:0,0:0:0:0:
72,172,207900,2,0,P|92:212|120:232,1,80,8|0,2:0|2:0,0:0:0:0:
196,256,208243,2,0,P|274:258|325:319,1,160,2|8,2:0|2:0,0:0:0:0:
424,192,208930,1,4,0:0:0:0:
424,192,210304,5,0,0:0:0:0:
464,36,210648,2,0,P|412:16|352:32,1,120,8|0,0:0|0:0,0:0:0:0:
332,68,210991,2,0,P|264:100|180:92,1,160,0|2,0:0|0:0,0:0:0:0:
104,64,211506,1,0,0:0:0:0:
64,132,211678,2,0,P|32:208|60:276,1,160,0|2,0:0|0:0,0:0:0:0:
200,356,212365,2,0,P|232:288|200:212,1,160,8|2,0:0|0:0,0:0:0:0:
184,56,213052,6,0,P|256:24|328:56,1,160,0|8,0:0|0:0,0:0:0:0:
348,132,213567,1,0,0:0:0:0:
400,196,213739,2,0,P|432:224|468:232,2,80,0|0|8,0:0|0:0|0:0,0:0:0:0:
268,108,214426,2,0,P|192:116|152:184,2,160,0|8|0,0:0|0:0|0:0,0:0:0:0:
268,108,215457,1,0,0:0:0:0:
460,268,216144,6,0,P|492:200|460:124,1,160,8|0,0:0|0:0,0:0:0:0:
388,96,216659,1,0,0:0:0:0:
308,84,216831,2,0,P|224:84|156:48,2,160,0|0|8,0:0|0:0|0:0,0:0:0:0:
316,244,217861,2,0,P|244:268|160:268,1,160,0|8,0:0|0:0,0:0:0:0:
36,248,218548,6,0,P|72:172|140:144,1,160,0|8,0:0|0:0,0:0:0:0:
220,144,219064,1,0,0:0:0:0:
300,152,219235,2,0,P|328:184|364:196,1,80,8|0,0:0|0:0,0:0:0:0:
372,116,219579,2,0,P|400:84|408:48,1,80,8|0,0:0|0:0,0:0:0:0:
328,48,219922,6,0,P|256:16|184:48,2,160,0|0|8,0:0|0:0|0:0,0:0:0:0:
256,192,220953,1,8,0:0:0:0:
80,184,221296,5,2,0:0:0:0:
216,264,221640,1,2,0:0:0:0:
296,128,221983,1,2,0:0:0:0:
448,184,222327,1,2,0:0:0:0:
392,328,222670,2,0,B|368:272|368:272|320:264|296:208,1,160,0|8,0:0|0:0,0:0:0:0:
120,328,223357,2,0,B|144:272|144:272|192:264|216:208,1,160,0|8,0:0|0:0,0:0:0:0:
256,40,224044,6,0,B|280:104|264:120|264:120|248:136|256:200,1,160
392,272,224731,2,0,P|416:304|448:328,2,80,8|0|0,0:0|0:0|0:0,0:0:0:0:
256,192,225418,2,0,L|256:272,2,80,8|0|0,0:0|0:0|0:0,0:0:0:0:
120,272,226105,2,0,P|96:304|64:328,2,80,8|0|0,0:0|0:0|0:0,0:0:0:0:
184,120,226792,6,0,P|256:88|326:122,1,160,2|0,0:0|0:0,0:0:0:0:
327,264,227479,2,0,P|257:295|186:264,1,160,2|0,0:0|0:0,0:0:0:0:
326,121,228166,2,0,P|358:192|328:264,1,160,2|0,0:0|0:0,0:0:0:0:
185,263,228853,2,0,P|155:191|184:120,1,160,2|0,0:0|0:0,0:0:0:0:
256,192,229540,6,0,L|256:32,2,160,8|0|0,0:0|0:0|0:0,0:0:0:0:
256,352,230571,1,0,0:0:0:0:
376,248,230914,2,0,B|344:200|344:200|336:144|288:112,1,160,0|8,0:0|0:0,0:0:0:0:
136,248,231601,2,0,B|168:200|168:200|176:144|224:112,1,160,0|12,0:0|0:0,0:0:0:0:
256,192,232288,12,0,233662,0:0:0:0:
