osu file format v13

[General]
AudioFilename: Pearl Jam - Do The Evolution 192.mp3
AudioLeadIn: 3800
PreviewTime: 78923
Countdown: 0
SampleSet: Normal
StackLeniency: 0.7
Mode: 0
LetterboxInBreaks: 1
WidescreenStoryboard: 0

[Editor]
Bookmarks: 14478,32677,37815,65220,89200,92625,109754,123884,137373,145723,150005,163493,182334,200533,203102,221087
DistanceSpacing: 1
BeatDivisor: 4
GridSize: 4
TimelineZoom: 1

[Metadata]
Title:Do the Evolution
TitleUnicode:Do the Evolution
Artist:Pearl Jam
ArtistUnicode:Pearl Jam
Creator:ego_17
Version:Normal
Source:Yield
Tags:
BeatmapID:286423
BeatmapSetID:106279

[Difficulty]
HPDrainRate:4
CircleSize:4
OverallDifficulty:2
ApproachRate:4
SliderMultiplier:1.2
SliderTickRate:1

[Events]
//Background and Video events
0,0,"BGimg.png",0,0
//Break Periods
2,31592,35639
2,55571,57049
2,102032,105436
2,145066,148899
2,199876,201140
//Storyboard Layer 0 (Background)
//Storyboard Layer 1 (Fail)
//Storyboard Layer 2 (Pass)
//Storyboard Layer 3 (Foreground)
//Storyboard Sound Samples
//Background Colour Transformations
3,100,163,162,255

[TimingPoints]
7413,428.204396231801,4,1,0,80,1,0
65434,-100,4,1,0,40,0,0
78923,-100,4,1,0,80,0,0
106756,-100,4,1,0,80,0,1
117033,-100,4,1,0,80,0,0
123884,-100,4,1,0,35,0,0
137159,-100,4,1,0,80,0,0
164992,-100,4,1,0,80,0,1
182120,-100,4,1,0,80,0,0
200533,-100,4,1,0,65,0,0
215734,-100,4,1,0,30,0,0

[HitObjects]
256,192,6342,12,0,9126,0:0:0:0:
432,304,9982,5,8,0:0:0:0:
344,192,10624,2,2,L|224:196,1,120
180,216,11267,1,2,0:0:0:0:
100,272,11695,2,0,L|124:332,1,60,8|2,0:0|0:0,0:0:0:0:
192,264,12337,6,2,L|288:192,1,120,2|2,0:0|0:0,0:0:0:0:
328,164,12980,1,8,0:0:0:0:
232,168,13408,2,0,L|172:168,1,60,8|2,0:0|0:0,0:0:0:0:
136,88,14478,6,0,L|256:88,1,120
400,92,15549,1,0,0:0:0:0:
400,92,16191,2,0,L|308:172,1,120
192,84,17261,1,0,0:0:0:0:
92,188,17904,5,0,0:0:0:0:
92,188,18118,2,0,L|188:260,1,120
268,312,18974,1,8,0:0:0:0:
352,264,19402,1,8,0:0:0:0:
384,172,19831,5,8,0:0:0:0:
384,172,20045,1,0,0:0:0:0:
300,128,20473,6,2,B|288:164|288:164|264:148,1,60
256,296,21329,5,0,0:0:0:0:
256,296,21543,1,0,0:0:0:0:
256,296,21758,1,0,0:0:0:0:
120,280,23042,6,0,L|180:288,2,60
180,288,24327,6,2,B|184:232|184:232|176:164,1,120
212,136,24969,2,0,B|248:200|248:200|256:248,1,120
324,312,25825,1,4,0:0:0:0:
320,216,26254,1,8,0:0:0:0:
320,216,26468,1,4,0:0:0:0:
380,140,26896,1,4,0:0:0:0:
292,100,27324,6,2,B|267:89|267:89|259:121,1,60
116,148,28181,6,0,L|120:208,1,60
228,156,28823,2,0,L|184:220,2,60,8|2|0,0:0|0:0|0:0,0:0:0:0:
228,304,29465,2,2,P|281:274|304:220,1,120
280,180,30108,1,0,0:0:0:0:
264,136,30322,2,2,P|287:84|340:54,1,120
388,68,30964,1,2,0:0:0:0:
380,164,31392,5,8,0:0:0:0:
248,116,36959,5,4,0:0:0:0:
340,144,37387,1,4,0:0:0:0:
388,228,37815,1,4,0:0:0:0:
260,292,38458,6,2,P|208:240|200:184,2,120
268,100,40170,6,2,P|308:144|300:208,2,120
124,188,42097,5,4,0:0:0:0:
124,188,42525,1,4,0:0:0:0:
212,148,42954,1,4,0:0:0:0:
212,148,43382,1,8,0:0:0:0:
292,96,43810,1,8,0:0:0:0:
428,48,44452,6,2,L|428:168,1,120
340,212,45309,6,0,L|340:280,3,60,0|8|0|8,0:0|0:0|0:0|0:0,0:0:0:0:
152,120,47022,2,0,L|152:60,3,60,0|8|0|8,0:0|0:0|0:0|0:0,0:0:0:0:
256,184,48949,5,4,0:0:0:0:
256,280,49377,1,4,0:0:0:0:
256,280,49805,1,4,0:0:0:0:
352,280,50233,1,8,0:0:0:0:
336,136,50875,2,0,L|336:72,1,60,0|8,0:0|0:0,0:0:0:0:
292,56,51304,6,0,B|272:52|272:52|260:68|260:68|240:60,1,60,2|0,0:0|0:0,0:0:0:0:
148,36,51946,5,0,0:0:0:0:
68,88,52374,1,0,0:0:0:0:
84,184,52802,1,0,0:0:0:0:
100,228,53016,1,0,0:0:0:0:
132,264,53231,5,8,0:0:0:0:
172,296,53445,2,2,P|256:316|292:292,1,120
300,256,54087,1,8,0:0:0:0:
308,208,54301,2,2,P|392:188|428:212,1,120
444,240,54943,2,0,L|476:296,2,60,0|0|4,0:0|0:0|0:0,0:0:0:0:
208,76,58369,5,0,0:0:0:0:
208,76,58583,1,0,0:0:0:0:
328,156,59225,5,4,0:0:0:0:
336,252,59654,1,4,0:0:0:0:
336,252,59868,1,0,0:0:0:0:
256,304,60296,2,2,B|225:280|225:280|236:244|236:244|200:220,1,120
216,176,60938,2,2,B|185:152|185:152|196:116|196:116|160:92,1,120
248,56,61795,5,0,0:0:0:0:
248,56,62223,1,0,0:0:0:0:
248,152,62651,5,8,0:0:0:0:
248,248,63079,1,8,0:0:0:0:
136,340,63722,6,2,L|76:340,1,60,0|0,0:0|0:0,0:0:0:0:
76,292,64150,2,0,L|80:172,2,120
156,240,65434,6,0,L|216:240,1,60
264,240,65863,2,0,L|264:300,1,60,0|0,0:0|0:0,0:0:0:0:
340,240,66505,2,0,L|340:180,1,60
344,84,67147,6,0,L|384:40,1,60
324,0,67575,2,0,L|260:0,1,60
180,44,68218,2,0,P|128:92|120:148,1,120
260,176,69288,5,4,0:0:0:0:
260,176,69502,1,0,0:0:0:0:
300,88,69931,2,0,P|352:136|361:182,1,120
260,284,71001,2,0,P|224:284|196:248,2,60
312,204,71857,2,0,P|293:190|257:190,1,60
124,136,72714,1,0,0:0:0:0:
124,136,72928,1,4,0:0:0:0:
204,80,73356,2,8,P|264:68|324:88,1,120
256,192,74213,12,0,75497,0:0:0:0:
192,228,76139,6,0,L|200:164,3,60,0|0|0|0,0:0|0:0|0:0|0:0,0:0:0:0:
248,116,76996,1,0,0:0:0:0:
304,92,77210,1,0,0:0:0:0:
324,160,77424,2,0,P|308:220|256:252,1,120,4|0,0:0|0:0,0:0:0:0:
284,208,78066,1,0,0:0:0:0:
168,276,78281,2,2,P|184:216|236:184,1,120
336,80,79779,5,8,0:0:0:0:
384,164,80207,1,0,0:0:0:0:
432,300,80850,6,0,L|372:308,1,60,0|0,0:0|0:0,0:0:0:0:
276,300,81492,1,0,0:0:0:0:
276,300,81920,1,0,0:0:0:0:
180,284,82348,2,0,P|120:248|108:184,1,120
200,36,83633,5,4,0:0:0:0:
256,112,84061,1,4,0:0:0:0:
352,124,84489,2,2,L|352:188,1,60
292,316,85346,6,0,L|292:256,1,60
120,88,86631,1,8,0:0:0:0:
212,68,87059,2,2,P|264:56|304:104,1,120
256,192,87701,12,0,89200,0:0:0:0:
176,92,90484,6,0,L|236:92,1,60
348,176,92197,2,0,L|288:176,1,60
180,280,93910,6,0,L|240:280,1,60,8|0,0:0|0:0,0:0:0:0:
192,364,94552,2,2,P|136:360|96:304,1,120
196,208,95623,6,0,L|256:208,1,60,8|0,0:0|0:0,0:0:0:0:
352,204,96265,2,2,P|348:140|296:108,1,120
168,68,97336,5,4,0:0:0:0:
208,156,97764,1,4,0:0:0:0:
280,92,98192,1,4,0:0:0:0:
128,208,99048,5,4,0:0:0:0:
268,248,99691,1,0,0:0:0:0:
268,248,100119,1,0,0:0:0:0:
256,192,100547,12,0,101832,0:0:0:0:
236,92,106756,5,2,0:0:0:0:
140,92,107184,1,0,0:0:0:0:
108,184,107613,1,0,0:0:0:0:
108,184,107827,1,0,0:0:0:0:
172,256,108255,6,2,L|212:208,1,60
344,260,109111,2,0,L|300:208,1,60
156,116,110396,6,0,L|152:56,2,60,0|2|0,0:0|0:0|0:0,0:0:0:0:
204,128,111038,2,0,L|200:196,1,60,2|0,0:0|0:0,0:0:0:0:
388,220,112109,6,0,L|404:160,2,60,0|2|0,0:0|0:0|0:0,0:0:0:0:
376,268,112751,2,0,L|312:284,1,60,0|2,0:0|0:0,0:0:0:0:
176,300,113607,2,0,B|113:302|113:302|108:240,1,120,8|2,0:0|0:0,0:0:0:0:
120,148,114464,2,0,L|76:92,1,60,8|2,0:0|0:0,0:0:0:0:
184,84,115748,5,8,0:0:0:0:
272,120,116177,2,0,L|256:156,2,30,0|0|0,0:0|0:0|0:0,0:0:0:0:
320,132,116605,2,0,L|336:92,2,30,0|0|0,0:0|0:0|0:0,0:0:0:0:
320,276,117461,5,0,0:0:0:0:
320,276,117889,1,0,0:0:0:0:
316,176,119174,5,0,0:0:0:0:
236,228,119602,1,0,0:0:0:0:
232,132,120887,5,4,0:0:0:0:
232,132,121315,1,4,0:0:0:0:
232,132,121743,1,4,0:0:0:0:
152,80,122171,1,0,0:0:0:0:
96,160,122600,5,8,0:0:0:0:
96,160,122814,2,2,P|100:216|148:264,1,120
328,172,123884,5,8,0:0:0:0:
328,76,124313,1,8,0:0:0:0:
232,72,124741,2,0,L|136:144,1,120,8|4,0:0|0:0,0:0:0:0:
60,200,125597,5,8,0:0:0:0:
60,296,126025,1,8,0:0:0:0:
156,300,126454,2,0,L|280:300,1,120,8|4,0:0|0:0,0:0:0:0:
372,300,127310,5,8,0:0:0:0:
420,216,127738,1,8,0:0:0:0:
420,120,128166,2,0,L|464:80,2,60,8|0|4,0:0|0:0|0:0,0:0:0:0:
248,204,129451,2,0,B|204:236|160:168|120:212,1,120
256,56,130736,5,8,0:0:0:0:
268,152,131164,1,8,0:0:0:0:
304,240,131592,2,0,L|348:196,2,60,8|4|8,0:0|0:0|0:0,0:0:0:0:
252,320,132448,5,8,0:0:0:0:
212,232,132877,1,8,0:0:0:0:
252,144,133305,2,0,L|212:92,2,60,8|4|8,0:0|0:0|0:0,0:0:0:0:
348,144,134161,5,8,0:0:0:0:
348,144,134589,1,8,0:0:0:0:
352,240,135018,1,8,0:0:0:0:
352,240,135446,1,2,0:0:0:0:
256,192,135874,12,8,137159,0:0:0:0:
272,144,137587,5,4,0:0:0:0:
208,152,138229,6,0,L|152:192,1,60
160,284,138871,5,8,0:0:0:0:
160,284,139086,1,0,0:0:0:0:
284,280,140156,5,4,0:0:0:0:
348,208,140584,1,4,0:0:0:0:
408,132,141012,1,4,0:0:0:0:
232,60,141869,5,12,0:0:0:0:
176,140,142297,1,4,0:0:0:0:
120,216,142725,1,4,0:0:0:0:
276,328,143582,6,0,L|312:272,1,60,8|0,0:0|0:0,0:0:0:0:
332,236,144010,2,0,L|366:186,1,60,8|0,0:0|0:0,0:0:0:0:
392,148,144438,2,2,B|394:130|394:130|306:78,1,120
176,96,150219,6,0,B|264:96|264:96|264:72|264:72|336:72,1,180,0|8,0:0|0:0,0:0:0:0:
248,256,152146,5,8,0:0:0:0:
144,108,152788,2,0,L|220:108,1,60,0|8,0:0|0:0,0:0:0:0:
256,292,153859,5,8,0:0:0:0:
256,292,154287,1,8,0:0:0:0:
256,292,154715,1,8,0:0:0:0:
116,252,155357,6,0,P|108:160|168:104,1,180,0|8,0:0|0:0,0:0:0:0:
196,196,156428,6,0,B|276:188|224:104|344:120,1,180,8|0,0:0|0:0,0:0:0:0:
348,264,157712,2,0,L|366:320,1,60,8|0,0:0|0:0,0:0:0:0:
228,288,158569,5,4,0:0:0:0:
256,196,158997,2,0,L|268:64,1,120,4|0,0:0|0:0,0:0:0:0:
256,192,160282,12,0,161994,0:0:0:0:
168,96,163493,6,0,L|168:172,3,60
80,236,164564,1,0,0:0:0:0:
256,328,164992,5,8,0:0:0:0:
248,232,165420,1,8,0:0:0:0:
256,136,165848,1,8,0:0:0:0:
388,192,166491,2,0,P|376:256|312:288,1,120
236,292,167347,1,0,0:0:0:0:
256,192,167561,12,0,168846,0:0:0:0:
80,200,169916,6,0,B|112:28|328:116,1,300
356,136,171201,2,0,P|396:212|324:276,1,180,0|4,0:0|0:0,0:0:0:0:
252,308,172271,1,0,0:0:0:0:
196,124,173128,6,0,L|139:142,3,60,0|0|0|0,0:0|0:0|0:0|0:0,0:0:0:0:
124,236,174198,2,0,P|52:180|72:84,1,180
100,72,175055,6,0,B|308:48|356:212,1,300
336,284,176553,2,0,P|312:308|264:316,1,60
244,232,177196,1,0,0:0:0:0:
160,276,177624,6,2,P|96:264|56:208,1,120
88,132,178480,6,2,P|148:120|212:160,1,120
336,184,179551,1,8,0:0:0:0:
336,184,179765,1,0,0:0:0:0:
344,280,180193,6,2,B|252:284|252:284|224:295,1,120
172,160,181264,2,0,L|192:188,2,30,0|0|0,0:0|0:0|0:0,0:0:0:0:
196,120,181692,2,0,L|178:95,2,30,0|0|0,0:0|0:0|0:0,0:0:0:0:
244,256,182548,5,8,0:0:0:0:
240,160,182977,1,8,0:0:0:0:
240,164,184261,5,8,0:0:0:0:
144,160,184689,1,8,0:0:0:0:
432,164,185974,5,4,0:0:0:0:
372,240,186402,1,4,0:0:0:0:
276,228,186830,1,4,0:0:0:0:
220,308,187259,1,4,0:0:0:0:
128,280,187687,1,8,0:0:0:0:
128,280,187901,1,0,0:0:0:0:
92,192,188329,6,2,B|92:180|92:180|140:180,1,60
304,80,189400,5,0,0:0:0:0:
344,168,189828,1,0,0:0:0:0:
288,304,191112,5,0,0:0:0:0:
192,304,191541,1,0,0:0:0:0:
260,24,192825,5,4,0:0:0:0:
220,112,193253,1,4,0:0:0:0:
284,184,193682,1,4,0:0:0:0:
284,280,194110,1,8,0:0:0:0:
208,156,194752,2,0,L|172:100,1,60,0|8,0:0|0:0,0:0:0:0:
336,204,196893,2,0,B|296:264|296:264|228:224|228:224|192:292|192:292|112:256,1,300
88,292,198178,1,0,0:0:0:0:
256,192,198606,12,0,199676,0:0:0:0:
168,232,202460,6,2,B|176:184|176:184|212:176|212:176|224:120,1,120
332,52,203530,2,0,L|400:52,1,60,8|0,0:0|0:0,0:0:0:0:
276,140,204387,1,8,0:0:0:0:
252,236,204815,1,0,0:0:0:0:
156,248,205243,2,4,L|108:312,2,60
124,156,206100,5,0,0:0:0:0:
188,80,206528,5,8,0:0:0:0:
272,128,206956,1,8,0:0:0:0:
272,128,207170,1,0,0:0:0:0:
256,192,207598,12,0,209097,0:0:0:0:
168,164,209525,6,0,L|168:232,1,60
268,328,210382,6,2,L|328:324,1,60
356,288,210810,1,0,0:0:0:0:
256,192,211024,12,0,212951,0:0:0:0:
268,256,213807,5,8,0:0:0:0:
348,208,214235,1,8,0:0:0:0:
348,208,214450,2,2,B|328:172|356:116|336:84,1,120
156,148,215734,6,2,B|176:112|148:56|164:29,1,120
256,140,216805,5,8,0:0:0:0:
240,236,217233,1,8,0:0:0:0:
332,264,217661,1,8,0:0:0:0:
332,264,217875,2,2,B|340:172|340:172|380:168,1,120
228,132,218946,6,0,B|200:204|200:204|252:240|228:316,1,180,2|0,0:0|0:0,0:0:0:0:
256,188,221087,22,2,B|268:148|268:148|296:168,1,60
