osu file format v13

[General]
AudioFilename: Pearl Jam - Do The Evolution 192.mp3
AudioLeadIn: 3800
PreviewTime: 78923
Countdown: 0
SampleSet: Normal
StackLeniency: 0.7
Mode: 0
LetterboxInBreaks: 1
WidescreenStoryboard: 0

[Editor]
Bookmarks: 14478,32677,37815,65220,89200,92625,109754,123884,137373,145723,150005,163493,182334,200533,203102,221087
DistanceSpacing: 1.2
BeatDivisor: 4
GridSize: 4
TimelineZoom: 1

[Metadata]
Title:Do the Evolution
TitleUnicode:Do the Evolution
Artist:Pearl Jam
ArtistUnicode:Pearl Jam
Creator:ego_17
Version:Hard
Source:Yield
Tags:
BeatmapID:279047
BeatmapSetID:106279

[Difficulty]
HPDrainRate:6
CircleSize:4
OverallDifficulty:6
ApproachRate:7
SliderMultiplier:1.2
SliderTickRate:1

[Events]
//Background and Video events
0,0,"BGimg.png",0,0
//Break Periods
2,31592,36059
2,102032,105856
2,145923,149319
2,199876,201560
//Storyboard Layer 0 (Background)
//Storyboard Layer 1 (Fail)
//Storyboard Layer 2 (Pass)
//Storyboard Layer 3 (Foreground)
//Storyboard Sound Samples
//Background Colour Transformations
3,100,163,162,255

[TimingPoints]
7413,428.204396231801,4,1,0,80,1,0
65434,-100,4,1,0,40,0,0
78923,-100,4,1,0,80,0,0
106756,-100,4,1,0,80,0,1
117033,-100,4,1,0,80,0,0
123884,-100,4,1,0,35,0,0
137159,-100,4,1,0,80,0,0
164992,-100,4,1,0,80,0,1
182120,-100,4,1,0,80,0,0
200533,-100,4,1,0,65,0,0
215734,-100,4,1,0,30,0,0

[HitObjects]
256,192,6342,12,0,9126,0:0:0:0:
396,296,9982,5,8,0:0:0:0:
344,192,10410,1,8,0:0:0:0:
344,192,10624,2,2,L|224:196,1,120
224,196,11267,1,2,0:0:0:0:
116,244,11695,2,0,L|140:304,1,60,8|2,0:0|0:0,0:0:0:0:
188,264,12123,1,8,0:0:0:0:
188,264,12337,2,2,L|284:192,1,120
284,192,12980,1,8,0:0:0:0:
372,108,13408,6,0,L|372:144,2,30,0|0|2,0:0|0:0|0:0,0:0:0:0:
312,116,13836,1,8,0:0:0:0:
252,128,14050,1,0,0:0:0:0:
148,184,14478,2,0,L|116:244,1,60,0|8,0:0|0:0,0:0:0:0:
140,292,14906,6,0,L|260:292,1,120
320,292,15549,1,8,0:0:0:0:
356,244,15763,2,0,L|356:184,1,60,0|8,0:0|0:0,0:0:0:0:
416,196,16191,2,0,L|416:136,1,60
380,88,16619,2,0,P|332:52|264:52,1,120
220,76,17261,1,0,0:0:0:0:
220,76,17476,2,0,P|191:142|196:196,1,120
200,248,18118,5,8,0:0:0:0:
200,248,18332,2,0,L|204:312,1,60,0|8,0:0|0:0,0:0:0:0:
324,284,18974,1,8,0:0:0:0:
264,180,19402,1,8,0:0:0:0:
264,180,19617,1,0,0:0:0:0:
216,140,19831,1,8,0:0:0:0:
216,140,20045,1,0,0:0:0:0:
324,88,20473,6,2,B|312:124|312:124|288:108,1,60
200,264,21329,2,0,L|264:276,2,60
228,160,22186,5,0,0:0:0:0:
276,196,22400,1,8,0:0:0:0:
220,216,22614,1,0,0:0:0:0:
120,280,23042,6,0,L|180:288,3,60,0|8|0|8,0:0|0:0|0:0|0:0,0:0:0:0:
180,288,24112,1,0,0:0:0:0:
180,288,24327,6,2,B|184:232|184:232|176:164,1,120
176,168,24969,5,8,0:0:0:0:
80,96,25397,1,4,0:0:0:0:
196,60,25825,1,4,0:0:0:0:
308,104,26254,1,8,0:0:0:0:
308,104,26468,1,4,0:0:0:0:
388,192,26896,1,4,0:0:0:0:
300,276,27324,6,2,B|275:265|275:265|267:297,1,60,2|2,0:0|0:0,0:0:0:0:
252,356,27752,1,8,0:0:0:0:
120,180,28181,5,0,0:0:0:0:
180,180,28395,1,8,0:0:0:0:
296,208,28823,1,8,0:0:0:0:
236,208,29037,1,0,0:0:0:0:
296,208,29251,1,8,0:0:0:0:
236,208,29465,1,0,0:0:0:0:
232,148,29679,6,0,L|292:148,2,60
232,148,30322,2,2,P|179:178|156:232,1,120
188,284,30964,1,4,0:0:0:0:
308,288,31392,5,0,0:0:0:0:
208,104,36959,5,4,0:0:0:0:
328,124,37387,1,4,0:0:0:0:
376,160,37601,1,0,0:0:0:0:
400,216,37815,1,4,0:0:0:0:
388,276,38029,1,0,0:0:0:0:
388,276,38136,1,0,0:0:0:0:
388,276,38243,1,4,0:0:0:0:
340,312,38458,1,8,0:0:0:0:
284,328,38672,1,0,0:0:0:0:
224,328,38886,6,2,P|168:296|152:228,1,120,8|2,0:0|0:0,0:0:0:0:
148,188,39528,1,4,0:0:0:0:
148,128,39742,2,0,L|148:68,1,60,0|8,0:0|0:0,0:0:0:0:
208,68,40170,1,0,0:0:0:0:
208,68,40384,1,8,0:0:0:0:
268,68,40599,2,2,B|292:112|240:144|268:188,1,120
300,232,41241,1,4,0:0:0:0:
300,292,41455,2,0,L|228:292,1,60,0|8,0:0|0:0,0:0:0:0:
120,292,42097,5,4,0:0:0:0:
116,52,42525,1,4,0:0:0:0:
188,280,42954,1,4,0:0:0:0:
184,24,43382,1,8,0:0:0:0:
244,28,43596,1,0,0:0:0:0:
300,52,43810,1,8,0:0:0:0:
344,92,44024,1,0,0:0:0:0:
360,212,44452,6,2,L|360:272,2,60
248,172,45309,5,0,0:0:0:0:
264,232,45523,1,0,0:0:0:0:
272,292,45737,2,2,B|216:312|216:312|152:303,1,120
156,240,46379,1,0,0:0:0:0:
160,180,46593,2,0,L|164:120,1,60,0|8,0:0|0:0,0:0:0:0:
232,124,47022,2,0,L|232:60,3,60,0|8|0|8,0:0|0:0|0:0|0:0,0:0:0:0:
256,184,48949,5,4,0:0:0:0:
196,80,49377,1,4,0:0:0:0:
92,140,49805,1,4,0:0:0:0:
148,244,50233,1,8,0:0:0:0:
168,244,50447,1,0,0:0:0:0:
192,244,50661,1,8,0:0:0:0:
252,244,50875,2,0,L|312:244,1,60,0|8,0:0|0:0,0:0:0:0:
212,176,51304,6,0,B|192:172|192:172|180:188|180:188|160:180,1,60,2|0,0:0|0:0,0:0:0:0:
104,164,51732,5,0,0:0:0:0:
104,164,51839,1,0,0:0:0:0:
104,164,51946,1,0,0:0:0:0:
128,108,52160,2,0,L|120:48,2,60,0|8|0,0:0|0:0|0:0,0:0:0:0:
188,120,52802,1,8,0:0:0:0:
188,120,53016,1,0,0:0:0:0:
156,172,53230,5,0,0:0:0:0:
156,172,53445,2,0,P|208:192|276:168,1,120
240,120,54087,1,8,0:0:0:0:
240,120,54301,1,0,0:0:0:0:
292,228,54729,1,0,0:0:0:0:
292,228,54943,1,8,0:0:0:0:
292,228,55157,1,0,0:0:0:0:
280,164,55586,6,2,L|324:124,1,60,0|8,0:0|0:0,0:0:0:0:
384,116,56014,2,0,L|388:56,2,60,0|8|2,0:0|0:0|0:0,0:0:0:0:
404,172,56656,5,8,0:0:0:0:
404,172,56870,1,0,0:0:0:0:
316,252,57299,2,0,L|316:312,2,60,0|2|0,0:0|0:0|0:0,0:0:0:0:
256,244,57941,2,0,L|264:180,1,60,0|2,0:0|0:0,0:0:0:0:
204,172,58369,2,8,L|208:112,2,60
160,284,59225,5,4,0:0:0:0:
96,184,59654,1,4,0:0:0:0:
96,184,59868,1,0,0:0:0:0:
128,132,60082,5,4,0:0:0:0:
128,132,60296,2,2,B|164:156|164:156|153:192|153:192|184:216,1,120
232,172,60938,2,0,L|276:132,1,60,8|0,0:0|0:0,0:0:0:0:
324,244,61581,2,2,L|324:304,2,60,2|2|2,0:0|0:0|0:0,0:0:0:0:
404,212,62437,5,0,0:0:0:0:
404,212,62651,1,8,0:0:0:0:
372,160,62865,1,0,0:0:0:0:
336,112,63079,1,8,0:0:0:0:
336,112,63293,1,0,0:0:0:0:
216,112,63722,2,2,L|276:112,1,60,0|0,0:0|0:0,0:0:0:0:
280,172,64150,2,0,L|192:172,4,60,0|0|0|0|2,0:0|0:0|0:0|0:0|0:0,0:0:0:0:
372,92,65434,6,0,L|372:152,1,60
372,212,65863,1,4,0:0:0:0:
372,272,66077,1,4,0:0:0:0:
272,336,66505,2,0,L|196:336,1,60
152,332,66933,1,0,0:0:0:0:
92,332,67147,2,0,L|132:288,1,60
160,236,67575,6,4,L|208:236,2,30,4|4|4,0:0|0:0|0:0,0:0:0:0:
88,132,68218,2,0,L|208:132,1,120
268,132,68860,1,0,0:0:0:0:
228,244,69288,1,4,0:0:0:0:
284,268,69502,2,4,L|268:328,1,60
328,340,69931,2,0,L|360:224,1,120
376,168,70573,6,0,L|384:140,2,30
316,168,71001,1,8,0:0:0:0:
316,168,71215,1,8,0:0:0:0:
316,108,71429,2,2,L|376:108,1,60
372,48,71857,2,2,L|312:48,1,60,2|0,0:0|0:0,0:0:0:0:
252,48,72286,5,2,0:0:0:0:
160,124,72714,1,4,0:0:0:0:
148,184,72928,1,6,0:0:0:0:
204,288,73356,2,2,P|264:300|320:260,1,120,0|4,0:0|0:0,0:0:0:0:
256,192,74213,12,4,75497,0:0:0:0:
92,248,75925,5,0,0:0:0:0:
108,176,76139,2,0,L|160:140,1,60
220,172,76568,2,0,L|256:120,1,60
340,64,76996,1,0,0:0:0:0:
400,64,77210,1,4,0:0:0:0:
400,64,77424,2,0,P|384:124|332:156,1,120,4|0,0:0|0:0,0:0:0:0:
276,192,78066,1,0,0:0:0:0:
232,212,78281,2,2,P|183:245|169:302,1,120
240,304,78923,1,0,0:0:0:0:
312,304,79137,6,2,P|296:240|248:212,1,120
176,180,79779,1,8,0:0:0:0:
132,68,80207,2,0,L|192:72,1,60,8|0,0:0|0:0,0:0:0:0:
252,80,80636,5,8,0:0:0:0:
252,80,80850,1,0,0:0:0:0:
340,164,81278,2,0,P|364:188|356:216,1,60,0|8,0:0|0:0,0:0:0:0:
260,276,81920,1,8,0:0:0:0:
164,204,82348,5,8,0:0:0:0:
164,204,82563,1,0,0:0:0:0:
252,48,82991,1,0,0:0:0:0:
252,48,83205,1,8,0:0:0:0:
156,120,83633,1,4,0:0:0:0:
276,132,84061,1,4,0:0:0:0:
396,140,84489,2,2,L|396:204,1,60
396,260,84918,1,0,0:0:0:0:
232,280,85346,5,0,0:0:0:0:
232,280,85560,2,0,P|172:248|140:192,1,120
136,148,86202,1,8,0:0:0:0:
256,148,86631,1,8,0:0:0:0:
152,88,87059,2,2,P|192:32|252:20,1,120
256,192,87701,12,0,88772,0:0:0:0:
180,188,90484,6,0,L|240:188,1,60
328,188,92197,1,0,0:0:0:0:
328,188,92411,1,0,0:0:0:0:
260,272,93696,1,0,0:0:0:0:
200,272,93910,6,0,L|260:272,1,60,8|0,0:0|0:0,0:0:0:0:
280,156,94552,2,2,P|336:160|376:216,1,120
276,276,95409,1,0,0:0:0:0:
216,276,95623,6,0,L|276:276,1,60,8|0,0:0|0:0,0:0:0:0:
220,168,96265,2,2,P|156:172|124:224,1,120
188,224,96907,1,8,0:0:0:0:
192,104,97336,5,4,0:0:0:0:
312,112,97764,1,4,0:0:0:0:
404,188,98192,1,4,0:0:0:0:
312,112,98620,1,4,0:0:0:0:
404,188,99048,1,4,0:0:0:0:
424,308,99477,2,0,L|360:308,1,60,4|0,0:0|0:0,0:0:0:0:
244,304,100119,1,0,0:0:0:0:
256,192,100547,12,0,101832,0:0:0:0:
236,92,106756,5,2,0:0:0:0:
236,152,106970,2,0,L|236:216,1,60,0|2,0:0|0:0,0:0:0:0:
236,332,107613,1,0,0:0:0:0:
288,300,107827,1,0,0:0:0:0:
252,252,108041,2,0,L|196:288,1,60
168,232,108469,2,2,L|216:196,1,60
268,164,108897,1,2,0:0:0:0:
348,256,109325,2,0,L|304:204,1,60
276,96,109968,5,0,0:0:0:0:
160,120,110396,2,0,L|224:104,2,60,0|2|0,0:0|0:0|0:0,0:0:0:0:
156,180,111038,2,2,L|152:248,1,60,8|0,0:0|0:0,0:0:0:0:
240,152,111680,6,0,B|268:136|268:136|300:136,1,60,0|2,0:0|0:0,0:0:0:0:
300,196,112109,2,0,L|300:256,1,60,0|8,0:0|0:0,0:0:0:0:
240,252,112537,2,2,L|176:268,1,60,0|8,0:0|0:0,0:0:0:0:
124,284,112965,1,2,0:0:0:0:
164,168,113393,5,0,0:0:0:0:
164,108,113607,2,2,L|228:108,1,60,0|0,0:0|0:0,0:0:0:0:
284,108,114036,1,8,0:0:0:0:
368,192,114464,1,8,0:0:0:0:
368,192,114678,1,2,0:0:0:0:
300,292,115106,6,2,B|264:288|264:288|212:300|212:300|180:296,1,120
120,292,115748,1,8,0:0:0:0:
176,188,116177,2,0,L|200:216,2,30,8|0|0,0:0|0:0|0:0,0:0:0:0:
224,152,116605,2,0,L|248:180,2,30,8|0|0,0:0|0:0|0:0,0:0:0:0:
360,272,117461,5,0,0:0:0:0:
252,328,117889,1,0,0:0:0:0:
296,164,119174,5,0,0:0:0:0:
200,232,119602,1,0,0:0:0:0:
156,112,120887,5,4,0:0:0:0:
156,112,121315,1,4,0:0:0:0:
156,112,121743,1,4,0:0:0:0:
40,136,122171,1,8,0:0:0:0:
40,136,122386,1,0,0:0:0:0:
40,136,122600,1,8,0:0:0:0:
40,136,122814,2,2,L|152:188,1,120
328,172,123884,5,8,0:0:0:0:
324,52,124313,1,8,0:0:0:0:
208,88,124741,2,0,L|208:160,1,60,8|4,0:0|0:0,0:0:0:0:
208,208,125169,1,8,0:0:0:0:
148,312,125597,5,8,0:0:0:0:
256,264,126025,1,8,0:0:0:0:
360,204,126454,1,8,0:0:0:0:
360,204,126668,1,4,0:0:0:0:
360,204,126882,1,8,0:0:0:0:
140,100,127310,5,8,0:0:0:0:
252,60,127738,1,8,0:0:0:0:
368,88,128166,1,8,0:0:0:0:
368,88,128380,1,4,0:0:0:0:
368,88,128595,1,8,0:0:0:0:
284,312,129023,5,0,0:0:0:0:
228,204,129451,2,0,B|184:236|140:168|100:212,1,120
120,320,130307,1,0,0:0:0:0:
192,224,130736,5,8,0:0:0:0:
272,140,131164,1,8,0:0:0:0:
340,236,131592,2,0,L|384:192,2,60,8|4|8,0:0|0:0|0:0,0:0:0:0:
260,324,132448,5,8,0:0:0:0:
172,240,132877,1,8,0:0:0:0:
264,164,133305,2,0,L|224:112,2,60,8|4|8,0:0|0:0|0:0,0:0:0:0:
172,240,134161,5,8,0:0:0:0:
100,144,134589,1,8,0:0:0:0:
196,72,135018,1,8,0:0:0:0:
196,72,135232,1,0,0:0:0:0:
196,72,135446,1,2,0:0:0:0:
256,192,135874,12,8,137159,0:0:0:0:
88,152,137587,5,4,0:0:0:0:
88,152,138015,1,0,0:0:0:0:
208,152,138443,1,0,0:0:0:0:
208,152,138871,5,8,0:0:0:0:
208,152,139086,1,0,0:0:0:0:
268,152,139300,1,8,0:0:0:0:
388,152,139728,5,8,0:0:0:0:
304,236,140156,5,4,0:0:0:0:
420,204,140584,1,4,0:0:0:0:
352,104,141012,1,4,0:0:0:0:
116,72,141869,5,12,0:0:0:0:
116,192,142297,1,4,0:0:0:0:
112,312,142725,1,4,0:0:0:0:
220,96,143582,6,0,L|184:148,1,60,8|0,0:0|0:0,0:0:0:0:
136,112,144010,2,0,L|172:60,1,60,8|0,0:0|0:0,0:0:0:0:
220,96,144438,2,2,B|308:148|308:148|304:172,1,120
184,168,145295,6,0,B|182:151|182:151|270:99,1,120
168,160,150219,6,0,B|256:160|256:160|256:136|256:136|328:136,1,180,0|8,0:0|0:0,0:0:0:0:
372,100,151075,5,0,0:0:0:0:
420,208,151503,2,0,L|356:208,1,60,0|8,0:0|0:0,0:0:0:0:
248,256,152146,1,8,0:0:0:0:
144,108,152788,6,0,L|220:108,1,60,0|8,0:0|0:0,0:0:0:0:
312,160,153430,1,8,0:0:0:0:
248,264,153859,5,8,0:0:0:0:
248,168,154287,1,8,0:0:0:0:
328,224,154715,1,8,0:0:0:0:
104,260,155357,6,0,P|96:168|156:112,1,180,0|8,0:0|0:0,0:0:0:0:
212,220,156428,6,0,P|272:164|264:72,1,180,8|0,0:0|0:0,0:0:0:0:
208,48,157284,1,0,0:0:0:0:
148,48,157498,1,8,0:0:0:0:
100,84,157712,1,8,0:0:0:0:
84,144,157927,1,0,0:0:0:0:
264,308,158569,5,4,0:0:0:0:
268,172,158997,1,4,0:0:0:0:
64,44,159853,1,0,0:0:0:0:
256,192,160282,12,0,161994,0:0:0:0:
204,196,163493,6,0,L|204:272,1,60,0|8,0:0|0:0,0:0:0:0:
264,260,163921,2,0,L|296:200,1,60,0|8,0:0|0:0,0:0:0:0:
272,148,164350,1,0,0:0:0:0:
272,148,164564,1,8,0:0:0:0:
160,108,164992,5,8,0:0:0:0:
280,124,165420,1,8,0:0:0:0:
312,240,165848,1,8,0:0:0:0:
312,240,166062,1,0,0:0:0:0:
312,240,166277,1,8,0:0:0:0:
312,240,166491,2,0,L|192:252,1,120
152,208,167133,1,0,0:0:0:0:
120,156,167347,1,0,0:0:0:0:
256,192,167561,12,0,168418,0:0:0:0:
256,280,168846,5,0,0:0:0:0:
140,308,169274,1,0,0:0:0:0:
44,236,169702,1,0,0:0:0:0:
92,148,169916,6,0,B|92:0|340:112,1,300
376,152,171201,2,0,P|356:216|240:260,1,180
144,292,172271,1,0,0:0:0:0:
120,172,172700,1,0,0:0:0:0:
120,172,172914,1,0,0:0:0:0:
136,112,173128,2,0,L|196:92,3,60
252,104,173984,1,0,0:0:0:0:
304,136,174198,2,0,P|360:184|304:256,1,180
248,268,175055,6,0,B|200:268|200:284|128:288,1,120
76,260,175698,1,2,0:0:0:0:
164,176,175911,1,0,0:0:0:0:
208,136,176125,2,0,P|220:76|276:44,1,120
292,100,176768,2,0,P|304:172|356:200,1,120
400,192,177410,1,0,0:0:0:0:
424,136,177624,2,0,B|416:56|332:60,1,120
232,96,178266,1,0,0:0:0:0:
228,180,178480,6,2,L|220:300,1,120
220,300,179123,1,8,0:0:0:0:
164,316,179337,1,0,0:0:0:0:
104,308,179551,1,8,0:0:0:0:
52,276,179765,1,0,0:0:0:0:
52,156,180193,6,2,L|176:140,1,120
180,80,180835,2,0,L|244:88,1,60,8|0,0:0|0:0,0:0:0:0:
292,164,181264,2,0,L|312:192,2,30,8|0|0,0:0|0:0|0:0,0:0:0:0:
340,132,181692,1,8,0:0:0:0:
340,132,181906,1,0,0:0:0:0:
324,252,182334,5,0,0:0:0:0:
324,252,182548,1,8,0:0:0:0:
240,164,182977,1,8,0:0:0:0:
240,164,184047,1,0,0:0:0:0:
240,164,184261,1,8,0:0:0:0:
176,264,184689,1,8,0:0:0:0:
176,264,185760,5,0,0:0:0:0:
176,264,185974,1,4,0:0:0:0:
120,160,186402,1,4,0:0:0:0:
188,60,186830,1,4,0:0:0:0:
288,124,187259,1,4,0:0:0:0:
360,220,187687,1,8,0:0:0:0:
360,220,187901,1,0,0:0:0:0:
248,260,188329,6,2,B|200:260|200:260|200:288,1,60
240,96,189185,6,0,B|268:84|268:84|312:92,1,60
276,148,189614,2,0,B|252:164|252:164|200:156,1,60
212,280,190256,1,8,0:0:0:0:
156,300,190470,2,2,P|92:256|92:212,1,120
116,164,191112,6,0,L|172:132,1,60
228,136,191541,2,0,L|280:164,1,60
320,80,192825,5,4,0:0:0:0:
212,128,193253,1,4,0:0:0:0:
300,208,193682,1,4,0:0:0:0:
216,292,194110,1,8,0:0:0:0:
160,268,194324,1,0,0:0:0:0:
180,212,194538,1,8,0:0:0:0:
124,188,194752,2,0,L|88:132,1,60,0|8,0:0|0:0,0:0:0:0:
260,72,195609,6,0,B|300:64|300:64|308:84,1,60
324,142,196037,2,0,B|332:160|332:160|372:152,2,60
392,208,196679,2,0,L|416:276,1,60
360,296,197107,2,0,L|296:312,1,60
280,252,197535,2,0,L|232:208,1,60
200,292,197964,1,0,0:0:0:0:
124,252,198178,2,0,L|168:208,1,60
256,192,198606,12,0,199676,0:0:0:0:
200,236,202460,6,2,B|188:192|188:192|212:176|212:176|200:124,1,120
216,72,203102,1,8,0:0:0:0:
320,136,203530,2,0,L|312:200,1,60,8|0,0:0|0:0,0:0:0:0:
312,195,203959,1,8,0:0:0:0:
296,316,204387,1,8,0:0:0:0:
216,224,204815,5,0,0:0:0:0:
216,224,205029,2,0,P|192:188|216:240,1,300
420,128,206527,5,8,0:0:0:0:
300,120,206956,1,8,0:0:0:0:
300,120,207170,1,0,0:0:0:0:
256,192,207598,12,0,209097,0:0:0:0:
168,164,209525,6,0,L|168:232,1,60
228,236,209953,6,0,L|228:296,1,60
288,292,210381,6,2,L|348:288,1,60
348,228,210809,1,0,0:0:0:0:
348,228,211024,2,0,L|348:160,1,60
288,168,211452,2,0,L|268:100,1,60
212,124,211880,2,0,L|184:72,1,60
140,112,212308,2,2,B|104:168|104:168|144:212|144:212|112:264,1,180
352,304,213808,5,8,0:0:0:0:
444,228,214236,1,8,0:0:0:0:
444,228,214450,2,2,B|424:192|452:136|432:104,1,120
212,188,215734,6,2,B|232:120|232:120|276:120,1,90
324,296,216804,5,8,0:0:0:0:
204,292,217232,1,8,0:0:0:0:
308,228,217661,1,8,0:0:0:0:
308,228,217875,2,2,B|316:136|316:136|356:132,1,120
196,124,218946,6,0,L|196:188,1,60,2|0,0:0|0:0,0:0:0:0:
316,188,219374,2,2,L|316:256,1,60
256,188,221087,22,2,B|268:148|268:148|296:168,1,60
