osu file format v5

[General]
AudioFilename: E[1].G.G.M.A.N.mp3
AudioLeadIn: 0
PreviewTime: -1
Countdown: 0
SampleSet: Normal
StackLeniency: 0.7
Mode: 0
LetterboxInBreaks: 0

[Metadata]
Title:E.G.G.M.A.N.
Artist:Paul Shortino
Creator:BB64
Version:Hard
Source:
Tags:Sonic adventure 2 battle E.G.G.M.A.N. Eggman Robotnik Ivo Sonic the hedgehog Tails Miles Prower Knuckles the Echidna Amy rose Metal Sonic Shadow the hedgehog Rouge the bat Chao

[Difficulty]
HPDrainRate:5
CircleSize:5
OverallDifficulty:5
SliderMultiplier:1.4
SliderTickRate:2

[Events]
//Background and Video events
0,0,"EggmanshipA.png"
//Break Periods
2,91806,97173
2,158122,162136
//Storyboard Layer 0 (Background)
//Storyboard Layer 1 (Failing)
//Storyboard Layer 2 (Passing)
//Storyboard Layer 3 (Foreground)
//Storyboard Sound Samples
//Background Colour Transformations
3,100,163,162,255

[TimingPoints]
479.097695012754,451.127819548872,4,1,0,100,1,0

[HitObjects]
256,192,479,1,0
320,96,1832,1,0
224,96,2734,2,0,B|64:96|64:96|320:160|320:160,1,420
320,64,4539,1,0
224,64,4990,1,0
224,160,5441,1,0
320,160,5892,1,0
320,64,6343,2,0,B|160:64|160:64|160:352,1,420
256,320,8148,5,0
320,256,8599,1,0
320,160,9050,1,0
256,96,9501,1,0
160,96,9952,2,0,B|64:96,3,140
32,160,11757,1,0
32,288,12659,1,0
128,288,13110,2,0,B|416:288,3,280
256,96,17621,5,0
96,64,19426,1,0
96,224,21230,1,0
192,320,21682,1,0
288,320,22133,1,0
384,224,22584,1,0
288,128,23035,1,0
192,128,23486,1,0
96,224,23937,1,0
192,320,24388,1,0
320,320,25291,5,0
384,224,27095,1,0
288,128,28900,1,0
160,96,29802,1,0
160,96,30253,1,0
160,96,30704,1,0
160,96,31155,1,0
256,96,31606,1,0
352,96,32058,2,0,B|512:96|512:96|512:384,1,420
384,352,33862,5,0
384,352,34313,1,0
384,352,34764,1,0
256,352,35215,5,0
160,352,35667,2,0,B|0:352|0:352|0:64,1,420
96,64,37471,1,0
96,64,37922,1,0
96,64,38373,1,0
192,64,38824,5,0
288,64,39276,2,0,B|448:64|448:64|448:352,1,420
320,320,41080,1,0
320,320,41531,1,0
320,320,41982,1,0
224,320,42433,5,0
160,320,42885,2,0,B|0:320|0:320|0:32,1,420
96,64,44689,1,0
96,64,45140,1,0
96,64,45591,1,0
256,64,47396,5,0
416,64,49200,1,0
448,192,51005,1,0
448,192,51456,1,0
448,192,51907,1,0
448,192,52358,1,0
448,192,52809,1,0
448,320,54163,2,0,B|0:320,2,420
448,224,57772,5,0
448,224,58223,1,0
448,224,58674,1,0
448,224,59125,1,0
448,224,59576,1,0
448,224,60027,1,0
448,224,60479,1,0
448,224,60930,1,0
448,128,61832,2,0,B|288:128,2,140
320,64,64539,5,0
96,64,66343,1,0
96,160,68148,2,0,B|96:320,3,140
192,320,69952,1,0
384,320,71757,1,0
416,160,73561,1,0
416,64,75366,2,0,B|256:64,3,140
192,64,77170,5,0
96,64,77621,1,0
96,160,78073,1,0
96,256,78524,1,0
192,320,78975,1,0
288,320,79426,1,0
384,320,79877,1,0
448,256,80328,1,0
256,192,80779,12,0,83486
256,192,84388,5,0
256,96,86193,1,0
256,192,87997,12,0,91606
256,192,98373,5,0
256,128,98824,2,0,B|256:32|256:32|64:32|64:32|64:192,1,420
64,256,100629,1,0
64,256,101080,1,0
64,256,101531,1,0
160,320,101982,5,0
256,320,102433,2,0,B|480:320|480:320|480:96,1,420
448,64,104238,1,0
448,64,104689,1,0
448,64,105140,1,0
352,64,105591,5,0
256,64,106043,2,0,B|32:64|32:64|32:288,1,420
96,320,107847,1,0
96,320,108298,1,0
96,320,108749,1,0
192,320,109200,5,0
288,320,109652,2,0,B|480:320|480:320|480:64,1,420
352,64,111456,1,0
352,64,111907,1,0
352,64,112358,1,0
256,64,113261,6,0,B|64:64|64:64|64:288|64:288|224:288,1,560
288,288,115516,1,0
416,288,116870,1,0
416,160,118223,1,0
416,64,118674,2,0,B|256:64,7,140
160,64,122283,5,0
64,64,124088,1,0
64,160,125892,1,0
64,256,127246,2,0,B|224:256,5,140
320,256,131306,5,0
416,256,133110,1,0
416,160,134915,2,0,B|416:0,4,140
288,64,138524,5,0
96,64,140328,1,0
64,192,142133,2,0,B|64:352,3,140
192,320,144839,5,0
384,320,146644,1,0
416,192,148449,1,0
416,96,148900,1,0
416,96,149351,1,0
416,96,149802,1,0
416,96,150253,1,0
288,64,151155,5,0
128,64,152960,1,0
96,192,154764,1,0
96,288,156118,1,0
96,288,156569,1,0
96,288,157020,1,0
96,288,157471,1,0
96,288,157922,1,0
288,320,163336,5,0
352,320,163787,2,0,B|512:320|512:320|512:32,1,420
384,64,165591,1,0
384,64,166043,1,0
384,64,166494,1,0
256,64,166945,5,0
192,64,167396,2,0,B|32:64|32:64|32:320,1,280
64,288,168749,1,0
64,288,169200,1,0
64,288,169652,1,0
64,288,170103,1,0
160,320,170554,5,0
256,320,171005,2,0,B|480:320|480:320|480:96,1,420
416,64,172809,1,0
416,64,173261,1,0
416,64,173712,1,0
288,64,174163,5,0
224,64,174614,2,0,B|32:64|32:64|32:160,1,280
64,256,175967,1,0
64,256,176418,2,0,B|352:256,4,280
352,288,181381,5,0
416,224,181832,1,0
416,128,182283,1,0
352,64,182734,2,0,B|64:64,1,280
64,192,185441,5,0
128,192,185892,1,0
192,192,186343,1,0
256,192,186794,1,0
320,192,187246,2,0,B|480:192,1,140
448,64,189952,6,0,B|160:64,5,280
192,192,196268,6,0,B|352:192,2,140
