osu file format v9

[General]
AudioFilename: 01 - Can We Fix It - Bob The Builder.mp3
AudioLeadIn: 0
PreviewTime: 72536
Countdown: 1
SampleSet: Normal
StackLeniency: 0.7
Mode: 0
LetterboxInBreaks: 1

[Editor]
DistanceSpacing: 0.9
BeatDivisor: 8
GridSize: 8

[Metadata]
Title:Can We Fix It?
Artist:Paul K. Joyce
Creator:Bass-chan
Version:Easy
Source:Bob the Builder
Tags:collaboration collab cesc Mariobros777 Lily Mashley fartownik Gonzvlo Bass-chan Doomsday rEdo Fight69 Armin

[Difficulty]
HPDrainRate:2
CircleSize:3
OverallDifficulty:2
ApproachRate:3
SliderMultiplier:1.1
SliderTickRate:2

[Events]
//Background and Video events
0,0,"bigbob.jpg"
//Break Periods
2,50572,56992
2,87289,92813
2,151766,157290
//Storyboard Layer 0 (Background)
//Storyboard Layer 1 (Fail)
//Storyboard Layer 2 (Pass)
//Storyboard Layer 3 (Foreground)
//Storyboard Sound Samples
//Background Colour Transformations
3,100,163,162,255

[TimingPoints]
1119,447.761194029851,4,1,0,60,1,0
36939,-100,4,1,0,60,0,1
50372,-100,4,1,0,60,0,0
72760,-100,4,1,0,60,0,1
76454,-100,4,2,0,60,0,1
78021,-100,4,1,0,60,0,1
86193,-100,4,1,0,60,0,0
122910,-100,4,1,0,60,0,1
136342,-100,4,1,0,60,0,0
137182,-100,4,2,0,60,0,0
140316,-100,4,1,0,60,0,0
158730,-100,4,1,0,60,0,1
179999,-100,4,1,0,60,0,0

[Colours]
Combo1 : 255,128,0
Combo2 : 0,128,0
Combo3 : 255,255,0
Combo4 : 255,0,0
Combo5 : 0,0,183

[HitObjects]
176,192,8283,2,0,B|147:87|264:0|371:82|336:192|336:192,1,330,4|0
400,264,10074,1,0
304,280,10521,1,0
208,280,10969,1,0
112,264,11417,1,0
176,192,11865,6,0,B|72:168|91:65|91:65,2,165,4|0|0
184,96,13656,1,8
280,120,14104,1,8
376,88,14551,1,12
424,80,14775,6,2,B|408:152|432:200|432:200,1,110
448,232,15447,6,0,B|420:349|307:312|307:312,2,165,4|0|0
352,224,17238,1,8
256,248,17686,1,8
176,192,18133,2,2,B|192:136|176:80|176:80,1,110,8|2
96,136,19029,6,0,B|48:248|144:280|144:280,2,165,4|0|0
256,192,20820,8,4,22163
166,150,22611,6,0,B|196:99|255:73|324:91|349:154|349:154,1,220,2|8
181,257,24402,2,0,B|264:318|344:248,1,165,2|8
160,72,26193,5,2
256,40,26641,1,0
352,72,27089,1,8
196,193,27984,2,0,B|216:232|256:248|256:248|296:232|320:184,1,165,2|8
160,320,29775,5,2
256,352,30223,1,0
352,320,30671,1,8
196,199,31566,2,0,B|216:160|256:144|256:144|296:160|320:208,1,165,2|8
112,56,33357,5,2
88,152,33805,1,8
184,128,34253,1,2
400,56,35148,1,6
424,152,35596,1,8
328,128,36044,1,2
344,320,36939,6,6,B|336:376|216:376|304:288|156:293|159:360,1,220,6|0
72,288,38283,1,0
40,192,38730,1,8
72,96,39178,1,8
152,40,39626,1,0
248,24,40074,1,8
344,48,40521,6,6,B|472:96|480:232,1,220
464,304,41865,1,0
376,344,42313,1,4
136,344,43208,1,4
167,148,44104,6,0,B|191:96|258:74|328:94|355:163,1,220,6|8
256,184,45447,1,8
256,280,45895,1,4
256,80,46790,1,8
448,136,47686,6,6,B|536:224|464:384|296:304,1,330
216,288,49477,2,0,B|147:265|134:202,2,110,4|4|4
56,48,58432,6,0,B|16:128|40:192|160:240|216:128|184:64,1,330,0|8
280,40,60223,2,0,B|288:96|360:112,1,110,0|2
400,128,60895,2,0,B|416:200|352:256|304:248,1,165,4|8
480,304,62014,5,2
384,328,62462,1,2
288,304,62910,1,4
184,328,63357,2,0,B|128:352|72:328,1,110,8|0
128,248,64253,1,2
128,248,64477,1,4
32,80,65596,6,2,B|48:168|152:176|200:96,2,220,2|2|4
104,24,67835,1,2
200,24,68283,2,0,B|256:32,1,55,8|2
400,24,69178,5,4
448,112,69626,1,2
488,200,70074,1,8
480,296,70521,6,0,B|440:344,1,55
392,336,70969,1,4
320,272,71417,1,4
272,184,71865,1,4
88,112,72760,6,0,L|56:192|88:264,1,165,4|0
136,264,73656,2,0,L|256:264,1,110,0|0
336,312,74551,5,2
336,216,74999,1,2
336,120,75447,1,2
336,24,75895,1,2
248,72,76342,6,0,L|128:72,3,110,0|8|0|8
144,168,78133,5,4
248,192,78581,1,8
352,168,79029,1,0
336,64,79924,6,0,L|256:48|168:64,1,165,4|0
176,112,80820,2,0,L|64:112,1,110,0|0
72,208,81716,5,2
136,280,82163,1,2
208,208,82611,1,2
280,280,83059,1,2
352,208,83507,6,0,L|416:208,1,55,4|0
408,112,84178,1,0
408,112,84402,2,0,L|480:112,2,55
312,144,85298,5,4
256,64,85745,1,8
200,144,86193,1,0
256,336,87089,1,4
256,304,94253,6,0,B|128:304|64:144|120:48,1,330,0|8
208,48,96044,2,0,B|384:48,2,165,0|0|8
112,64,97835,6,0,B|111:189|271:253|354:204,1,330,0|8
312,120,99626,1,0
408,128,100074,1,0
368,40,100521,1,0
272,16,100969,1,8
192,72,101417,6,0,B|128:104|120:192,1,110
208,208,102313,1,0
120,248,102760,1,8
200,312,103208,6,0,B|248:368|344:304,1,110,0|0
392,288,104104,1,0
312,232,104551,1,8
440,160,105223,6,0,B|425:132|392:128,1,55,0|8
256,264,106342,1,0
194,192,106790,2,8,B|131:284|168:370|261:396|345:347|355:301|346:258,1,330,8|0
400,208,108581,6,0,B|400:96|288:48,1,165,0|0
216,168,109924,1,8
184,72,110372,2,0,B|110:99|110:211,1,165,0|0
160,296,111492,1,0
328,312,112163,6,0,B|376:304|392:264,1,55
424,144,113059,1,0
344,200,113507,1,0
328,104,113954,1,8
256,192,114178,8,8,115298
120,192,115745,6,2,B|136:344|256:376|376:344|394:188,3,440
256,75,121790,2,2,B|256:240,1,165,0|4
176,288,122910,6,2,B|136:264|112:192|136:120|176:96,1,220
256,144,124253,1,8
336,95,124701,2,0,B|376:120|400:192|376:264|336:288,1,220
256,240,126044,1,8
168,200,126492,6,2,B|152:80|256:56|360:80|344:200,1,330,2|8
304,288,128283,1,0
208,288,128730,1,8
256,376,129178,1,4
424,264,130074,6,2,B|384:160,1,110
384,64,130969,1,2
304,120,131417,1,8
208,120,131865,1,0
128,64,132313,1,8
127,161,132760,2,0,B|88:264,1,110,0|8
160,328,133656,6,2,B|216:304|208:232,1,110
303,238,134551,2,2,B|296:304|352:328,1,110
256,192,135447,8,4,136342
168,192,137238,6,0,B|216:128|256:112|296:128|347:199,1,220,2|0
256,224,139029,2,0,B|224:256|224:256|256:288|256:288|216:328|216:328|232:344,1,165
376,336,140372,1,2
448,272,140820,6,0,B|448:48,1,220
256,136,142611,2,0,B|256:248,2,110,0|8|0
120,192,144402,2,2,B|136:40|256:8|376:40|394:196,4,440,0|0|0|0|4
16,304,158730,6,0,B|55:344|127:336|175:272|159:216,1,220,4|8
168,120,160074,1,0
256,80,160521,2,0,B|256:192,3,110,0|0|8|0
280,279,162313,6,0,B|320:320|401:315|440:248|424:192,1,220,4|8
256,96,164104,1,0
176,288,164999,1,8
256,232,165447,1,0
336,288,165895,6,0,B|394:241|394:144|338:91,1,220,4|8
256,144,167238,1,0
256,240,167686,2,0,B|256:352,3,110,0|0|8|0
176,288,169477,6,0,B|118:241|118:144|174:91,1,220,4|8
256,40,170820,1,0
352,48,171268,2,0,B|384:112|376:168|316:192|256:192|256:192|196:192|136:216|128:272|144:344,1,440,0|4
232,288,173507,5,0
288,368,173954,2,0,B|320:296|384:248|464:240,1,220,8|0
408,152,175298,1,4
96,152,176193,5,4
56,240,176641,2,0,B|128:248|192:296|224:368,1,220,4|8
256,272,177984,1,0
209,184,178432,1,4
305,184,178880,1,4
339,91,179327,2,4,B|155:91,1,165
