osu file format v5

[General]
AudioFilename: DigimonTheme.mp3
AudioLeadIn: 3000
PreviewTime: 47246
Countdown: 1
SampleSet: Normal
StackLeniency: 0.7
Mode: 0
LetterboxInBreaks: 1
EditorDistanceSpacing: 0.800000011920929

[Metadata]
Title:Digimon Theme
Artist:Paul Gordon
Creator:Ekaru
Version:Normal
Source:
Tags:

[Difficulty]
HPDrainRate:6
CircleSize:3
OverallDifficulty:5
SliderMultiplier:2.2
SliderTickRate:2

[Events]
//Background and Video events
0,0,"Placeholder.jpg"
//Break Periods
2,37532,47090
//Storyboard Layer 0 (Background)
//Storyboard Layer 1 (Failing)
//Storyboard Layer 2 (Passing)
//Storyboard Layer 3 (Foreground)
//Storyboard Sound Samples
//Background Colour Transformations
3,100,163,162,255

[TimingPoints]
12290,521.739130434783,4,1,0,70,1,0

[HitObjects]
256,192,289,12,4,2376
72,304,4463,5,0
152,272,4724,1,0
152,184,4985,1,0
328,184,5507,5,0
328,272,5768,1,0
408,304,6029,1,0
408,136,6550,5,0
328,96,6811,1,0
240,80,7072,1,0
152,96,7333,1,0
72,136,7594,1,4
72,136,7855,1,0
256,336,8637,5,0
328,280,8898,1,0
256,224,9159,1,0
256,48,9681,5,0
184,104,9942,1,0
256,160,10203,1,0
80,200,10724,5,0
144,256,10985,1,0
232,272,11246,1,0
320,256,11507,1,0
392,200,11768,1,4
392,200,12029,1,4
176,40,12811,6,8,B|256:104|96:184|184:240,1,220
32,320,13855,6,0,B|176:320,1,110
232,320,14376,2,0,B|296:280|288:216,1,110
288,144,14898,2,0,B|320:72|376:64,1,110
448,72,15420,1,0
448,248,15942,2,0,B|352:320|232:240,1,220,0|4
112,120,16985,6,8,B|344:120,1,220
232,248,18029,2,0,B|352:248,1,110
416,200,18550,2,0,B|416:88,1,110
352,24,19072,2,0,B|232:24,1,110
152,24,19594,1,0
40,160,20116,2,0,B|280:160,1,220,0|4
128,40,21159,6,8,B|128:144|152:256|312:304|416:232|416:176,1,440
464,256,22463,1,0
352,328,22855,1,0
216,328,23246,2,0,B|120:384|16:296|16:136,1,330
64,72,24290,2,4,B|304:72|304:72|304:288,1,440
424,32,26637,5,2
424,160,27029,1,2
304,104,27420,2,0,B|168:272|16:91,1,330
64,24,28463,2,4,B|304:24,1,220,4|12
168,152,29507,6,8,B|88:264|88:264|216:264,1,220
304,152,30550,1,0
480,152,31072,1,0
392,304,31594,1,0
216,304,32116,1,0
128,152,32637,2,0,B|160:48|208:32|248:48|256:128,1,220,0|4
408,48,33681,6,8,B|488:120|320:208|432:256,1,220
240,288,34724,1,0
240,112,35246,1,0
88,200,35768,1,0
88,24,36290,1,0
264,24,36811,2,0,B|368:48|424:96|432:160,1,220,0|4
128,344,48290,6,8,B|256:288|224:160,1,220
296,8,49333,2,0,B|360:32|368:96,1,110
368,176,49855,2,0,B|384:248|456:256,1,110
376,312,50376,1,0
200,312,50898,1,0
56,208,51420,2,0,B|88:80|240:64,1,220,0|4
384,48,52463,6,8,B|280:112|440:192|376:248,1,220
208,272,53507,2,0,B|120:248|152:176,1,110
232,192,54029,2,0,B|208:112|128:112,1,110
72,120,54550,2,0,B|88:48|152:40,1,110
224,40,55072,2,0,B|360:40,1,110
336,128,55594,2,0,B|336:360,1,220,0|4
160,320,56637,6,8,B|80:264|216:208|152:112,1,220
328,72,57681,1,0
152,72,58203,1,0
72,232,58724,1,4
72,232,58855,1,4
72,232,58985,1,4
