osu file format v9

[General]
AudioFilename: The Rain Maker.mp3
AudioLeadIn: 3000
PreviewTime: 28290
Countdown: 0
SampleSet: Normal
StackLeniency: 0.7
Mode: 1
LetterboxInBreaks: 1

[Editor]
DistanceSpacing: 0.8
BeatDivisor: 4
GridSize: 8

[Metadata]
Title:The Rain Maker
Artist:Paul Bazooka
Creator:Rena-chan
Version:lepidon! - Taiko Oni
Source:DJ MAX
Tags:Portable 3

[Difficulty]
HPDrainRate:5
CircleSize:5
OverallDifficulty:6
ApproachRate:5
SliderMultiplier:1.4
SliderTickRate:1

[Events]
//Background and Video events
0,0,"bg.jpg"
//Break Periods
//Storyboard Layer 0 (Background)
//Storyboard Layer 1 (Fail)
//Storyboard Layer 2 (Pass)
//Storyboard Layer 3 (Foreground)
//Storyboard Sound Samples
//Background Colour Transformations
3,100,163,162,255

[TimingPoints]
30,434.782608695652,4,1,0,55,1,0
6986,-100,4,1,0,60,0,0
13073,-100,4,1,0,65,0,0
13943,-100,4,1,0,70,0,0
27856,-100,4,1,0,75,0,1
55682,-100,4,1,0,50,0,0
62638,-100,4,1,0,55,0,0
69595,-100,4,1,0,50,0,0
76551,-100,4,1,0,70,0,0
79921,-100,4,1,0,75,0,0
83508,-100,4,1,0,70,0,1
104377,-100,4,1,0,60,0,0

[Colours]
Combo1 : 90,185,254
Combo2 : 5,240,5
Combo3 : 71,255,51
Combo4 : 244,159,0
Combo5 : 254,207,46
Combo6 : 72,209,255

[HitObjects]
172,224,30,1,0
307,229,247,1,8
407,255,464,1,0
407,255,573,1,8
264,243,899,1,8
256,282,1225,1,8
256,282,1551,1,8
296,161,1769,1,0
447,184,1877,1,8
447,184,2095,1,0
383,209,2203,1,8
338,304,2529,1,8
338,304,2747,1,8
338,304,2964,1,8
338,304,3182,1,8
383,209,3399,1,8
383,209,3508,1,0
354,161,3725,1,8
418,226,4051,1,8
271,216,4377,1,8
301,220,4595,1,0
402,184,4703,1,8
383,209,5029,1,8
328,165,5247,1,0
432,180,5356,1,8
402,184,5573,1,0
383,209,5682,1,8
383,209,5899,1,0
367,245,6008,1,8
346,315,6225,1,8
346,315,6443,1,8
320,280,6660,1,8
232,204,6877,1,8
284,137,6986,5,0
383,209,7203,1,8
326,188,7421,1,0
404,224,7529,1,8
404,224,7638,1,0
346,315,7856,1,8
346,315,8182,1,8
401,258,8290,1,0
413,172,8508,1,8
383,209,8725,1,0
454,225,8834,1,8
316,264,9160,1,8
401,258,9377,1,0
364,264,9486,1,8
346,315,9703,1,8
383,209,9812,1,0
413,172,9921,1,8
401,258,10029,1,0
454,180,10138,1,8
413,172,10247,1,0
413,172,10356,1,8
159,217,10464,1,0
325,163,10682,1,8
413,172,10899,1,0
445,208,11008,1,8
401,258,11225,1,0
401,258,11334,1,8
304,266,11660,1,8
304,266,11986,1,8
325,163,12203,1,0
325,163,12312,1,8
427,165,12529,1,0
401,258,12638,1,8
256,264,12856,1,0
328,256,12964,1,8
168,208,13073,2,0,B|392:152,1,210
168,102,13943,5,0
235,192,14051,5,0
376,177,14269,1,8
343,247,14486,1,0
433,251,14595,1,8
376,177,14812,1,8
411,295,14921,1,0
344,317,15138,1,0
304,242,15356,1,0
392,225,15464,1,8
411,295,15682,1,0
176,240,15790,1,0
408,184,16008,1,8
408,184,16225,1,0
392,225,16334,1,8
296,200,16551,1,8
368,304,16660,1,0
336,304,16877,1,0
432,152,17095,1,0
392,225,17203,1,8
168,102,17421,1,0
235,192,17529,1,0
376,177,17747,1,8
343,247,17964,1,0
433,251,18073,1,8
376,177,18290,1,8
411,295,18399,1,0
344,317,18616,1,0
304,242,18834,1,0
392,225,18942,1,8
235,192,19051,1,0
411,295,19160,1,0
176,240,19268,1,0
408,184,19486,1,8
408,184,19703,1,0
392,225,19812,1,8
296,200,20029,1,8
368,304,20138,1,0
336,304,20355,1,0
432,152,20573,1,0
392,225,20681,1,8
272,280,20790,1,8
144,216,20899,5,0
176,192,21008,1,0
328,176,21225,1,8
208,288,21334,1,0
448,224,21443,1,0
328,176,21551,1,8
368,256,21769,1,8
248,208,21877,1,0
392,168,22095,1,0
352,280,22312,1,8
288,296,22529,1,8
192,304,22638,1,0
208,232,22747,1,0
448,224,22964,1,8
448,224,23073,1,0
448,224,23182,1,0
384,232,23290,1,8
352,160,23508,1,8
392,168,23616,1,0
344,312,23834,1,0
424,168,24051,1,8
392,168,24269,1,8
248,208,24377,1,0
256,240,24486,1,0
448,224,24703,1,8
384,232,24812,1,0
384,232,24921,1,0
384,232,25029,1,8
304,248,25247,1,8
352,176,25356,1,0
248,208,25573,1,0
432,168,25790,1,8
472,184,25899,1,0
472,184,26008,1,8
432,288,26116,1,0
392,304,26225,1,0
368,208,26443,1,8
424,256,26551,1,0
424,256,26660,1,0
368,208,26769,1,8
296,184,26986,1,8
320,272,27095,1,0
320,272,27312,1,0
320,216,27421,1,8
320,216,27529,1,8
320,216,27638,1,8
272,240,27747,1,8
152,176,27856,5,0
352,152,28073,1,0
480,176,28182,1,8
400,248,28399,1,0
352,352,28508,1,8
400,248,28725,1,8
424,264,28834,1,0
160,240,28943,1,0
312,304,29051,1,0
304,184,29269,1,0
360,240,29377,1,8
152,176,29595,1,0
352,152,29812,1,0
480,176,29921,1,8
400,248,30138,1,0
352,352,30247,1,8
400,248,30464,1,8
424,264,30573,1,0
160,240,30682,1,8
312,304,30790,1,0
304,184,31008,1,0
360,240,31116,1,8
152,176,31334,1,0
352,152,31551,1,0
480,176,31660,1,8
400,248,31877,1,0
352,352,31986,1,8
400,248,32203,1,8
424,264,32312,1,0
160,240,32421,1,0
312,304,32529,1,0
304,184,32747,1,0
360,240,32855,1,8
344,192,32964,1,0
152,176,33073,1,0
352,152,33290,1,0
480,176,33399,1,8
400,248,33616,1,0
352,352,33725,1,8
400,248,33942,1,8
424,264,34051,1,0
160,240,34160,1,8
312,304,34268,1,0
304,184,34486,1,0
360,240,34594,1,8
352,152,34703,1,8
240,64,34812,5,0
304,184,34921,1,0
256,208,35029,1,0
232,224,35138,1,8
199,144,35356,1,0
372,168,35464,1,8
416,192,35682,1,8
464,200,35790,1,0
464,200,35899,1,8
464,200,36008,1,0
336,288,36225,1,0
381,221,36334,1,8
164,191,36551,1,0
164,191,36660,1,0
164,191,36769,1,0
416,192,36877,1,8
388,193,37095,1,0
388,193,37203,1,8
361,177,37312,1,0
464,200,37421,1,8
305,256,37638,1,8
268,228,37856,1,0
304,228,37964,1,0
416,192,38073,1,8
416,282,38290,1,0
242,137,38399,1,0
242,137,38508,1,0
361,177,38616,1,8
179,170,38834,1,0
361,221,38943,1,8
387,144,39160,1,0
387,144,39269,1,0
442,173,39377,1,8
457,208,39486,1,0
389,255,39595,1,8
276,300,39812,1,8
313,275,39921,1,8
256,262,40029,1,0
214,261,40138,1,0
214,261,40247,1,0
356,178,40356,1,8
294,160,40573,1,0
356,178,40682,1,8
341,272,40899,1,12
341,272,41116,1,12
356,178,41334,1,0
408,175,41551,1,12
152,260,41769,5,4
150,173,41986,1,0
356,178,42095,1,8
415,228,42203,1,0
415,228,42312,1,0
415,228,42421,1,8
315,243,42638,1,8
324,180,42747,1,0
260,189,42964,1,0
260,189,43182,1,0
417,171,43290,1,8
441,206,43399,1,0
415,228,43508,1,0
184,199,43725,1,0
367,187,43834,1,8
375,246,43943,1,0
375,246,44051,1,0
367,187,44160,1,8
336,209,44377,1,8
375,246,44486,1,0
375,246,44703,1,0
399,264,44921,1,0
367,187,45029,1,8
367,187,45138,1,8
262,156,45247,5,0
157,219,45464,1,0
280,224,45573,1,8
345,234,45682,1,0
345,234,45790,1,0
450,181,45899,1,8
339,162,46116,1,8
375,246,46225,1,0
328,300,46443,1,0
328,300,46660,1,0
356,270,46769,1,8
387,272,46877,1,0
345,234,46986,1,0
232,211,47203,1,0
400,180,47312,1,8
400,180,47421,1,8
443,192,47529,1,0
410,244,47638,1,8
376,211,47856,1,8
444,220,47964,1,0
443,192,48073,1,8
440,248,48182,1,0
356,270,48290,1,0
356,270,48399,1,0
376,211,48508,1,8
101,188,48725,5,0
101,188,48834,1,0
101,188,48943,1,0
300,190,49051,1,8
204,270,49269,1,0
314,163,49377,1,8
425,165,49486,1,0
347,200,49595,1,0
347,200,49703,1,0
356,270,49921,1,8
356,270,50138,1,8
384,226,50247,1,0
281,238,50356,1,8
347,200,50464,1,0
176,176,50573,1,0
176,176,50682,1,0
208,160,50790,1,8
280,184,51008,1,0
416,176,51116,1,8
384,226,51225,1,8
384,226,51334,1,0
347,200,51443,1,8
347,200,51660,1,8
328,232,51877,1,8
328,232,51986,1,8
203,281,52203,1,0
224,296,52312,1,0
260,302,52421,1,0
299,224,52529,1,8
312,276,52638,1,0
376,168,52856,1,8
360,256,52964,1,0
360,256,53073,1,0
360,256,53182,1,0
192,254,53399,1,8
242,236,53508,1,0
323,300,53616,1,0
356,356,53725,1,8
299,224,53943,1,0
299,224,54051,1,0
299,224,54160,1,0
299,224,54269,1,0
299,224,54377,1,0
299,224,54486,1,0
299,224,54595,1,0
299,224,54703,1,0
299,224,54812,1,8
299,224,54921,1,8
299,224,55029,1,8
299,224,55138,1,8
299,224,55247,1,8
299,224,55356,1,8
299,224,55464,1,8
347,148,55682,5,4
412,182,55899,1,0
376,281,56116,1,0
376,281,56225,1,0
350,333,56443,1,0
341,252,56660,1,0
341,252,56986,1,10
377,192,57203,1,10
287,224,57421,1,10
287,224,57638,1,10
287,224,57747,1,10
331,297,57964,1,10
331,297,58182,1,10
319,273,58399,1,10
380,256,58725,1,10
372,181,58943,1,10
372,181,59051,1,10
372,181,59160,1,0
345,339,59377,1,0
345,339,59486,1,0
246,308,59703,1,0
246,308,59921,1,0
336,252,60138,1,0
427,266,60356,1,0
372,181,60464,1,10
308,256,60682,1,10
381,300,60899,1,10
381,300,61116,1,10
381,300,61225,1,10
252,257,61443,1,10
252,257,61660,1,10
353,319,61877,1,10
353,319,62095,1,10
353,319,62203,1,10
349,213,62421,1,10
349,213,62529,1,10
450,203,62638,5,0
127,219,62856,1,0
127,219,62964,1,0
291,274,63182,1,0
226,211,63399,1,0
228,294,63616,1,0
228,294,63834,1,0
349,213,63943,1,10
349,213,64160,1,10
349,213,64377,1,10
258,157,64486,1,10
258,157,64595,1,10
258,157,64703,1,10
350,321,64921,1,10
350,321,65138,1,10
313,283,65356,1,10
264,182,65573,1,10
258,293,65682,1,10
258,293,65899,1,10
369,216,66008,1,10
427,169,66116,1,0
128,193,66225,1,0
169,218,66334,1,0
169,218,66443,1,0
340,284,66660,1,0
340,284,66877,1,0
340,284,67095,1,0
340,284,67312,1,0
374,246,67421,1,10
297,282,67638,1,10
256,296,67747,1,10
256,296,67856,1,10
256,296,68073,1,10
256,296,68182,1,10
326,209,68399,1,10
326,209,68616,1,10
340,284,68834,1,10
340,284,69051,1,10
377,312,69160,1,10
380,263,69377,1,10
347,148,69595,5,4
412,182,69812,1,0
376,281,70029,1,0
376,281,70138,1,0
350,333,70356,1,0
341,252,70573,1,0
341,252,70899,1,10
377,192,71116,1,10
287,224,71334,1,10
287,224,71551,1,10
287,224,71660,1,10
331,297,71877,1,10
331,297,72095,1,10
319,273,72203,1,0
320,196,72312,1,10
406,229,72529,1,10
380,256,72747,1,0
372,181,72856,1,10
372,181,72964,1,10
372,181,73073,1,0
345,339,73290,1,0
345,339,73399,1,0
246,308,73616,1,0
246,308,73834,1,0
336,252,74051,1,0
427,266,74269,1,0
372,181,74377,1,10
308,256,74595,1,10
381,300,74812,1,10
381,300,75029,1,10
381,300,75138,1,10
252,257,75356,1,10
252,257,75573,1,10
189,172,75682,1,0
353,319,75790,1,10
353,319,76008,1,10
353,319,76225,1,0
349,213,76334,1,10
450,203,76551,5,4
349,213,76769,1,4
312,243,76986,1,4
256,252,77203,1,4
201,256,77421,1,4
229,156,77638,1,4
236,222,77856,1,4
256,252,78073,1,4
256,252,78290,1,4
293,274,78508,1,4
345,249,78725,1,4
352,216,78943,1,4
348,173,79160,1,4
320,140,79377,1,4
268,148,79595,1,4
237,188,79812,1,4
109,142,80029,1,0
109,142,80138,1,0
109,142,80247,1,0
109,142,80356,1,0
109,142,80464,1,0
132,159,80573,1,0
132,159,80682,1,0
132,159,80790,1,0
172,187,80899,1,0
172,187,81008,1,0
172,187,81116,1,0
196,211,81225,1,0
196,211,81334,1,0
229,235,81443,1,0
229,235,81551,1,0
229,235,81660,1,0
430,196,81769,1,8
430,196,81877,1,8
430,196,81986,1,8
430,196,82095,1,8
391,253,82203,1,0
391,253,82312,1,0
391,253,82421,1,0
172,187,82529,1,0
430,196,82638,1,8
352,175,82747,1,8
452,181,82856,1,0
430,196,82964,1,8
306,238,83182,1,0
430,196,83290,1,8
306,238,83399,1,8
329,300,83508,5,0
171,160,83616,1,0
352,175,83834,1,8
370,215,84051,1,0
352,175,84160,1,8
352,175,84269,1,8
384,264,84377,1,0
384,264,84486,1,8
370,215,84703,1,8
396,186,84812,1,8
445,179,84921,1,8
428,201,85029,1,0
445,179,85138,1,8
442,304,85247,1,0
58,228,85464,1,0
280,279,85682,1,8
280,279,85899,1,8
348,328,86008,1,0
280,279,86116,1,8
280,279,86225,1,8
336,245,86334,1,0
368,246,86443,1,8
288,241,86660,1,8
288,241,86769,1,8
288,241,86877,1,8
268,171,86986,1,0
129,202,87203,1,0
129,202,87312,1,0
350,183,87421,1,8
347,271,87638,1,0
347,271,87747,1,0
347,271,87856,1,0
248,223,88073,1,0
248,223,88182,1,0
352,232,88290,1,8
380,252,88508,1,0
380,252,88616,1,0
380,252,88725,1,0
296,288,88943,1,0
296,288,89051,1,0
296,288,89160,1,0
295,204,89377,1,0
295,204,89486,1,0
352,232,89595,1,8
393,208,89812,1,0
393,208,89921,1,0
393,208,90029,1,8
320,241,90247,1,8
320,241,90356,1,8
435,252,90464,5,0
368,322,90573,1,0
172,171,90790,1,0
288,142,90899,1,8
424,158,91116,1,0
474,179,91225,1,8
435,252,91334,1,0
292,312,91443,1,0
346,240,91660,1,0
369,197,91877,1,8
326,256,91986,1,8
380,275,92095,1,0
380,275,92203,1,0
346,240,92312,1,8
360,317,92529,1,8
408,255,92638,1,0
197,170,92856,1,0
376,170,92964,1,8
369,197,93073,1,0
331,195,93182,1,8
326,256,93399,1,8
416,176,93508,1,0
369,197,93616,1,0
349,269,93725,1,0
369,197,93834,1,8
152,256,93943,1,0
152,256,94051,1,0
308,97,94269,1,0
476,130,94377,1,8
415,248,94595,1,0
415,248,94703,1,0
415,248,94812,1,0
492,183,94921,1,8
349,269,95138,1,8
349,269,95247,1,8
358,235,95464,1,8
358,235,95573,1,8
378,206,95682,1,0
329,187,95899,1,0
329,187,96008,1,0
417,198,96116,1,8
426,159,96334,1,8
424,251,96443,1,8
379,294,96551,1,0
417,198,96660,1,8
260,296,96877,1,8
260,296,96986,1,0
260,296,97203,1,8
260,296,97312,1,8
330,284,97421,5,0
197,209,97638,1,0
197,209,97747,1,0
287,203,97856,1,8
344,230,98073,1,0
344,230,98182,1,0
344,230,98290,1,0
384,218,98508,1,0
384,218,98616,1,0
396,193,98725,1,8
371,282,98943,1,0
371,282,99051,1,0
343,300,99160,1,0
280,298,99377,1,0
280,298,99486,1,0
359,360,99595,1,0
268,195,99812,1,0
268,195,99921,1,0
388,163,100029,1,8
396,193,100247,1,0
396,193,100356,1,0
396,193,100464,1,8
368,240,100682,1,8
368,240,100790,1,8
400,264,100899,1,0
388,163,101116,1,8
388,163,101225,1,8
414,164,101334,1,0
388,163,101443,1,8
449,173,101551,1,8
449,173,101660,1,8
408,230,101769,1,0
350,175,101986,1,8
350,175,102095,1,8
408,230,102203,1,0
408,230,102312,1,0
400,264,102421,1,8
408,230,102529,1,8
400,264,102638,1,0
200,224,102856,1,0
200,224,102964,1,0
354,216,103073,1,8
408,230,103182,1,0
354,216,103399,1,8
408,230,103508,1,0
354,216,103616,1,8
320,274,103834,1,8
347,335,103943,1,8
341,247,104051,1,8
311,152,104160,1,8
398,149,104377,5,4
227,212,104812,1,0
376,240,104921,1,8
347,335,105247,1,0
320,274,105356,1,8
385,180,105682,1,0
407,200,105790,1,8
385,180,106116,1,0
385,180,106225,1,8
385,180,106551,1,8
368,248,106660,1,0
192,228,106986,1,0
400,231,107095,1,8
436,206,107203,1,0
418,176,107312,1,8
368,248,107421,1,8
234,257,107638,1,8
254,160,107856,1,0
336,193,108073,1,0
353,163,108290,1,0
353,163,108399,1,8
418,269,108508,1,0
408,228,108725,1,0
353,163,108834,1,8
430,182,108943,1,0
430,182,109051,1,8
224,212,109160,1,8
378,313,109377,1,8
223,284,109595,1,8
223,284,109703,1,8
223,284,109812,1,8
223,284,109921,1,8
431,208,110029,1,0
387,247,110138,1,0
387,247,110247,1,0
387,247,110356,1,0
304,319,110464,1,0
304,319,110573,1,0
304,319,110682,1,0
304,319,110790,1,0
328,203,110899,1,8
328,203,111008,1,8
328,203,111116,1,8
388,144,111334,5,4
