osu file format v9

[General]
AudioFilename: Sora No Mukou (Trance Ver).mp3
AudioLeadIn: 1500
PreviewTime: 30881
Countdown: 0
SampleSet: Soft
StackLeniency: 0.7
Mode: 0
LetterboxInBreaks: 1

[Editor]
Bookmarks: 17297,31311,45324,62841,76855,89117,104882,118466,131165,132917
DistanceSpacing: 0.8
BeatDivisor: 4
GridSize: 8

[Metadata]
Title:Sora No Mukou (Trance Arrange)
Artist:Pastry
Creator:Ayeen
Version:Soul-less-ly Easy
Source:Higurashi No Naku Koro Ni
Tags:Shion Sonozaki dai Soul-less Heatkai

[Difficulty]
HPDrainRate:3
CircleSize:3
OverallDifficulty:3
ApproachRate:3
SliderMultiplier:1
SliderTickRate:1

[Events]
//Background and Video events
0,0,"Higurashi.jpg"
//Break Periods
2,77073,82429
//Storyboard Layer 0 (Background)
//Storyboard Layer 1 (Fail)
//Storyboard Layer 2 (Pass)
//Storyboard Layer 3 (Foreground)
//Storyboard Sound Samples
//Background Colour Transformations
3,100,163,162,255

[TimingPoints]
2864,437.924239106635,4,2,1,80,1,0

[Colours]
Combo1 : 159,152,96
Combo2 : 128,128,128
Combo3 : 224,96,73
Combo4 : 192,192,192

[HitObjects]
104,144,2863,6,0,B|64:192|104:232,1,100,0|4
256,192,4177,1,2
400,112,5053,1,0
424,192,5491,1,0
400,272,5929,1,2
256,192,6805,5,0
256,192,7681,1,2
112,112,8557,1,0
88,192,8995,1,0
112,272,9433,1,2
256,344,10308,5,0
384,248,11184,1,2
256,152,12060,1,0
216,224,12498,1,0
296,224,12936,1,2
176,120,13812,6,0,B|216:48|296:48|336:120,1,200,0|2
334,277,15563,2,0,B|295:346|215:346|175:274,1,200,0|2
256,136,17315,5,4
336,120,17753,1,2
384,184,18191,1,0
352,256,18629,1,2
304,192,19067,2,0,B|264:232|280:288,2,100,0|2|0
184,304,20818,5,0
104,320,21256,1,2
56,256,21694,1,0
88,184,22132,1,2
136,248,22570,2,0,B|176:208|160:152,2,100,0|2|0
256,144,24322,6,0,B|308:117|351:157,1,100,4|2
296,216,25198,1,0
216,216,25636,1,2
256,144,26073,2,0,B|204:117|161:157,2,100,4|2|0
328,288,27825,6,0,B|296:192,1,100,4|0
376,200,28701,2,0,B|308:104,1,100,4|0
400,104,29577,2,0,B|320:40,1,100,4|4
256,88,30453,5,4
256,168,30891,2,4,B|256:240,2,50,4|0|0
192,112,31766,6,0,B|88:112,1,100,8|0
128,184,32642,2,0,B|40:240,1,100,8|0
112,280,33518,2,0,B|48:360,1,100,8|0
128,352,34394,2,0,B|177:376|232:352,1,100,8|0
296,320,35270,6,0,B|400:320,1,100,8|0
360,248,36146,2,0,B|448:192,1,100,8|0
376,152,37022,2,0,B|440:72,1,100,8|0
363,46,37897,2,0,B|315:46,2,50,8|0|4
256,48,38773,6,0,B|256:96,2,50,8|0|0
176,72,39649,1,8
136,144,40087,2,0,B|200:160,1,50,0|0
224,136,40525,2,0,B|264:176,2,50,8|0|0
280,192,41401,1,8
272,272,41839,6,0,B|216:264|200:208,2,100,0|8|0
280,192,43153,1,8
288,112,43590,2,0,B|344:120|360:176,2,100,0|8|0
256,184,44904,5,0
256,264,45342,1,0
256,192,45780,12,4,47970
256,84,48846,1,2
216,152,49283,1,8
256,168,49502,1,0
296,152,49721,1,2
376,128,50159,5,8
368,208,50597,1,2
296,248,51035,1,8
256,264,51254,1,0
216,248,51473,1,2
176,184,51911,6,0,B|184:128|240:112,1,100,8|2
256,192,52787,2,0,B|256:264,2,50,8|0|2
320,144,53663,6,0,B|368:112,1,50,8|0
376,152,54101,2,0,B|432:144,1,50,2|0
416,184,54539,2,0,B|472:208,1,50,8|0
440,240,54976,1,2
376,288,55414,5,8
300,260,55852,2,0,B|188:252|156:140,1,200,2|2
156,141,57166,1,8
236,124,57604,2,0,B|257:234|157:294,1,200,2|2
158,293,58918,1,8
88,256,59356,6,0,B|3:194|135:13|219:74,1,300,2|8
232,153,61107,2,0,B|316:214|184:395|100:334,1,300,2|8
56,272,62859,5,2
72,192,63297,1,8
120,128,63735,1,2
192,88,64173,1,8
272,88,64611,2,0,B|304:80|320:104,4,50,2|0|8|0|2
416,160,66363,5,2
392,240,66800,1,8
336,296,67238,1,2
264,336,67676,1,8
184,320,68114,1,2
120,272,68552,2,0,B|72:240|72:184,1,100,8|2
184,72,69866,6,0,B|144:120|184:168,1,100,4|8
248,120,70742,2,0,B|288:168|248:216,1,100,2|8
176,240,71618,2,0,B|176:280|200:288,4,50,2|0|8|0|2
256,104,73369,6,0,B|344:112|432:216,1,200,2|2
352,243,74683,1,8
280,208,75121,2,0,B|358:114|450:100,1,200,2|2
444,100,76435,1,4
444,100,76873,1,4
256,192,83879,12,4,87383
256,112,88259,5,4
256,272,89135,1,4
216,200,89572,1,4
296,200,90010,1,4
352,144,90448,6,0,B|400:112|400:56,1,100,8|2
320,72,91324,2,0,B|272:104|272:160,1,100,8|0
320,224,92200,1,8
392,264,92638,1,0
320,304,93076,1,8
248,264,93514,1,0
191,207,93952,6,0,B|215:154|186:106,1,100,8|0
120,64,94828,2,0,B|95:116|124:164,1,100,8|0
120,240,95703,2,0,B|88:288,2,50,8|0|0
184,288,96579,2,0,B|216:336,2,50,8|0|0
248,240,97455,6,0,B|296:240,2,50,8|0|0
272,160,98331,2,0,B|320:128,2,50,8|0|0
256,80,99207,1,8
192,32,99645,1,0
112,48,100083,1,8
56,104,100521,1,0
56,184,100959,5,8
72,264,101396,2,0,B|84:323|144:331,2,100,0|8|0
152,248,102710,1,8
232,232,103148,2,0,B|220:173|160:165,2,100,0|8|0
256,152,104462,5,4
256,72,104900,1,0
368,192,105776,5,0
254,305,106652,1,2
140,191,107527,1,2
253,77,108403,1,4
320,224,109279,5,0
164,264,110155,1,2
123,109,111031,1,2
277,66,111907,1,4
120,80,112782,6,0,B|24:128,1,100,0|8
104,160,113658,2,0,B|56:256,1,100,2|8
136,240,114534,2,0,B|160:344,1,100,2|8
216,280,115410,1,4
256,128,116286,5,4
256,288,117162,1,4
296,216,117600,1,4
216,216,118038,1,4
216,136,118475,6,0,B|185:90|217:42,1,100,8|0
297,42,119351,2,0,B|329:90|297:138,1,100,8|0
369,178,120227,1,8
297,218,120665,1,0
216,218,121103,1,8
145,178,121541,1,0
96,112,121979,6,0,B|48:152|72:208,1,100,8|0
112,272,122855,2,0,B|152:320|208:296,1,100,8|0
272,336,123731,2,0,B|320:384,2,50,8|0|0
272,255,124606,2,0,B|320:215,2,50,8|0|0
344,296,125482,6,0,B|448:296,1,100,8|4
424,216,126358,1,8
464,144,126796,1,0
424,72,127234,1,8
384,144,127672,2,0,B|320:144,4,50,0|0|8|0|0
320,96,128986,6,0,B|272:48,6,50,8|0|4|0|8|0|4
256,136,130737,2,0,B|256:248,1,100,8|4
208,336,133365,6,0,B|104:336|104:112|208:112,1,300,0|4
289,197,135336,2,0,B|289:245,1,50,0|4
344,96,136430,6,0,B|408:184|360:288,1,200,0|4
288,320,137744,1,2
296,240,138182,2,0,B|256:184,2,50,4|2|2
144,112,139715,6,0,B|104:72,1,50,0|4
224,112,140591,2,0,B|272:64,1,50,0|2
224,192,141467,2,0,B|264:232,1,50,0|2
144,192,142342,2,0,B|104:232,3,50,0|2|0|2
144,296,143437,5,4
304,296,144313,1,4
312,136,145189,5,4
255,79,145627,1,4
198,135,146065,1,4
254,191,146503,1,4
256,192,146941,12,4,150444
