osu file format v9

[General]
AudioFilename: Sora No Mukou (Trance Ver).mp3
AudioLeadIn: 529
PreviewTime: 30881
Countdown: 0
SampleSet: Soft
StackLeniency: 0.4
Mode: 0
LetterboxInBreaks: 1

[Editor]
Bookmarks: 3292,16867,23874,30881,45332,62411,76863,89125,104890,118466,131165,133355,146931,148682,152186
DistanceSpacing: 2
BeatDivisor: 8
GridSize: 4

[Metadata]
Title:Sora No Mukou (Trance Arrange)
Artist:Pastry
Creator:Ayeen
Version:Jump stage
Source:Higurashi No Naku Koro Ni
Tags:Shion Sonozaki dai Soul-less Heatkai

[Difficulty]
HPDrainRate:5
CircleSize:4
OverallDifficulty:6
ApproachRate:8
SliderMultiplier:1.6
SliderTickRate:2

[Events]
//Background and Video events
0,0,"Higurashi.jpg"
//Break Periods
2,77072,83129
//Storyboard Layer 0 (Background)
//Storyboard Layer 1 (Fail)
//Storyboard Layer 2 (Pass)
//Storyboard Layer 3 (Foreground)
//Storyboard Sound Samples
//Background Colour Transformations
3,100,163,162,255

[TimingPoints]
2864,437.924239106635,4,2,1,80,1,0
60615,-100,4,2,1,80,0,0
60724,-100,4,2,1,80,0,0

[Colours]
Combo1 : 159,152,96
Combo2 : 128,128,128
Combo3 : 224,96,73
Combo4 : 192,192,192

[HitObjects]
256,192,2864,1,4
256,192,2973,1,4
256,192,3082,1,4
256,192,3192,1,4
256,192,3301,1,4
344,60,3520,2,0,B|392:60|416:96,1,80,0|8
420,252,3958,2,0,B|398:284|350:284,1,80,0|8
192,280,4396,2,0,B|144:279|122:247,1,80,0|8
129,87,4834,2,0,B|150:54|198:54,1,80,0|8
356,92,5272,5,0
460,212,5491,1,8
356,92,5710,1,0
400,248,5929,1,8
84,292,6367,6,0,B|60:272|60:272|52:248|64:216,1,80,0|4
220,196,6805,1,0
219,195,7024,1,4
116,72,7244,2,0,B|90:75|73:94|73:94|68:125,1,80
220,196,7681,1,4
464,44,8119,2,0,B|492:84|492:84|472:128,1,80,0|4
320,100,8557,1,0
320,260,8775,2,0,B|292:300|292:300|312:344,1,80,0|4
464,316,9213,1,0
464,316,9432,1,0
200,136,9870,5,4
200,136,9980,1,4
200,136,10089,1,4
200,136,10199,1,4
200,136,10308,1,4
44,176,10527,2,0,B|24:204|24:204|40:236|28:264,1,80,0|8
192,220,10965,1,0
336,152,11184,2,0,B|328:139|344:107|344:107|324:79,1,80,8|0
192,220,11622,1,8
336,152,11841,2,0,B|342:139|378:137|378:137|392:106,1,80,0|8
428,264,12279,5,0
288,340,12498,1,8
380,208,12717,2,0,B|386:195|422:193|422:193|436:162,1,80,0|8
156,100,13374,6,0,B|128:116|128:116|112:148|120:176,1,80,8|0
264,232,13812,2,0,B|248:204|248:204|216:188|188:196,1,80,8|0
108,324,14250,2,0,B|136:308|136:308|152:276|144:248,1,80,8|0
4,188,14687,2,0,B|20:216|20:216|52:232|80:224,1,80,8|0
164,100,15125,2,0,B|158:86|174:54|174:54|202:38,1,80,8|0
128,180,15562,2,0,B|114:185|82:169|82:169|66:141,1,80,8|0
196,236,16000,2,0,B|201:249|185:281|185:281|157:297,1,80,8|0
228,151,16439,2,0,B|241:145|273:161|273:161|289:189,1,80,8|0
404,304,16877,6,0,B|380:288,8,20
420,144,17534,1,0
292,48,17753,1,8
420,144,17972,1,0
264,112,18191,1,8
420,144,18410,1,0
264,184,18629,1,8
420,144,18848,1,0
300,248,19067,2,0,B|292:280|292:280|272:312|240:312,1,80,8|0
143,195,19505,2,0,B|151:163|151:163|171:131|203:131,1,80,8|0
132,284,19943,2,0,B|163:276|163:276|195:256|192:240,1,80,8|0
284,108,20380,6,0,B|272:96|272:96|240:112|200:112,1,80,8|0
280,256,20818,2,0,B|292:268|292:268|324:252|364:252,1,80,8|0
192,264,21256,1,8
88,140,21475,1,0
88,140,21694,1,8
232,68,21913,2,0,B|256:52|288:72|312:56,1,80,0|8
196,171,22351,2,0,B|174:185|142:165|118:181,1,80,0|8
232,295,22789,2,0,B|255:279|287:299|309:284,1,80,0|8
195,170,23227,2,0,B|218:154|250:174|272:159,1,80,0|8
64,308,23884,5,4
64,308,23993,1,4
64,308,24103,1,4
64,308,24212,1,4
64,308,24322,1,0
220,340,24541,2,0,B|256:348|284:344|304:324,1,80
396,204,24979,2,0,B|404:168|400:140|380:120,1,80
248,44,25417,2,0,B|212:36|184:40|164:60,1,80
80,184,25855,2,0,B|72:220|76:248|96:268,1,80
184,132,26292,2,0,B|200:104|224:92|252:92,1,80
192,242,26730,2,0,B|208:270|232:282|260:282,1,80,0|4
376,176,27168,5,0
464,44,27387,1,0
328,128,27606,1,0
488,112,27825,1,0
420,256,28044,1,0
260,240,28263,1,0
396,324,28482,1,0
308,192,28701,1,0
60,48,29139,6,0,B|88:20|116:20|148:36,1,80
120,188,29577,1,0
200,48,29796,2,0,B|238:37|262:51|282:81,1,80
124,260,30343,1,4
124,260,30453,1,4
436,328,30891,5,0
436,328,31000,1,0
436,328,31110,1,0
436,328,31219,1,0
436,328,31329,1,0
372,180,31548,2,0,B|368:148|352:124|320:116,1,80,0|8
140,204,31985,2,0,B|144:236|160:260|192:268,1,80,0|8
331,121,32423,2,0,B|325:96|301:80|269:76,1,80,0|8
184,265,32860,2,0,B|189:289|213:305|245:309,1,80,0|8
182,85,33299,2,0,B|151:94|130:114|128:147,1,80,0|8
245,309,33736,2,0,B|275:299|296:279|298:246,1,80,0|8
352,100,34175,5,0
212,20,34394,2,0,B|184:32|176:56|188:88,1,80,8|0
352,100,34832,1,8
200,152,35051,2,0,B|181:176|186:201|213:222,1,80,0|8
348,308,35489,2,0,B|366:283|361:258|334:237,1,80,0|8
184,292,35927,1,0
116,148,36146,2,0,B|140:124|172:124|196:144,1,80,8|0
184,290,36584,1,8
328,222,36803,2,0,B|352:246|352:278|332:302,1,80,0|8
184,292,37241,1,0
184,292,37460,1,8
296,179,37678,5,0
409,65,37897,1,4
409,65,38007,1,4
409,65,38116,1,4
409,65,38226,1,4
409,65,38335,1,4
284,160,38554,1,0
132,108,38773,1,8
244,220,38992,1,0
192,68,39211,1,8
128,216,39430,2,0,B|68:276,1,80,0|8
220,332,39868,6,0,B|276:275,1,80,0|8
424,211,40305,1,0
272,159,40524,1,8
384,271,40743,1,0
332,119,40962,1,8
484,68,41182,6,0,B|464:84|428:84|408:72,1,80,0|8
364,228,41620,2,0,B|348:208|348:172|360:152,1,80,0|8
200,148,42058,2,0,B|180:164|144:164|124:152,1,80,0|8
80,308,42496,2,0,B|64:288|64:252|76:232,1,80,0|8
236,240,42934,2,0,B|247:259|247:295|231:315,1,80,0|8
315,190,43372,2,0,B|335:179|371:179|391:195,1,80,0|8
236,160,43809,1,0
236,160,44028,1,8
128,40,44247,2,0,B|96:44|76:68|76:68|72:96,1,80,0|8
73,248,44685,5,0
220,180,44904,1,8
73,248,45123,1,0
232,272,45342,2,0,B|247:244,24,20
256,192,46765,12,0,48189
220,156,48408,5,4
220,156,48517,1,4
220,156,48627,1,4
220,156,48736,1,4
220,156,48846,1,4
364,88,49065,1,0
400,244,49283,2,0,B|376:268|352:272|320:272,1,80,8|0
220,156,49721,1,8
64,120,49939,2,0,B|40:144|36:168|36:200,1,80,0|8
192,236,50378,2,0,B|168:212|144:208|112:208,1,80,0|8
28,340,50816,2,0,B|27:315|31:291|55:267,1,80,0|8
456,267,51254,6,0,B|480:291|484:315|484:340,1,80,0|8
392,208,51692,2,0,B|368:208|344:212|320:236,1,80,0|8
475,192,52131,2,0,B|476:168|472:144|448:120,1,80,0|8
312,32,52568,1,0
216,160,52787,2,0,B|224:188|248:200|280:192,1,80,8|0
312,32,53225,1,8
196,185,53444,2,0,B|205:218|234:233|272:223,1,80,0|8
312,32,53882,1,0
172,215,54101,2,0,B|183:255|212:272|240:272,1,80,8|0
84,344,54539,2,0,B|60:332|48:304|48:304|52:276,2,80,8|0|8
404,344,55414,5,4
404,344,55524,1,4
404,344,55633,1,4
404,344,55743,1,4
404,344,55852,1,4
416,44,56071,2,0,B|396:28|364:24|336:36,1,80,0|8
416,176,56509,2,0,B|396:192|364:196|336:184,1,80,0|8
240,312,56947,2,0,B|255:292|259:260|249:236,1,80,0|8
107,312,57385,2,0,B|91:292|87:260|97:236,1,80,0|8
76,76,57823,2,0,B|80:104|80:104|100:128|132:136,1,80,0|8
436,308,58261,2,0,B|432:280|432:280|412:256|380:248,1,80,4|8
448,100,58699,6,0,B|352:100,1,80,0|8
368,100,59137,1,0
64,284,59356,2,0,B|160:284,1,80,8|0
144,284,59794,1,4
144,123,60013,2,0,B|156:75|192:55,1,80
188,59,60451,2,0,B|231:126|276:192,1,160
456,68,61107,2,0,B|472:100|472:132|460:156,1,80,8|0
456,316,61545,2,0,B|472:284|472:252|460:228,1,80,8|0
264,192,61983,2,0,B|176:192,1,80,12|4
264,332,62421,5,4
264,332,62531,1,4
264,332,62640,1,4
264,332,62750,1,4
264,332,62859,1,4
172,200,63078,1,0
240,56,63297,1,8
104,140,63516,1,0
264,136,63735,1,8
132,48,63954,1,0
340,184,64173,5,8
272,328,64392,1,0
408,244,64611,1,8
248,248,64830,1,0
380,336,65049,1,8
380,336,65268,1,0
380,336,65487,1,4
220,336,65706,6,0,B|200:304|196:272|224:248,1,80,0|8
368,228,66144,2,0,B|356:244|324:240|292:220,1,80,0|8
276,64,66581,2,0,B|292:75|288:107|268:139,1,80,0|8
116,184,67019,2,0,B|127:167|159:171|191:191,1,80,0|8
332,120,67457,1,0
468,36,67676,1,8
332,120,67895,1,0
492,104,68114,1,8
332,120,68333,1,0
480,176,68552,1,8
480,176,68771,1,0
480,176,68990,1,12
328,220,69209,1,0
172,264,69428,5,4
172,264,69537,1,4
172,264,69647,1,4
172,264,69756,1,4
172,264,69866,1,4
288,152,70085,1,0
392,32,70304,2,0,B|428:36|428:36|452:44|464:72,1,80,8|0
289,153,70742,1,8
448,148,70961,2,0,B|447:126|427:110|427:110|394:94,1,80,0|8
64,148,71399,2,0,B|64:126|84:110|84:110|117:94,1,80,0|8
72,248,71837,2,0,B|72:226|92:210|92:210|125:194,1,80,0|8
456,248,72275,2,0,B|455:226|435:210|435:210|402:194,1,80,0|12
256,256,72712,5,0
256,96,72931,1,8
256,256,73150,2,0,B|256:348,1,80,0|8
256,336,73588,1,0
188,192,73807,2,0,B|96:192,1,80,8|0
108,192,74245,1,8
256,124,74464,2,0,B|256:32,1,80,0|8
256,44,74902,1,0
324,192,75121,2,0,B|416:192,1,80,8|0
404,192,75559,1,8
243,192,75778,2,0,B|163:192,1,80,0|12
284,88,76216,2,4,B|312:88,12,20
256,192,83879,5,8
156,68,84098,1,0
176,228,84317,1,8
244,84,84536,1,0
400,128,84755,2,0,B|440:128|440:128|468:120|480:104,1,80,8|0
340,196,85193,2,0,B|340:236|340:236|348:264|364:276,1,80,8|0
272,136,85631,2,0,B|232:136|232:136|204:144|192:160,1,80,8|0
96,280,86069,6,0,B|136:280|136:280|164:272|171:261,1,80,8|0
164,100,86507,2,0,B|164:140|164:140|172:168|182:175,1,80,8|0
340,196,86945,2,0,B|299:196|299:196|271:204|264:214,1,80,8|0
264,376,87383,2,0,B|264:335|264:335|256:307|245:300,1,80,8|0
312,152,87821,2,0,B|396:152,2,80,8|0|4
198,265,88478,1,0
84,151,88697,2,0,B|84:67,2,80,8|0|4
396,76,89572,5,4
396,76,89682,1,4
396,76,89791,1,4
396,76,89901,1,4
396,76,90010,1,4
272,176,90229,1,0
158,289,90448,5,4
158,289,90558,1,4
158,289,90667,1,4
158,289,90777,1,4
158,289,90886,1,4
316,300,91105,2,0,B|352:308|380:296|388:276,1,80,0|8
387,106,91543,2,0,B|380:88|352:76|316:84,1,80,0|8
155,83,91981,2,0,B|119:75|91:87|84:105,1,80,0|8
84,278,92419,2,0,B|91:296|119:308|155:301,1,80,0|8
268,184,92857,1,0
268,184,93076,1,8
268,184,93295,1,0
268,184,93514,1,12
28,20,93952,5,8
156,88,94171,1,0
28,20,94390,1,8
156,88,94609,1,0
28,20,94828,1,8
156,88,95047,2,0,B|236:136,1,80,0|12
196,268,95484,1,0
340,268,95703,6,0,B|424:268,1,80,8|0
172,116,96141,2,0,B|88:116,1,80,8|4
92,197,96470,1,4
92,197,96579,1,4
92,357,96798,2,0,B|180:357,1,80,0|4
172,36,97455,5,4
172,36,97565,1,4
172,36,97674,1,4
172,36,97784,1,4
172,36,97893,1,4
324,92,98112,1,0
464,168,98331,1,0
324,92,98550,1,0
464,168,98769,1,0
336,264,98988,5,0
464,356,99207,1,0
336,264,99426,1,0
464,356,99645,1,0
336,264,99864,1,0
464,356,100083,1,0
468,196,100302,2,0,B|468:108,1,80
44,196,100740,6,0,B|44:108,1,80
204,128,101177,1,0
80,28,101396,1,0
204,128,101615,1,0
80,28,101834,1,0
204,128,102053,1,0
80,28,102272,1,0
240,40,102491,2,0,B|328:40,1,80
433,153,102929,1,0
319,266,103148,2,0,B|236:268,1,80
125,381,103586,1,0
92,144,103915,1,0
92,144,104024,1,0
252,144,104243,6,0,B|276:144,8,20
372,252,104900,5,0
460,116,105119,1,0
460,276,105338,1,0
368,144,105557,1,0
144,144,105776,1,0
52,276,105995,1,0
52,116,106214,1,0
140,252,106433,1,0
292,296,106652,6,0,B|320:312|320:312|344:316|376:304,1,80
208,300,107089,2,0,B|213:331|213:331|226:352|255:369,1,80
148,236,107527,2,0,B|127:260|127:260|119:283|125:317,1,80
152,148,107965,2,0,B|119:148|119:148|96:156|75:183,1,80
212,84,108403,2,0,B|191:59|191:59|169:47|135:47,1,80
300,88,108841,5,0
452,40,109060,1,0
300,88,109279,1,0
456,116,109498,1,0
300,88,109717,1,0
428,184,109936,1,0
300,88,110155,1,0
372,232,110374,1,0
212,88,110593,5,0
60,40,110812,1,0
212,88,111031,1,0
56,116,111250,1,0
212,88,111469,1,0
84,184,111688,1,0
212,88,111907,1,0
140,232,112126,1,0
300,296,112345,5,0
452,344,112564,1,0
300,296,112783,1,0
456,268,113002,1,0
300,296,113221,1,0
428,200,113440,1,0
300,296,113659,1,0
372,152,113878,1,0
212,296,114096,5,0
60,344,114315,1,0
212,296,114534,1,0
56,268,114753,1,0
212,296,114972,1,0
84,200,115191,1,0
212,296,115410,1,0
140,152,115629,1,0
288,92,115848,6,0,B|296:120|296:120|320:140|344:140,1,80
224,92,116286,2,0,B|216:120|216:120|192:140|168:140,1,80
288,292,116724,2,0,B|296:264|296:264|320:244|344:244,1,80
224,292,117162,2,0,B|216:264|216:264|192:244|168:244,1,80
104,96,117600,2,0,B|120:68|148:52|176:56,1,80
408,96,118038,2,0,B|392:68|364:52|336:56,1,80
256,188,118475,5,0
256,188,118585,1,0
256,188,118694,1,0
256,188,118804,1,0
256,188,118913,1,0
376,292,119132,2,0,B|416:288|416:288|436:276|448:252,1,80
288,224,119570,2,0,B|284:184|284:184|272:164|248:152,1,80
244,316,120008,2,0,B|204:320|204:320|184:332|172:356,1,80
328,296,120446,2,0,B|324:336|324:336|312:356|288:368,1,80
260,208,120884,2,0,B|220:204|220:204|200:192|188:168,1,80
352,164,121322,2,0,B|356:124|356:124|368:104|392:92,1,80
224,76,121760,5,0
68,112,121979,1,0
220,164,122198,1,0
124,36,122417,1,0
124,196,122636,2,0,B|92:276,1,80
252,296,123074,1,0
417,270,123293,2,0,B|388:196,1,80
388,36,123730,5,0
292,164,123949,1,0
444,112,124168,1,0
288,76,124387,1,0
360,116,124497,1,0
360,116,124606,1,0
420,264,124825,2,0,B|456:340,1,80
136,292,125482,5,0
136,292,125592,1,0
136,292,125701,1,0
136,292,125811,1,0
136,292,125920,1,0
84,140,126139,2,0,B|80:108|80:108|104:76|124:76,1,80
276,77,126577,2,0,B|293:49|293:49|332:40|347:53,1,80
428,244,127015,2,0,B|432:276|432:276|408:308|388:308,1,80
236,307,127453,2,0,B|218:334|218:334|179:343|164:330,1,80
76,204,127891,1,0
189,90,128110,1,0
76,204,128329,1,0
188,92,128548,1,0
436,204,128767,5,0
323,90,128986,1,0
436,204,129205,1,0
324,92,129424,1,0
256,236,129643,1,0
256,236,129862,1,0
256,236,130080,1,0
256,236,130299,1,0
404,300,130518,2,0,B|404:216,3,80
256,192,131285,12,0,133146
188,84,133365,6,0,B|152:92|136:124|136:152,1,80
364,260,133803,2,0,B|356:296|324:312|296:312,1,80
364,124,134241,2,0,B|356:88|324:72|296:72,1,80
148,260,134679,2,0,B|156:296|188:312|216:312,1,80
288,176,135117,1,0
440,120,135336,1,0
304,36,135555,1,0
144,40,135774,6,0,B|104:40|104:40|80:60|80:88,1,80
144,344,136211,2,0,B|104:344|104:344|80:324|80:296,1,80
188,192,136649,1,0
188,192,136868,1,0
348,192,137087,1,0
348,192,137306,1,0
508,192,137525,1,0
508,192,137744,1,0
396,76,137963,2,0,B|372:56|372:56|344:52|320:68,1,80
116,308,138401,2,0,B|140:328|140:328|168:332|192:316,1,80
332,248,138839,6,0,B|420:248,2,80,0|0|0
180,136,139496,2,0,B|92:136,2,80
340,144,140153,1,0
453,257,140372,2,0,B|453:345,2,80
340,144,141029,1,0
226,257,141248,2,0,B|226:345,2,80
340,144,141904,1,0
226,30,142123,2,0,B|138:30,2,80
340,144,142780,1,0
226,257,142999,2,0,B|138:257,2,80
340,144,143656,5,0
180,148,143875,1,0
84,276,144094,2,0,B|96:308|96:308|128:312|148:304,1,80
332,148,144532,1,0
428,276,144751,2,0,B|416:308|416:308|384:312|364:304,1,80
256,192,145189,1,0
260,32,145408,1,0
260,32,145627,1,0
256,192,145846,2,0,B|256:276,1,80
256,111,146284,5,0
256,271,146503,1,0
116,192,146722,1,0
396,192,146941,1,0
116,192,147160,1,0
396,192,147379,1,0
256,271,147597,2,0,B|256:112,1,160
256,111,148254,1,0
256,111,148473,1,0
256,111,148692,6,0,B|256:64,11,40
320,116,150006,2,0,B|352:116,8,20
448,16,150663,6,0,B|484:24|484:24|500:48|500:76,1,80
344,96,151101,2,0,B|380:104|380:104|396:128|396:156,1,80
64,368,151539,2,0,B|28:360|28:360|12:336|12:308,1,80
168,288,151977,2,0,B|132:280|132:280|116:256|116:228,1,80
116,79,152415,2,0,B|200:79,1,80
309,192,152853,1,0
195,305,153072,2,0,B|115:305,1,80
136,156,153509,2,0,B|108:136|104:112|104:112|108:88,1,80
256,148,153947,2,0,B|276:120|300:116|300:116|324:120,1,80
376,228,154385,2,0,B|404:248|408:272|408:272|404:296,1,80
256,236,154823,2,0,B|236:264|212:268|212:268|188:264,1,80
132,112,155261,5,0
292,116,155480,1,0
132,112,155699,1,0
292,116,155918,1,0
292,276,156137,1,0
400,160,156356,1,0
292,276,156575,2,0,B|240:344,1,80
82,339,157013,5,0
82,339,157122,1,0
82,339,157232,1,0
82,339,157341,1,0
82,339,157451,1,0
64,180,157670,2,0,B|68:136|68:136|84:120|100:120,1,80
448,180,158108,2,0,B|444:136|444:136|428:120|412:120,1,80
47,279,158546,2,0,B|52:324|52:324|68:340|83:339,1,80
432,279,158984,2,0,B|428:324|428:324|412:340|396:339,1,80
288,220,159421,2,0,B|260:144,1,80
99,144,159859,2,0,B|32:102,1,80
413,144,160297,6,0,B|480:102,1,80,0|0
100,312,160735,2,0,B|33:270,1,80
414,312,161173,2,0,B|481:270,1,80
340,192,161611,2,0,B|248:192,2,80
224,84,162268,1,0
340,192,162487,1,0
256,192,162706,12,0,164020
