osu file format v8

[General]
AudioFilename: 02 - Hell for Frandle.mp3
AudioLeadIn: 0
PreviewTime: 36083
Countdown: 0
SampleSet: Normal
StackLeniency: 0.6
Mode: 0
LetterboxInBreaks: 1

[Editor]
Bookmarks: 14758,34766,36108,57441,78774,84108,105441,116108,137433,158766,164108
DistanceSpacing: 0.8
BeatDivisor: 4
GridSize: 8

[Metadata]
Title:Hell for Flandre
Artist:Pastry
Creator:Reiji-RJ
Version:Normal
Source:Touhou
Tags:bubble records

[Difficulty]
HPDrainRate:3
CircleSize:3
OverallDifficulty:3
ApproachRate:3
SliderMultiplier:1
SliderTickRate:1

[Events]
//Background and Video events
0,0,"Flan.jpg"
Video,0,"Noise.avi"
//Break Periods
2,78866,82643
2,99949,103976
2,131949,135976
//Storyboard Layer 0 (Background)
//Storyboard Layer 1 (Fail)
//Storyboard Layer 2 (Pass)
//Storyboard Layer 3 (Foreground)
//Storyboard Sound Samples
//Background Colour Transformations
3,100,163,162,255

[TimingPoints]
14750,333.333333333333,4,1,0,100,1,0
116083,-100,4,2,0,100,0,0
137416,-100,4,1,0,100,0,1
164083,-100,4,1,0,100,0,0

[Colours]
Combo1 : 106,146,181
Combo2 : 244,0,0
Combo3 : 0,0,0
Combo4 : 226,106,18

[HitObjects]
120,80,14750,1,0
392,80,16083,1,0
392,304,17416,1,0
120,304,18750,1,0
120,80,20083,5,0
392,80,21416,1,0
400,304,22749,1,0
400,304,22916,1,0
400,304,23083,1,0
120,304,24083,1,0
352,304,25083,2,0,B|456:304,1,100,2|0
120,80,26749,5,0
384,80,27749,2,0,B|440:80,2,50,0|8|0
392,304,29416,1,0
112,280,30749,2,8,B|72:216|72:144|112:88,2,200,0|8|0
256,72,33416,1,0
256,192,34083,1,8
256,312,34749,1,4
64,160,36083,6,0,B|72:104|128:80,1,100,0|8
288,80,37083,1,8
384,88,37416,2,0,B|440:112|448:176,1,100,0|8
344,256,38416,1,8
256,264,38749,2,0,B|256:336,2,50,0|8|0
176,256,39416,1,0
128,192,39750,1,0
128,192,40083,1,8
216,192,40416,1,0
216,192,40750,2,0,B|328:192,1,100,2|8
152,104,41416,6,0,B|272:104,1,100,0|8
336,104,42083,1,0
416,104,42416,1,8
376,176,42750,2,0,B|376:280,1,100,0|8
296,312,43416,1,0
216,312,43750,1,8
160,240,44083,6,0,B|160:136,1,100,0|8
256,240,44750,2,0,B|256:136,1,100,0|8
352,240,45416,2,0,B|352:136,1,100,0|8
256,192,46083,1,4
232,64,46750,6,0,B|344:64,1,100,0|8
280,144,47416,2,0,B|160:144,1,100,0|8
232,224,48083,2,0,B|336:224,1,100,0|8
280,304,48750,2,0,B|176:304,1,100,0|8
160,224,49416,6,0,B|160:120,1,100,0|8
256,96,50083,2,0,B|256:216,1,100,0|8
352,224,50750,2,0,B|352:120,1,100,0|8
352,128,51416,1,4
128,192,52083,6,0,B|96:136|128:96,1,100,0|8
208,80,52750,2,0,B|312:80,1,100,0|8
384,96,53416,2,0,B|408:136|376:192,1,100,0|8
296,192,54083,1,0
216,192,54416,1,8
256,192,54750,12,4,57083
152,184,57416,6,0,B|272:184,1,100,0|8
256,80,58083,2,0,B|256:184,1,100,0|8
352,184,58750,2,0,B|248:184,1,100,0|8
256,288,59416,2,0,B|256:184,1,100,0|8
176,192,60083,5,0
176,192,60416,1,8
256,192,60750,1,0
256,192,61083,1,8
336,192,61416,1,0
336,192,61750,1,8
336,192,62083,1,2
152,152,62750,6,0,B|104:104,2,50,0|8|0
256,120,63416,1,0
256,120,63750,1,8
360,152,64083,2,0,B|400:104,2,50,0|8|0
256,192,64750,1,0
256,192,65083,1,8
256,192,65416,6,0,B|256:296,1,100,0|8
256,192,66083,2,0,B|152:192,1,100,0|8
256,192,66750,2,0,B|256:80,1,100,0|8
256,192,67416,2,0,B|368:192,1,100,2|8
432,128,68083,5,0
432,208,68416,1,8
416,288,68750,1,0
336,312,69083,1,8
256,328,69416,1,0
176,312,69750,1,8
96,288,70083,2,0,B|64:176,1,100,0|8
72,112,70750,5,0
136,64,71083,1,8
216,56,71416,1,0
296,56,71750,1,8
376,64,72083,1,0
448,104,72416,1,8
456,184,72750,2,0,B|432:288,1,100,2|8
360,312,73416,6,0,B|256:312,1,100,0|8
312,232,74083,2,0,B|208:232,1,100,0|8
256,152,74750,2,0,B|152:152,1,100,0|8
200,72,75416,2,0,B|312:72,1,100,0|8
384,72,76083,5,0
384,72,76416,1,8
384,152,76750,1,0
384,152,77083,1,8
384,232,77416,1,0
384,232,77750,1,8
344,296,78083,2,0,B|152:296,1,175,2|4
216,72,84083,5,0
296,72,84416,1,8
256,224,85083,1,8
256,224,85416,2,0,B|136:224,1,100,0|8
256,224,86083,2,0,B|368:224,1,100,0|0
296,304,86749,5,0
216,304,87083,1,8
256,144,87749,1,8
256,144,88083,2,0,B|256:256,1,100,0|8
256,144,88749,2,0,B|256:72,2,50
184,240,89416,5,0
256,280,89749,1,0
328,240,90083,1,0
256,200,90416,1,0
256,120,90749,2,0,B|336:48,1,100,0|8
256,120,91416,2,0,B|168:40,1,100,0|8
176,176,92083,6,0,B|152:152|160:112,2,50
256,192,92749,1,0
256,192,93083,1,8
336,200,93416,2,0,B|360:184|360:136,2,50
256,192,94083,1,8
256,192,94416,1,4
184,232,94749,5,0
120,184,95083,1,8
88,112,95416,1,0
168,96,95749,2,0,B|208:144,1,50,8|0
256,192,96249,2,0,B|256:256,3,50,8|0|8|0
256,192,97083,1,2
328,232,97416,5,0
392,184,97749,1,8
424,112,98083,1,0
344,96,98416,2,0,B|304:152,1,50,8|0
256,192,98916,2,0,B|256:136,3,50,0|8|0|8
256,192,99749,1,2
88,64,105416,6,0,B|192:64,1,100,0|8
144,144,106083,2,0,B|248:144,1,100,0|8
216,224,106749,2,0,B|328:224,1,100,0|8
288,304,107416,2,0,B|400:304,1,100,0|8
376,224,108083,6,0,B|376:112,1,100,0|8
296,128,108749,2,0,B|296:248,1,100,0|8
216,224,109416,2,0,B|216:104,1,100,0|8
136,128,110083,2,0,B|136:232,1,100,2|8
136,304,110749,5,0
216,304,111083,1,8
296,304,111416,1,0
376,304,111749,1,8
336,232,112083,1,0
256,232,112416,1,8
176,232,112749,1,0
96,232,113083,1,8
136,160,113416,5,0
216,160,113749,1,8
296,160,114083,1,0
376,160,114416,1,8
336,88,114749,1,0
256,88,115083,1,8
176,88,115416,2,0,B|72:88,1,100,2|4
88,168,116083,6,0,B|152:168,1,50,0|2
168,200,116416,2,0,B|232:200,1,50,0|2
288,160,116916,1,2
288,160,117083,2,0,B|352:160,1,50,0|2
328,240,117583,1,2
328,240,117749,2,0,B|400:240,1,50,0|2
376,320,118249,1,2
376,320,118416,2,0,B|448:320,1,50,0|2
464,320,118749,6,0,B|488:256|464:216,1,100,0|8
392,248,119416,2,0,B|368:200|400:152,1,100,0|8
456,96,120083,2,0,B|408:56|360:64,1,100,0|8
312,128,120749,2,0,B|208:128,1,100,2|8
152,72,121416,5,0
72,72,121749,1,8
112,144,122083,2,0,B|112:256,1,100,0|8
72,312,122749,1,0
152,312,123083,1,8
232,312,123416,2,0,B|336:312,1,100,0|8
392,256,124083,5,0
336,200,124416,1,8
280,256,124749,1,0
224,200,125083,1,8
168,256,125416,1,0
112,200,125749,1,8
64,136,126083,2,0,B|184:136,1,100,2|8
200,64,126749,5,0
200,64,127083,1,8
280,64,127416,1,0
280,64,127749,1,8
360,64,128083,1,0
360,64,128416,1,8
440,64,128749,1,0
440,64,129083,1,8
400,136,129416,6,0,B|400:248,1,100,0|8
320,136,130083,2,0,B|320:240,1,100,0|8
240,136,130749,2,0,B|240:256,1,100,0|8
160,136,131416,2,0,B|160:248,1,100,2|8
176,264,137416,5,0
256,104,138083,1,0
336,264,138749,1,0
168,192,139416,1,0
352,192,140083,1,0
176,264,140749,1,0
256,104,141416,1,0
336,264,142083,1,0
408,80,142749,6,0,B|304:80,1,100,0|8
352,160,143416,2,0,B|248:160,1,100,0|8
296,240,144083,2,0,B|184:240,1,100,0|8
240,320,144749,2,0,B|128:320,1,100,0|8
184,240,145416,6,0,B|296:240,1,100,0|8
240,160,146083,2,0,B|360:160,1,100,0|8
296,80,146749,2,0,B|400:80,1,100,0|8
396,80,147416,1,2
416,256,148083,5,0
344,304,148416,1,8
256,320,148749,1,0
168,304,149083,1,8
96,256,149416,1,0
168,200,149749,1,8
256,216,150083,1,0
344,200,150416,1,8
344,144,150749,6,0,B|256:192,1,100,0|8
256,88,151416,2,0,B|256:200,1,100,0|8
168,144,152083,2,0,B|264:192,1,100,0|8
256,192,152749,1,2
152,64,153416,5,0
240,64,153749,1,0
328,64,154083,1,0
416,64,154416,1,0
376,144,154749,1,0
288,144,155083,1,0
200,144,155416,1,0
112,144,155749,1,0
168,216,156083,6,0,B|168:320,1,100
256,216,156749,2,0,B|256:328,1,100
344,216,157416,2,0,B|344:328,1,100
256,312,158083,1,2
256,192,158750,12,4,164083
