osu file format v8

[General]
AudioFilename: 02 - Hell for Frandle.mp3
AudioLeadIn: 0
PreviewTime: 36083
Countdown: 0
SampleSet: Normal
StackLeniency: 0.6
Mode: 0
LetterboxInBreaks: 1

[Editor]
Bookmarks: 14758,36108,57441,73441,78774,84108,104774,105441,116108,137433,158766,164108
DistanceSpacing: 0.8
BeatDivisor: 4
GridSize: 8

[Metadata]
Title:Hell for Flandre
Artist:Pastry
Creator:Reiji-RJ
Version:HELL
Source:Touhou
Tags:bubble records

[Difficulty]
HPDrainRate:6
CircleSize:4
OverallDifficulty:7
ApproachRate:7
SliderMultiplier:1.4
SliderTickRate:1

[Events]
//Background and Video events
0,0,"BG.jpg"
Video,0,"Noise.avi"
//Break Periods
2,34616,35183
2,78866,83183
2,105505,115183
//Storyboard Layer 0 (Background)
//Storyboard Layer 1 (Fail)
//Storyboard Layer 2 (Pass)
//Storyboard Layer 3 (Foreground)
//Storyboard Sound Samples
//Background Colour Transformations
3,100,163,162,255

[TimingPoints]
14750,333.333333333333,4,1,0,100,1,0
17083,-50,4,1,0,100,0,0
17416,-100,4,1,0,100,0,0
19750,-50,4,1,0,100,0,0
20083,-100,4,1,0,100,0,0
22416,-50,4,1,0,100,0,0
22750,-100,4,1,0,100,0,0
25083,-50,4,1,0,100,0,0
25416,-100,4,1,0,100,0,0
72749,-50,4,1,0,100,0,0
73416,-100,4,1,0,100,0,0
91749,-50,4,1,0,100,0,0
92083,-100,4,1,0,100,0,0
99749,-50,4,1,0,100,0,0
100083,-100,4,1,0,100,0,0
116083,-100,4,2,0,100,0,0
121083,-50,4,1,0,100,0,0
121416,-100,4,2,0,100,0,0
126416,-100,4,1,0,100,0,0
126749,-100,4,2,0,100,0,0
137083,-100,4,1,0,100,0,0
137416,-100,4,1,0,100,0,1
164083,-100,4,1,0,100,0,0

[Colours]
Combo1 : 106,146,181
Combo2 : 244,0,0
Combo3 : 0,0,0
Combo4 : 226,106,18

[HitObjects]
88,192,14750,5,0
256,64,15083,1,0
424,192,15416,1,0
256,320,15750,1,0
104,120,16083,1,0
400,120,16416,1,0
256,192,16750,1,0
208,80,17083,2,2,B|224:64|224:64|240:80|240:80|256:64|256:64|272:80|272:80|288:64|288:64|304:80|304:80|320:64|320:64,1,140,2|0
400,120,17416,5,0
400,304,17750,1,0
256,192,18083,1,0
104,304,18416,1,0
104,88,18750,1,0
400,88,19083,1,0
256,192,19416,1,0
256,88,19750,2,2,B|272:104|272:104|256:120|256:120|272:136|272:136|256:152|256:152|272:168|272:168|256:184|256:184|272:200|272:200,1,140
256,296,20083,5,0
80,184,20416,1,0
256,64,20750,1,0
424,184,21083,1,0
256,328,21416,1,0
80,96,21749,1,0
424,96,22083,1,0
256,224,22416,2,0,B|256:160,3,46.6666666666667
368,288,22749,5,0
256,328,22916,1,0
144,288,23083,1,0
120,96,23416,1,0
392,96,23749,1,0
400,304,24083,1,0
256,112,24416,1,0
112,304,24749,1,0
208,200,25083,2,2,B|224:184|224:184|240:200|240:200|256:184|256:184|272:200|272:200|288:184|288:184|304:200|304:200|320:184|320:184|336:200|336:200,1,140,2|0
400,264,25416,5,0
104,264,25749,1,0
256,72,26083,1,0
400,192,26416,1,0
104,192,26749,1,0
256,312,27083,1,0
256,144,27416,1,0
256,192,27583,1,2
256,192,27666,1,2
256,192,27750,1,2
256,240,27916,1,2
96,192,28083,5,0
408,192,28416,1,0
96,192,28749,1,0
408,192,29083,1,0
96,192,29416,1,0
408,192,29749,1,0
256,192,30083,1,0
256,160,30416,1,0
256,192,30499,1,0
256,224,30583,1,4
256,320,30749,5,0
256,72,31083,1,0
256,320,31416,1,0
64,192,31749,1,0
256,320,32083,1,0
448,192,32416,1,0
256,328,32749,1,0
256,208,32916,2,2,B|256:176,3,23.3333333333333
256,208,33249,1,2
80,192,33416,5,0
256,64,33749,1,0
424,192,34083,1,0
256,320,34416,1,0
256,312,36083,6,0,B|168:312,1,70,0|0
224,240,36416,2,0,B|136:240,1,70,8|0
192,168,36749,2,0,B|120:168,1,70,0|0
160,96,37083,2,0,B|80:96,1,70,8|0
256,312,37416,6,0,B|336:312,1,70
288,240,37749,2,0,B|368:240,1,70,8|0
320,168,38083,2,0,B|400:168,1,70
352,96,38416,2,0,B|440:96,1,70,8|0
56,144,38750,5,0
112,80,38916,1,0
168,144,39083,1,8
224,80,39250,1,0
280,144,39416,1,0
336,80,39583,1,0
392,144,39750,1,8
448,80,39916,1,0
416,288,40083,6,0,B|336:288,1,70,0|0
96,288,40416,2,8,B|176:288,1,70
256,288,40750,2,2,B|256:144,1,140,2|0
136,112,41416,6,0,B|80:48,2,70,0|0|0
256,56,42083,1,0
376,112,42416,1,8
376,272,42750,6,0,B|440:328,2,70
256,312,43416,1,0
136,272,43750,1,8
72,168,44083,5,0
80,72,44250,1,0
168,88,44416,1,8
344,88,44750,1,0
432,72,44916,1,0
448,168,45083,1,8
256,312,45416,5,0
256,224,45750,1,0
256,192,45833,1,0
256,160,45916,1,0
192,88,46083,2,0,B|224:64|288:64|328:88,1,140
128,312,46750,6,0,B|88:304|88:264,1,70,0|0
56,160,47083,1,8
112,72,47250,1,0
224,64,47416,2,0,B|296:64,1,70
400,72,47750,1,8
456,160,47916,1,0
424,288,48083,5,0
344,232,48250,1,0
272,296,48416,1,8
192,232,48583,1,0
120,304,48750,2,0,B|56:240,1,70
48,160,49083,1,8
112,88,49250,1,0
256,64,49416,6,0,B|336:64,1,70
256,64,49750,2,0,B|312:112,1,70,8|0
256,64,50083,2,0,B|256:136,1,70
256,64,50416,2,0,B|192:112,1,70,8|0
256,64,50750,2,0,B|184:64,1,70
256,160,51083,1,8
256,160,51416,2,0,B|256:320,1,140,2|0
160,304,52083,5,0
120,192,52416,2,0,B|48:240,2,70,0|8|0
112,80,53083,1,0
256,72,53416,1,0
384,80,53750,2,0,B|472:80,2,70,0|8|0
416,192,54416,1,0
360,304,54750,1,0
256,192,54999,12,12,57082
160,320,57416,5,0
96,272,57583,1,0
64,200,57750,1,8
80,128,57916,1,0
128,72,58083,1,0
200,56,58250,1,0
272,72,58416,1,8
296,144,58583,1,0
248,208,58750,5,0
224,136,58916,1,0
272,80,59083,1,8
344,64,59250,1,0
408,96,59416,1,0
448,160,59583,1,0
424,232,59750,1,8
368,280,59916,1,0
200,304,60083,6,0,B|160:280|152:240,1,70
128,288,60416,2,0,B|96:256|104:216,1,70,8|0
64,240,60750,2,0,B|72:192|104:168,1,70
48,160,61083,2,0,B|64:120|112:120,1,70,8|0
208,64,61416,6,0,B|256:56|288:88,1,70
272,40,61750,2,0,B|304:56|312:96,1,70,8|0
344,56,62083,2,0,B|368:96|368:128|344:168,1,116.666666666667
232,328,62750,6,0,B|160:328,1,70
280,328,63083,2,0,B|352:328,1,70,8|0
192,264,63416,2,0,B|120:264,1,70
320,264,63750,2,0,B|392:264,1,70,8|0
152,200,64083,2,0,B|80:200,1,70
360,200,64416,2,0,B|432:200,1,70,8|0
176,72,64750,1,0
328,72,65083,1,8
440,256,65416,6,0,B|424:296|376:288,1,70
288,312,65750,1,8
288,312,65916,1,0
176,312,66083,2,0,B|136:320|120:280,1,70
48,224,66416,1,8
48,224,66583,1,0
144,96,66750,2,0,B|72:96,2,70,0|8|0
328,96,67416,2,0,B|472:96,1,140,2|0
400,224,68083,5,0
456,304,68250,1,0
344,304,68416,1,8
200,304,68750,2,0,B|56:304,1,140
64,160,69416,1,0
96,80,69583,1,0
176,112,69750,1,8
328,112,70083,1,0
408,80,70250,1,0
424,160,70416,1,8
400,256,70750,6,0,B|456:312,2,70,8|8|8
256,256,71416,2,0,B|256:336,2,70,2|8|2
112,256,72083,2,8,B|48:304,2,70,8|8|8
208,128,72750,6,2,B|224:112|224:112|240:128|240:128|256:112|256:112|272:128|272:128|288:112|288:112|304:128|304:128|320:112|320:112|336:128|336:128,1,140,2|0
304,208,73083,2,2,B|288:224|288:224|272:208|272:208|256:224|256:224|240:208|240:208|224:224|224:224|208:208|208:208|192:224|192:224|176:208|176:208,1,140,2|0
296,328,73416,5,0
216,328,73750,1,0
360,272,74083,1,0
152,272,74416,1,0
424,216,74750,1,0
88,216,75083,1,0
208,128,75416,1,0
304,128,75750,1,0
88,80,76083,5,0
256,192,76416,1,0
424,80,76750,1,0
256,320,77083,1,0
256,64,77416,5,0
256,160,77583,2,0,B|256:128,2,23.3333333333333
176,248,77916,1,0
192,248,78000,1,0
208,248,78083,1,0
224,248,78166,1,0
240,248,78250,1,0
256,248,78333,1,0
272,248,78416,1,0
288,248,78500,1,0
304,248,78583,1,0
320,248,78666,1,0
48,88,84083,5,0
128,144,84249,2,2,B|200:144,1,70,2|2
240,56,84583,2,2,B|320:56,1,70
392,176,85083,2,2,B|472:176,1,70,2|2
328,288,85583,2,0,B|392:360,3,70
431,282,86416,1,2
256,320,86749,5,0
192,280,86916,2,2,B|136:232,1,70
320,280,87249,2,2,B|384:216,1,70,8|2
256,192,87749,2,2,B|256:104,1,70,8|2
72,96,88249,2,0,B|144:96,1,70
224,96,88583,2,0,B|304:96,1,70
400,96,89083,2,2,B|424:96,3,23.3333333333333,0|2|0|2
256,192,89416,5,10
176,168,89583,2,0,B|144:152|128:120,2,70,0|2|0
336,168,90083,2,0,B|376:152|392:112,2,70,0|2|0
256,192,90583,1,10
120,304,90916,2,0,B|120:232,1,70,0|2
384,304,91249,2,0,B|384:224,1,70,0|2
208,96,91749,2,8,B|224:80|224:80|240:96|240:96|256:80|256:80|272:96|272:96|288:80|288:80|304:96|304:96|320:80|320:80,1,140
64,88,92083,6,2,B|152:88,1,70
104,152,92416,2,0,B|184:152,1,70,8|0
152,216,92749,2,2,B|240:216,1,70
200,280,93083,2,0,B|280:280,1,70,8|8
376,192,93583,1,0
424,120,93749,2,0,B|448:120,5,23.3333333333333
312,48,94416,1,10
104,296,94749,5,0
184,248,94916,1,2
224,296,95083,1,8
288,240,95249,1,8
328,288,95416,1,2
408,240,95583,2,0,B|440:256|448:296,2,70,0|2|0
104,112,96249,2,8,B|184:112,1,70,8|10
400,112,96583,2,8,B|328:112,1,70,8|10
256,224,97083,2,0,B|256:184,2,23.3333333333333
256,56,97416,5,0
400,176,97583,2,0,B|312:176,1,70,2|8
104,176,97916,2,0,B|184:176,1,70,8|2
256,224,98249,2,0,B|256:304,2,70,0|2|0
168,328,98916,2,0,B|112:280,1,70,0|8
336,328,99249,2,0,B|400:272,1,70,0|8
208,128,99749,2,2,B|224:112|224:112|240:128|240:128|256:112|256:112|272:128|272:128|288:112|288:112|304:128|304:128|320:112|320:112|336:128|336:128,1,140
256,296,100083,6,0,B|200:248,1,70,0|2
256,296,100416,2,0,B|312:248,1,70,2|8
256,128,100749,2,0,B|256:48,2,70,0|2|0
256,128,101249,1,8
304,248,101583,2,0,B|248:304,1,70,0|2
200,248,101916,2,0,B|264:304,1,70,0|2
256,128,102416,2,0,B|256:104,2,23.3333333333333
88,72,102749,6,2,B|160:72,1,70,2|10
424,72,103083,2,2,B|352:72,1,70,10|2
128,176,103416,2,2,B|200:176,1,70,2|10
392,176,103749,2,2,B|312:176,1,70,10|2
184,280,104083,2,2,B|256:280,1,70
328,280,104416,2,2,B|248:280,1,70
256,96,104749,1,0
256,128,104833,1,0
256,160,104916,1,0
256,200,104999,1,0
256,240,105083,2,0,B|256:280,4,23.3333333333333
72,88,116083,6,0,B|160:88,1,70,2|0
232,64,116416,2,0,B|312:64,1,70,2|8
392,80,116749,2,0,B|424:112|408:152,1,70,2|0
440,232,117083,2,0,B|376:272,1,70,2|8
296,296,117416,2,0,B|208:296,1,70,2|0
128,288,117749,2,0,B|88:256|96:208,1,70,2|8
80,136,118083,2,0,B|80:88|120:64,1,70,2|0
192,56,118416,1,10
408,72,118749,6,0,B|448:96|440:136,1,70,2|0
440,216,119083,1,2
376,280,119249,1,8
288,304,119416,2,0,B|248:320|200:296,1,70,2|0
128,288,119749,1,2
72,224,119916,1,8
72,128,120083,2,0,B|88:80|136:80,1,70,2|0
208,64,120416,2,0,B|248:48|288:72,1,70,2|8
376,96,120749,1,6
304,208,121083,6,2,B|288:192|288:192|272:208|272:208|256:192|256:192|240:208|240:208|224:192|224:192|208:208|208:208|192:192|192:192,1,140,2|0
96,80,121416,6,0,B|128:104|128:152,1,70,2|0
64,192,121749,2,0,B|64:232|96:264,1,70,2|8
160,304,122083,1,2
160,304,122249,1,0
256,312,122416,1,2
256,312,122583,1,8
352,304,122749,1,2
352,304,122916,1,0
432,264,123083,1,2
432,264,123249,1,8
416,168,123416,2,10,B|264:168,1,140
176,240,124083,5,2
176,240,124249,1,0
256,128,124416,1,2
256,128,124583,1,0
336,240,124749,1,2
336,240,124916,1,0
176,160,125083,1,2
176,160,125249,1,0
336,160,125416,1,2
336,160,125583,1,0
256,168,125749,1,2
256,168,126083,2,10,B|256:280,1,93.3333333333333,0|0
256,288,126416,2,0,B|256:322,2,23.3333333333333
256,56,126749,6,0,B|184:56,1,70,2|0
256,120,127083,2,0,B|328:120,1,70,2|8
256,184,127416,2,0,B|184:184,1,70,2|0
256,248,127749,2,0,B|328:248,1,70,2|8
160,64,128083,2,2,B|96:112,1,70
352,64,128416,2,8,B|408:120,1,70
160,232,128749,2,2,B|104:272,1,70
352,232,129083,2,8,B|408:280,1,70
288,312,129416,5,2
224,312,129583,1,0
128,280,129749,2,0,B|96:248|128:208,1,70,2|8
120,128,130083,2,0,B|88:88|120:48,1,70,2|0
224,64,130416,1,2
288,64,130583,1,8
384,64,130749,2,0,B|448:96,1,70,2|0
320,144,131083,2,0,B|392:184,1,70,2|0
328,224,131416,2,0,B|432:280,1,116.666666666667,8|0
72,304,132083,5,2
128,248,132249,1,0
184,304,132416,1,2
320,304,132749,1,2
376,248,132916,1,0
432,304,133083,1,2
336,88,133416,2,0,B|424:88,2,70,2|0|2
176,88,134083,2,0,B|96:88,2,70,2|0|2
168,248,134749,6,0,B|104:296,2,70,2|0|2
256,192,135249,1,8
344,248,135416,2,0,B|408:296,2,70,2|0|2
256,192,135916,1,8
168,112,136083,2,0,B|96:56,1,70,2|0
256,112,136416,2,0,B|256:40,1,70,2|0
344,112,136749,2,0,B|392:56,1,70,2|0
256,192,137083,2,0,B|256:224,2,23.3333333333333
96,296,137416,5,0
416,296,137749,1,0
96,72,138083,1,0
416,72,138416,1,0
256,304,138749,1,0
256,72,139083,1,0
96,192,139416,1,0
416,192,139749,1,2
256,192,140083,5,0
104,72,140416,1,0
256,192,140749,1,0
408,72,141083,1,0
104,320,141416,1,0
256,320,141749,1,0
408,320,142083,1,4
104,320,142749,5,0
256,64,143083,1,0
416,320,143416,1,0
104,152,143749,1,0
416,152,144083,1,0
104,320,144416,1,0
256,192,144749,1,0
256,192,145083,1,2
104,72,145416,6,0,B|248:72,1,140,0|8
408,168,146083,2,0,B|248:168,1,140,0|8
104,272,146749,2,0,B|264:272,1,140,0|8
256,112,147416,2,0,B|256:72,5,23.3333333333333
416,304,148083,5,0
88,80,148416,1,0
256,192,148749,2,0,B|144:280,1,140,0|8
256,192,149416,2,0,B|376:96,1,140,0|8
88,304,150083,1,0
416,80,150416,1,0
88,96,150749,5,0
88,288,151083,1,0
192,96,151416,1,0
192,288,151749,1,0
304,96,152083,1,0
304,288,152416,1,0
416,120,152749,2,0,B|416:280,1,140,2|0
104,192,153416,5,0
408,192,153749,1,0
104,192,154083,1,0
408,192,154416,1,0
104,192,154749,1,0
408,192,155083,1,0
104,192,155416,1,0
408,192,155749,1,0
160,88,156083,6,0,B|264:200,1,140,2|8
352,88,156749,2,0,B|248:200,1,140,2|8
256,336,157416,2,0,B|256:192,1,140,2|8
256,196,158083,1,6
256,192,158750,12,4,164083
