osu file format v9

[General]
AudioFilename: Pastry - Goblin Girl.mp3
AudioLeadIn: 1000
PreviewTime: 21729
Countdown: 0
SampleSet: Soft
StackLeniency: 0.7
Mode: 0
LetterboxInBreaks: 0

[Editor]
DistanceSpacing: 1.2
BeatDivisor: 4
GridSize: 8

[Metadata]
Title:Goblin Girl
Artist:Pastry
Creator:osuplayer111
Version:Lunatic
Source:Touhou
Tags:Bubblerecords Koishi Komeiji tieff Louis Cyphre Lucifer climbb65588

[Difficulty]
HPDrainRate:7
CircleSize:5
OverallDifficulty:8
ApproachRate:8
SliderMultiplier:1.6
SliderTickRate:2

[Events]
//Background and Video events
0,0,"Ohai tieff.jpg"
//Break Periods
2,76871,82296
//Storyboard Layer 0 (Background)
//Storyboard Layer 1 (Fail)
//Storyboard Layer 2 (Pass)
//Storyboard Layer 3 (Foreground)
//Storyboard Sound Samples
//Background Colour Transformations
3,100,128,0,128

[TimingPoints]
2046,375,4,2,1,70,1,0
3264,-100,4,1,1,60,0,0
3452,-100,4,2,1,80,0,0
5889,-100,4,1,1,80,0,0
6452,-100,4,2,1,80,0,0
8514,-100,4,1,1,70,0,0
9452,-100,4,2,1,80,0,0
11046,-100,4,1,1,80,0,0
12077,-100,4,2,1,80,0,0
13764,-100,4,1,1,80,0,0
13952,-100,4,2,1,80,0,0
16389,-100,4,1,1,80,0,0
16952,-100,4,2,1,80,0,0
19014,-100,4,1,1,80,0,0
19952,-100,4,2,1,80,0,0
23983,-100,4,1,1,65,0,0
82671,-100,4,2,1,85,0,0
86983,-100,4,1,1,20,0,0
87358,-100,4,1,1,30,0,0
87546,-100,4,1,1,40,0,0
87733,-100,4,1,1,50,0,0
87921,-100,4,1,1,60,0,0
88108,-100,4,1,1,70,0,0
88296,-100,4,1,1,80,0,0
88483,-100,4,1,1,90,0,0
88671,-100,4,1,1,100,0,0
88858,-100,4,1,1,65,0,0

[Colours]
Combo1 : 128,128,255
Combo2 : 128,255,255
Combo3 : 0,128,255

[HitObjects]
80,184,2046,1,4
128,104,2233,1,0
208,48,2421,1,8
304,48,2608,1,0
384,104,2796,2,0,B|432:80,1,40,8|0
432,184,3077,2,0,B|384:208,1,40,0|8
312,248,3358,6,0,B|176:248,2,120,0|2|0
304,128,4108,2,0,B|304:24,1,80,2|0
208,128,4483,2,0,B|208:24,1,80,2|4
128,192,4858,1,0
128,288,5046,1,8
208,344,5233,1,0
304,344,5421,1,8
304,344,5514,1,0
384,288,5702,2,0,B|416:248,1,40,0|8
464,184,5983,5,0
48,184,6358,1,0
208,32,6733,2,0,B|152:104,1,80,2|0
304,32,7108,2,0,B|360:104,1,80,2|4
216,144,7483,2,0,B|160:216,1,80,0|8
296,144,7858,2,0,B|352:216,1,80,0|8
345,207,8139,1,0
256,248,8327,2,0,B|256:192,1,40,0|8
104,264,8608,5,0
128,304,8702,1,0
168,336,8796,1,0
216,352,8889,1,0
256,328,8983,1,0
296,352,9077,1,0
344,336,9171,1,0
384,304,9264,1,0
408,264,9358,1,0
432,168,9546,5,2
464,80,9733,1,0
368,56,9921,1,4
336,144,10108,1,0
256,192,10296,2,0,B|256:112,1,80,8|0
176,144,10671,5,8
176,144,10764,1,0
144,56,10952,1,0
144,56,11046,1,0
144,56,11233,1,0
48,80,11421,1,0
48,80,11514,1,0
48,80,11608,1,0
80,168,11796,1,0
80,168,11889,1,0
80,168,11983,1,0
112,256,12171,6,0,B|112:312|176:312,1,80,2|0
160,216,12546,1,4
256,192,12733,1,0
352,216,12921,1,8
353,310,13108,2,0,B|400:312|400:256,1,80,0|8
399,258,13389,1,0
392,160,13577,1,0
392,160,13671,1,8
304,208,13858,1,0
128,128,14233,5,2
184,48,14421,1,0
256,112,14608,1,2
328,48,14796,1,0
384,128,14983,1,2
192,120,15171,2,0,B|208:216,1,80,4|0
320,120,15546,2,0,B|304:216,1,80,8|0
296,304,15921,2,0,B|336:344,1,40,8|0
216,304,16202,2,0,B|176:344,1,40,0|8
256,248,16483,5,0
64,48,16858,1,0
448,48,17233,2,0,B|360:48,1,80,2|0
408,128,17608,2,0,B|328:128,1,80,2|4
368,208,17983,2,0,B|288:208,1,80,0|8
192,208,18358,1,0
240,128,18546,1,8
240,128,18639,1,0
288,48,18827,1,0
288,48,18921,1,8
192,48,19108,5,0
176,56,19202,1,0
160,64,19296,1,0
144,72,19389,1,0
128,80,19483,1,0
112,88,19577,1,0
96,96,19671,1,0
80,104,19764,1,0
64,112,19858,1,0
56,208,20046,6,0,B|112:288,1,80,2|0
160,352,20421,1,4
208,264,20608,1,0
304,264,20796,1,8
352,352,20983,1,0
410,272,21171,2,0,B|444:300,1,40,8|0
456,208,21452,2,0,B|422:180,1,40,0|8
256,192,21733,1,4
256,192,21827,12,2,23796
120,72,24171,5,4
120,72,24358,1,0
80,160,24546,1,0
80,160,24733,1,0
168,200,24921,1,0
168,200,25108,1,0
208,112,25296,1,0
208,112,25483,1,0
264,192,25671,6,0,B|344:192,1,80
432,144,26046,2,0,B|504:144|504:240|424:240,1,160
344,288,26608,1,0
256,328,26796,2,0,B|168:328|112:240,2,160
256,232,27733,1,0
320,160,27921,1,0
256,88,28108,1,0
192,160,28296,6,0,B|88:160|88:48,1,160
176,32,28858,1,0
256,88,29046,1,0
336,32,29233,2,0,B|400:96,1,80
256,88,29608,2,0,B|320:152,1,80
180,150,29983,2,0,B|244:214,1,80
328,240,30358,1,0
328,240,30546,2,0,B|376:288|296:368|232:304,2,160
400,176,31483,5,0
400,176,31671,1,0
456,96,31858,2,0,B|376:48,1,80
328,128,32233,1,0
328,128,32421,2,0,B|248:128|184:48,2,160
400,176,33358,1,0
112,336,34296,5,0
48,264,34483,1,0
128,208,34671,1,4
192,280,34858,1,0
288,280,35046,1,8
288,280,35233,2,0,B|384:296|416:200,2,160,0|0|0
192,280,36171,6,0,B|248:200,1,80
128,208,36546,2,0,B|184:128,1,80,8|0
264,112,36921,2,0,B|432:112,2,160,0|8|0
200,40,37858,1,0
104,40,38046,1,8
40,112,38233,1,0
96,192,38421,6,0,B|96:272|208:328,2,160,0|8|0
192,192,39358,1,0
256,120,39546,1,8
320,192,39733,1,0
416,192,39921,2,0,B|416:272|304:328,2,160,0|8|0
360,120,40858,5,0
304,40,41046,1,8
256,224,41421,1,0
208,40,41796,1,8
152,120,41983,1,0
104,200,42171,2,0,B|168:264,1,80
152,352,42546,6,0,B|248:336|256:224,2,160,8|0|8
56,336,43483,1,0
8,248,43671,1,0
80,184,43858,2,0,B|160:184,1,80,0|8
256,184,44233,1,0
432,184,44421,2,0,B|352:184,1,80
328,280,44796,5,8
304,320,44889,1,0
256,336,44983,1,0
208,320,45077,1,0
184,280,45171,1,4
184,184,45358,5,0
256,120,45546,1,8
328,184,45733,2,0,B|368:104|296:24,1,160
256,120,46296,1,8
184,184,46483,2,0,B|144:104|216:24,1,160
256,120,47046,2,0,B|256:232,1,80,8|0
256,376,47421,2,0,B|256:288,1,80
176,248,47796,6,0,B|336:248,2,160,8|0|8
80,248,48733,2,0,B|112:168,1,80
136,80,49108,1,0
232,96,49296,1,8
208,184,49483,1,0
176,272,49671,6,0,B|200:328|280:328|303:271,2,160,0|8|0
208,184,50608,1,0
304,200,50796,1,8
320,112,50983,1,0
224,96,51171,1,0
296,24,51358,6,0,B|392:24|448:120,1,160
320,112,51921,1,0
216,24,52108,2,0,B|120:24|64:120,1,160
80,192,52671,2,0,B|160:248,1,80
216,304,53046,2,0,B|312:304,1,80,8|0
366,237,53421,2,0,B|432:192,1,80
336,144,53796,2,0,B|176:144,2,160,0|8|0
352,240,54733,5,0
432,184,54921,1,8
440,88,55108,1,0
368,24,55296,1,0
368,24,55389,1,0
368,24,55483,1,0
368,24,55577,1,0
368,24,55671,1,4
320,104,55858,5,0
224,104,56046,1,8
224,104,56233,2,0,B|128:88|96:184,2,160
320,104,57171,6,0,B|264:184,1,80
384,176,57546,2,0,B|328:256,1,80,8|0
248,272,57921,2,0,B|80:272,2,160,0|8|0
312,344,58858,1,0
408,344,59046,1,8
472,272,59233,1,0
416,192,59421,6,0,B|416:96|304:56,2,160,0|8|0
320,192,60358,1,0
256,264,60546,1,8
192,192,60733,1,0
96,192,60921,2,0,B|96:96|208:56,2,160,0|8|0
152,264,61858,5,0
208,344,62046,1,8
256,160,62421,1,0
304,344,62796,1,8
360,264,62983,1,0
408,184,63171,2,0,B|344:120,1,80
360,32,63546,6,0,B|264:48|256:160,2,160,8|0|8
456,48,64483,1,0
504,136,64671,1,0
432,200,64858,2,0,B|352:200,1,80,0|8
256,200,65233,1,0
80,200,65421,2,0,B|160:200,1,80
184,104,65796,5,8
208,64,65889,1,0
256,48,65983,1,0
304,64,66077,1,0
328,104,66171,1,4
328,200,66358,5,0
256,264,66546,1,8
184,200,66733,2,0,B|144:280|216:360,1,160
256,264,67296,1,8
328,200,67483,2,0,B|368:280|296:360,1,160
256,264,68046,2,0,B|256:152,1,80,8|0
256,8,68421,2,0,B|256:96,1,80
336,136,68796,6,0,B|176:136,2,160,8|0|8
432,136,69733,2,0,B|400:216,1,80
376,304,70108,1,0
280,288,70296,1,8
304,200,70483,1,0
336,112,70671,6,0,B|312:56|232:56|209:113,2,160,0|8|0
304,200,71608,1,0
208,184,71796,1,8
192,272,71983,1,0
288,288,72171,1,0
216,360,72358,6,0,B|120:360|64:264,1,160
192,272,72921,1,0
296,360,73108,2,0,B|392:360|448:264,1,160
432,192,73671,2,0,B|352:136,1,80
296,80,74046,2,0,B|200:80,1,80,8|0
146,147,74421,2,0,B|80:192,1,80
176,240,74796,2,0,B|336:240,2,160,8|0|4
168,336,75733,5,0
256,368,75921,1,0
344,336,76108,1,0
256,288,76296,1,0
256,240,76389,1,0
256,192,76483,1,0
256,144,76577,1,0
256,96,76671,1,4
40,88,83046,5,8
432,328,83796,1,8
472,88,84546,1,8
80,328,85296,1,8
256,56,86046,1,8
256,296,86796,1,8
112,56,87171,5,0
120,80,87264,1,0
136,104,87358,1,0
152,120,87452,1,0
168,136,87546,1,8
184,152,87639,1,0
208,168,87733,1,0
232,176,87827,1,0
256,184,87921,1,0
280,176,88014,1,0
304,168,88108,1,0
328,152,88202,1,0
344,136,88296,1,8
360,120,88389,1,0
376,104,88483,1,0
392,80,88577,1,0
400,56,88671,1,4
472,232,89046,6,0,B|424:304|336:320,1,160,8|0
256,360,89608,1,0
169,318,89796,2,0,B|88:304|40:232,2,160,8|0|8
112,128,90921,5,0
184,64,91108,1,0
256,128,91296,1,8
400,256,91671,1,0
328,320,91858,1,0
256,256,92046,1,8
328,64,92421,6,0,B|416:64,2,80,0|0|8
184,320,93171,2,0,B|24:320,2,160,0|8|0
256,256,94108,1,0
328,320,94296,1,8
464,192,94671,6,0,B|464:104|368:56,2,160,0|8|0
384,240,95608,1,0
304,192,95796,1,8
208,192,95983,1,0
128,240,96171,1,0
129,63,96546,6,0,B|48:104|48:192,2,160,8|0|8
256,192,97671,1,0
256,288,97858,1,0
352,288,98046,2,0,B|520:288,2,160,8|0|8
256,288,98983,1,0
160,288,99171,2,0,B|-8:288,2,160,0|8|0
208,288,100014,5,0
216,336,100108,1,0
256,360,100202,1,0
296,336,100296,1,8
304,288,100389,1,0
296,240,100483,1,0
256,216,100577,1,0
216,240,100671,1,4
256,192,100717,12,2,102546
256,192,102592,12,2,103296
256,192,103342,12,2,105171
256,192,105217,12,2,105921
256,192,105967,12,2,107796
256,192,107842,12,2,108546
256,48,110421,5,0
256,72,110514,1,0
256,96,110608,1,0
256,120,110702,1,0
256,144,110796,1,0
256,168,110889,1,0
256,192,110983,1,0
256,216,111077,1,0
256,240,111171,1,4
160,264,111358,5,0
208,344,111546,1,8
304,344,111733,1,0
352,264,111921,2,0,B|424:208|416:104,2,160,0|8|0
256,240,112858,1,0
160,264,113046,2,0,B|88:208|96:104,2,160,8|0|8
256,48,114171,6,0,B|256:144,1,80
192,200,114546,2,0,B|216:256|296:256|320:195,1,160,8|0
376,280,115108,1,0
304,344,115296,1,8
208,344,115483,1,0
136,280,115671,1,0
256,136,116046,1,8
376,280,116421,6,0,B|464:280,1,80
456,184,116796,2,0,B|456:96,1,80,8|0
376,48,117171,1,0
320,120,117358,1,0
256,192,117546,2,0,B|80:192,1,160,8|0
256,304,118296,2,0,B|424:304,1,160,8|0
416,304,118858,1,0
416,304,119046,5,8
96,304,119421,1,0
256,192,119796,2,0,B|256:104,2,80,8|0|0
208,272,120358,1,0
304,272,120546,2,0,B|368:216|368:128,1,160,8|0
304,56,121108,1,0
208,56,121296,5,8
168,88,121389,1,0
144,128,121483,1,0
152,176,121577,1,0
168,224,121671,1,4
208,312,121858,1,0
304,312,122046,1,8
344,224,122233,1,0
368,128,122421,2,0,B|273:129|251:246,1,160,0|8
208,312,122983,6,0,B|112:312,1,80
304,312,123358,2,0,B|400:312,1,80,0|8
256,64,123921,2,0,B|256:232,1,160,0|8
168,192,124483,2,0,B|72:192,1,80
344,192,124858,2,0,B|440:192,1,80,0|8
472,104,125233,1,0
395,40,125421,2,0,B|331:128|235:48,1,160,0|8
80,144,126171,5,0
144,216,126358,1,0
64,272,126546,1,8
0,200,126733,1,0
80,144,126921,2,0,B|168:144|216:64,2,160,0|8|0
144,216,127858,1,0
0,200,128046,1,8
64,272,128233,6,0,B|152:272|200:352,2,160
144,216,129171,1,0
224,264,129358,1,0
304,208,129546,2,0,B|216:208|168:128,2,160,8|0|8
304,304,130483,1,0
392,344,130671,1,0
480,304,130858,1,0
480,208,131046,5,4
480,184,131139,1,0
472,160,131233,1,0
456,144,131327,1,0
432,128,131421,1,0
408,120,131514,1,0
384,128,131608,1,0
360,144,131702,1,0
344,160,131796,1,0
304,248,131983,1,0
304,248,132171,1,4
