osu file format v9

[General]
AudioFilename: Pastry - Goblin Girl.mp3
AudioLeadIn: 1000
PreviewTime: 21729
Countdown: 0
SampleSet: Soft
StackLeniency: 0.7
Mode: 0
LetterboxInBreaks: 0

[Editor]
DistanceSpacing: 0.8
BeatDivisor: 2
GridSize: 8

[Metadata]
Title:Goblin Girl
Artist:Pastry
Creator:osuplayer111
Version:Calm
Source:Touhou
Tags:Bubblerecords Koishi Komeiji tieff Louis Cyphre Lucifer climbb65588

[Difficulty]
HPDrainRate:3
CircleSize:3
OverallDifficulty:3
ApproachRate:3
SliderMultiplier:1
SliderTickRate:2

[Events]
//Background and Video events
0,0,"Ohai tieff.jpg"
//Break Periods
2,76871,81606
//Storyboard Layer 0 (Background)
//Storyboard Layer 1 (Fail)
//Storyboard Layer 2 (Pass)
//Storyboard Layer 3 (Foreground)
//Storyboard Sound Samples
//Background Colour Transformations
3,100,128,0,128

[TimingPoints]
2046,375,4,2,1,70,1,0
3264,-100,4,1,1,60,0,0
3452,-100,4,2,1,80,0,0
5889,-100,4,1,1,80,0,0
6452,-100,4,2,1,80,0,0
8514,-100,4,1,1,70,0,0
9452,-100,4,2,1,80,0,0
10952,-100,4,1,1,80,0,0
12077,-100,4,2,1,80,0,0
13764,-100,4,1,1,80,0,0
13952,-100,4,2,1,80,0,0
16389,-100,4,1,1,80,0,0
16952,-100,4,2,1,80,0,0
19014,-100,4,1,1,80,0,0
19952,-100,4,2,1,80,0,0
23046,-100,4,1,1,65,0,0
82671,-100,4,2,1,85,0,0
88483,-100,4,1,1,65,0,0
102733,-100,4,1,1,0,0,0
103296,-100,4,1,1,65,0,0
105358,-100,4,1,1,0,0,0
105921,-100,4,1,1,65,0,0
107983,-100,4,1,1,0,0,0
108546,-100,4,1,1,65,0,0

[Colours]
Combo1 : 128,128,255
Combo2 : 128,255,255
Combo3 : 0,128,255

[HitObjects]
305,104,2046,6,0,B|185:104,1,100,4|8
256,256,3171,2,0,B|256:320,1,50,8|0
72,192,4671,6,0,B|192:192,1,100,4|8
328,192,5796,2,0,B|408:192,1,50,8|0
456,192,6358,1,0
328,352,7296,6,0,B|272:352|232:320,1,100,4|8
96,240,8421,2,0,B|96:192,1,50,8|0
96,112,8983,1,0
96,32,9358,1,0
208,72,9921,6,0,B|245:41|301:41,1,100,4|8
464,40,11046,2,0,B|432:88,1,50,0|4
384,144,11608,1,0
336,208,11983,1,0
248,296,12546,6,0,B|144:296,1,100,4|8
32,192,13671,2,0,B|88:192,1,50,8|0
328,56,15171,5,4
376,120,15546,1,8
464,256,16296,2,0,B|384:256,1,50,8|0
336,256,16858,1,0
136,256,17796,6,0,B|80:256|48:208,1,100,4|8
40,56,18921,2,0,B|80:104,1,50,8|0
120,160,19483,2,0,B|176:160|208:208,1,100
256,312,20421,6,0,B|360:312,1,100,4|8
464,192,21546,2,0,B|416:192,1,50,8|4
256,48,24171,5,4
200,104,24546,1,0
88,216,25296,1,0
205,320,26046,2,0,B|309:320,2,100
256,168,27546,5,0
416,192,28296,1,0
400,352,29046,1,0
320,336,29421,1,0
240,320,29796,1,0
80,296,30546,5,0
80,136,31296,2,0,B|80:32,2,100
160,136,32421,1,0
240,136,32796,1,0
304,184,33171,1,0
456,320,34671,6,0,B|344:320,1,100,4|8
256,192,35796,1,8
96,192,36546,1,8
56,320,37296,2,0,B|168:320,2,100,8|0|8
176,216,38796,5,8
256,80,39546,2,0,B|256:200,2,100,8|0|8
336,216,41046,1,8
256,352,41796,1,8
112,288,42546,6,0,B|56:288|40:224,2,100,8|0|8
120,208,43671,1,0
176,152,44046,1,8
336,152,44796,1,8
392,208,45171,1,4
400,288,45546,1,8
256,352,46296,6,0,B|256:240,1,100,8|0
256,176,47046,1,8
208,112,47421,1,0
256,48,47796,1,8
416,40,48546,5,8
336,176,49296,1,8
416,312,50046,2,0,B|312:312,1,100,8|0
256,256,50796,1,8
104,312,51546,1,8
104,152,52296,6,0,B|104:96|40:80,2,100,8|0|8
104,312,53796,1,8
104,152,54546,1,8
24,138,54921,1,0
56,64,55296,1,8
56,64,55671,6,0,B|168:64,1,100,4|8
256,192,56796,1,8
416,192,57546,1,8
456,64,58296,2,0,B|344:64,2,100,8|0|8
336,168,59796,5,8
256,304,60546,2,0,B|256:184,2,100,8|0|8
176,168,62046,1,8
256,32,62796,1,8
400,96,63546,6,0,B|456:96|472:160,2,100,8|0|8
392,176,64671,1,0
336,232,65046,1,8
176,232,65796,1,8
120,176,66171,1,4
112,96,66546,1,8
256,32,67296,6,0,B|256:144,1,100,8|0
256,208,68046,1,8
304,272,68421,1,0
256,336,68796,1,8
96,344,69546,5,8
176,208,70296,1,8
96,72,71046,2,0,B|200:72,1,100,8|0
256,128,71796,1,8
408,72,72546,1,8
408,232,73296,6,0,B|408:288|472:304,2,100,8|0|8
408,72,74796,1,8
256,112,75546,1,4
256,352,76671,5,4
184,88,83046,5,8
64,192,83796,1,8
184,296,84546,1,8
328,296,85296,1,8
448,192,86046,1,8
328,88,86796,1,8
256,192,87171,12,4,88671
256,192,89046,5,8
360,312,89796,1,8
464,192,90546,1,8
360,72,91296,1,8
256,192,92046,5,8
152,72,92796,1,8
48,192,93546,1,8
152,312,94296,1,8
204,377,94671,1,0
256,312,95046,5,8
416,312,95796,1,8
280,232,96546,1,8
440,232,97296,1,8
304,152,98046,5,8
464,152,98796,1,8
320,72,99546,1,8
395,112,99921,1,0
480,72,100296,2,0,B|448:32|392:32,1,100,8|4
64,272,102546,6,0,B|64:160|184:112,1,200,2|2
448,272,105171,6,0,B|448:160|328:112,1,200,2|2
256,344,107796,6,0,B|256:144,1,200,2|2
152,88,110421,5,0
216,40,110796,1,0
296,40,111171,1,4
360,88,111546,1,8
400,240,112296,5,8
256,320,113046,1,8
112,240,113796,2,0,B|8:240,2,100,8|0|8
256,168,115296,5,8
200,16,116046,1,8
256,72,116421,1,0
312,16,116796,1,8
392,152,117546,5,8
360,312,118296,1,8
296,360,118671,1,0
216,360,119046,1,8
152,312,119421,1,0
120,152,120171,5,0
256,240,120921,2,0,B|256:128,2,100,0|8|4
392,152,122421,1,0
304,16,123171,5,0
256,80,123546,1,8
208,16,123921,1,0
256,168,124671,1,0
256,328,125421,1,0
160,200,126171,5,0
216,256,126546,1,8
296,256,126921,1,0
256,104,127671,1,0
352,200,128421,5,0
296,256,128796,1,8
216,256,129171,1,0
160,200,129546,1,8
176,120,129921,5,0
336,120,130671,1,0
256,104,131046,1,4
256,280,132171,5,4
