osu file format v6

[General]
AudioFilename: nomnomnom.mp3
AudioLeadIn: 0
PreviewTime: 40510
Countdown: 1
SampleSet: Soft
StackLeniency: 0.7
Mode: 0
LetterboxInBreaks: 1

[Editor]
Bookmarks: 3000,17531,40500
DistanceSpacing: 1.20000004768372
BeatDivisor: 4
GridSize: 16

[Metadata]
Title:Nom Nom Nom Nom Nom Nom Nom
Artist:ParryGripp
Creator:Samurai_X
Version:Nom Nom Nom
Source:
Tags:parry gripp fuzzy cute animals

[Difficulty]
HPDrainRate:7
CircleSize:5
OverallDifficulty:7
SliderMultiplier:1.4
SliderTickRate:2

[Events]
//Background and Video events
Video,0,"nomnomnom.flv"
0,0,"nom-nom-nom.jpg"
//Break Periods
//Storyboard Layer 0 (Background)
//Storyboard Layer 1 (Fail)
//Storyboard Layer 2 (Pass)
//Storyboard Layer 3 (Foreground)
//Storyboard Sound Samples
//Background Colour Transformations
3,100,163,162,255

[TimingPoints]
3010,468.75,4,2,0,100,1,0
40500,-100,4,2,0,100,0,1
47999,-100,4,2,0,100,0,0
48000,-100,4,2,0,100,0,1
55031,-100,4,2,0,100,0,0

[HitObjects]
64,192,3010,1,0
96,160,3244,1,0
128,128,3478,1,0
160,96,3713,1,2
192,64,3947,1,0
224,96,4181,1,2
256,128,4416,1,4
192,192,4885,5,0
224,160,5119,1,0
256,128,5353,1,0
288,96,5588,1,2
320,64,5822,1,0
352,96,6056,1,2
384,128,6291,1,0
416,160,6525,1,2
448,192,6760,5,0
416,224,6994,1,0
384,256,7228,1,0
352,288,7463,1,2
320,256,7697,1,0
288,224,7931,1,2
256,192,8166,1,4
224,256,8635,5,0
192,224,8869,1,2
160,192,9103,1,0
128,160,9338,1,2
160,128,9572,1,0
192,96,9806,1,2
224,64,10041,1,4
288,64,10510,5,0
320,96,10744,1,8
352,128,10978,1,0
384,160,11213,1,2
352,192,11447,1,0
320,224,11681,1,2
288,256,11916,1,4
352,256,12385,5,0
320,224,12619,1,8
288,192,12853,1,0
256,160,13088,1,8
224,128,13322,1,0
256,128,13556,1,8
288,128,13791,1,2
320,128,14025,1,2
352,128,14260,5,0
288,192,14728,1,8
224,256,15197,1,8
224,224,15431,1,0
224,192,15666,1,8
256,192,16135,12,4,17541
224,160,18010,5,0
256,96,18244,1,8
288,160,18478,1,0
224,96,18713,1,8
288,96,18947,1,0
256,160,19181,1,8
256,96,19416,1,8
192,160,19885,5,0
192,224,20119,1,8
256,192,20353,1,0
320,192,20588,1,8
352,256,20822,2,2,B|256:256,3,70,8|8|2|8
224,256,21760,6,8,B|224:160,2,70
288,256,22463,2,2,B|288:352,2,70
224,256,23166,1,4
256,96,23635,5,0
256,192,23869,1,8
256,96,24103,1,0
288,192,24338,1,8
256,96,24572,1,0
224,192,24806,1,8
256,96,25041,1,8
96,192,25510,5,4
160,192,25744,1,0
224,192,25978,2,8,B|288:192,2,35,8|8|8
416,192,26447,5,0
352,192,26682,1,0
288,192,26916,2,8,B|224:192,2,35
224,64,27385,5,4
224,128,27619,1,0
224,192,27853,2,8,B|224:256,2,35
288,320,28322,5,0
288,256,28556,1,0
288,192,28791,2,8,B|288:128,2,35
288,64,29260,5,4
288,128,29494,1,0
288,192,29728,2,8,B|288:256,2,35
224,320,30197,5,0
224,256,30431,1,0
224,192,30666,2,8,B|224:128,2,35
256,192,31135,12,4,32541
352,160,33010,5,0
352,224,33244,1,8
288,192,33478,1,4
256,192,33595,1,4
224,192,33713,1,4
160,160,33947,5,0
160,224,34181,1,8
224,192,34416,1,4
256,192,34533,1,4
288,192,34650,1,4
224,96,34885,5,0
288,96,35119,1,8
256,160,35353,1,4
256,192,35470,1,4
256,224,35588,1,4
224,288,35822,5,0
288,288,36056,1,8
256,224,36291,1,4
256,192,36408,1,0
256,160,36525,1,4
256,192,36760,12,4,40275
352,224,40510,5,2
256,192,40744,1,8
352,192,40978,1,2
256,192,41213,1,8
352,160,41447,1,2
256,192,41681,1,8
352,192,41916,1,4
192,256,42385,5,2
224,192,42619,1,8
192,128,42853,1,2
160,192,43088,1,8
128,256,43322,1,2
96,192,43556,1,8
64,128,43791,1,2
96,64,44025,1,8
128,128,44260,6,2,B|288:128,3,140,2|2|2|2
384,96,46135,5,2
384,192,46369,1,8
384,288,46603,1,2
320,192,46838,1,8
256,96,47072,1,2
256,192,47306,1,8
256,288,47541,1,4
128,96,48010,5,2
128,192,48244,1,8
128,288,48478,1,2
192,192,48713,1,8
256,96,48947,1,2
256,192,49181,1,8
256,288,49416,1,4
160,192,49885,5,2
256,192,50119,1,8
160,224,50353,1,2
256,192,50588,1,8
160,160,50822,1,2
256,192,51056,1,8
160,192,51291,1,2
256,192,51525,1,8
352,160,51760,6,8,B|352:256,2,70
256,160,52463,2,8,B|160:160,1,70
160,256,52931,2,8,B|256:256,1,70
160,128,53635,5,2
256,128,53869,1,8
352,128,54103,1,2
256,192,54338,1,8
160,256,54572,1,2
256,256,54806,1,8
352,256,55041,1,4
354,140,55510,5,0
354,236,55744,1,0
386,140,55978,1,0
386,236,56213,1,0
418,140,56447,1,0
418,236,56681,1,0
351,191,56916,1,4
192,128,57385,6,0,B|192:224,3,70,0|2|0|2
256,128,58322,2,0,B|352:128,3,70
320,192,59260,2,0,B|224:192,3,70
384,192,60197,1,0
384,256,60431,1,2
320,256,60666,1,2
256,320,61135,5,0
192,320,61369,1,2
224,256,61603,1,0
160,288,61838,1,2
160,224,62072,1,0
96,288,62306,1,2
96,224,62541,1,4
192,192,63010,5,0
256,128,63244,1,0
320,192,63478,1,0
256,256,63713,1,0
256,128,63947,1,0
192,192,64181,1,12
320,192,64416,1,12
256,256,64650,1,4
