osu file format v14

[General]
AudioFilename: Raining Tacos.mp3
AudioLeadIn: 0
PreviewTime: -1
Countdown: 0
SampleSet: Normal
StackLeniency: 1
Mode: 0
LetterboxInBreaks: 1
EpilepsyWarning: 1
WidescreenStoryboard: 1

[Editor]
DistanceSpacing: 1
BeatDivisor: 4
GridSize: 4
TimelineZoom: 1

[Metadata]
Title:Raining Tacos
TitleUnicode:Raining Tacos
Artist:Parry Gripp
ArtistUnicode:Parry Gripp
Creator:Legendary Hero
Version:Insane
Source:Youtube
Tags:Tacos
BeatmapID:733996
BeatmapSetID:331323

[Difficulty]
HPDrainRate:5
CircleSize:4
OverallDifficulty:7
ApproachRate:9
SliderMultiplier:0.900000005960464
SliderTickRate:1

[Events]
//Background and Video events
0,0,"maxresdefault.jpg",0,0
//Break Periods
//Storyboard Layer 0 (Background)
//Storyboard Layer 1 (Fail)
//Storyboard Layer 2 (Pass)
//Storyboard Layer 3 (Foreground)
//Storyboard Sound Samples

[TimingPoints]
2250,434.751104992392,4,1,0,100,1,0
16488,-66.6666666666667,4,1,0,100,0,0

[Colours]
Combo1 : 102,255,0
Combo2 : 0,222,255
Combo3 : 102,255,0
Combo4 : 0,222,255

[HitObjects]
256,192,76,12,0,2250,0:0:0:0:
100,240,3554,5,0,0:0:0:0:
368,312,3989,1,0,0:0:0:0:
376,96,4423,1,0,0:0:0:0:
72,72,4858,2,0,P|124:56|128:16,1,90.0000005960464
388,288,5728,2,0,P|428:308|452:352,1,90.0000005960464
396,48,6597,1,0,0:0:0:0:
104,304,7032,5,0,0:0:0:0:
440,284,7467,2,0,P|436:232|480:232,1,90.0000005960464
136,92,8336,2,0,P|104:64|56:48,1,90.0000005960464
464,344,9206,1,0,0:0:0:0:
44,336,9640,1,0,0:0:0:0:
464,40,10075,1,0,0:0:0:0:
356,280,10292,6,0,L|328:320,1,45.0000002980232
268,176,10727,1,0,0:0:0:0:
176,128,10945,1,0,0:0:0:0:
108,232,11162,1,0,0:0:0:0:
452,272,11814,6,0,L|348:288,1,90.0000005960464
363,285,12684,1,0,0:0:0:0:
256,284,12901,2,0,P|168:280|168:248,1,135.00000089407
60,52,14423,5,0,0:0:0:0:
176,248,14857,2,0,L|120:324,1,90.0000005960464
448,48,15727,1,0,0:0:0:0:
256,192,16162,1,0,0:0:0:0:
88,56,16596,5,0,0:0:0:0:
96,160,17031,1,0,0:0:0:0:
96,160,17140,1,0,0:0:0:0:
96,160,17248,1,0,0:0:0:0:
96,160,17357,1,0,0:0:0:0:
96,160,17466,2,0,P|132:224|192:224,1,135.000006043911
356,128,18335,5,0,0:0:0:0:
384,216,18553,1,0,0:0:0:0:
388,312,18770,1,0,0:0:0:0:
136,308,19205,2,0,P|80:272|104:216,1,135.000006043911
52,48,20074,5,0,0:0:0:0:
156,132,20292,1,0,0:0:0:0:
256,52,20509,1,0,0:0:0:0:
352,136,20726,1,0,0:0:0:0:
452,52,20944,1,0,0:0:0:0:
256,348,21379,1,0,0:0:0:0:
56,188,21813,6,0,L|128:144,1,67.5000030219556
160,124,22248,1,0,0:0:0:0:
272,92,22683,2,0,P|296:136|280:160,1,67.5000030219556
252,212,23118,1,0,0:0:0:0:
116,316,23335,1,0,0:0:0:0:
60,72,23552,1,0,0:0:0:0:
180,80,23987,1,0,0:0:0:0:
388,68,24422,6,0,P|400:112|384:136,1,67.5000030219556
368,200,24857,1,0,0:0:0:0:
296,296,25074,1,0,0:0:0:0:
148,340,25291,1,0,0:0:0:0:
168,184,25509,1,0,0:0:0:0:
56,260,25726,1,0,0:0:0:0:
64,104,26161,6,0,P|124:64|184:72,1,135.000006043911
264,100,26813,1,0,0:0:0:0:
360,128,27030,1,0,0:0:0:0:
328,228,27248,1,0,0:0:0:0:
228,196,27465,1,0,0:0:0:0:
264,100,27682,1,0,0:0:0:0:
360,128,27900,1,0,0:0:0:0:
84,72,28335,5,0,0:0:0:0:
88,224,28769,2,0,P|120:296|184:284,1,135.000006043911
436,56,29639,1,0,0:0:0:0:
92,304,30074,1,0,0:0:0:0:
256,192,30508,5,0,0:0:0:0:
256,192,30617,1,0,0:0:0:0:
256,192,30726,1,0,0:0:0:0:
256,192,30834,1,0,0:0:0:0:
256,192,30943,1,0,0:0:0:0:
256,192,31052,1,0,0:0:0:0:
256,192,31160,1,0,0:0:0:0:
256,192,31269,1,0,0:0:0:0:
256,192,31378,2,0,P|296:256|352:264,1,135.000006043911
396,336,32247,5,0,0:0:0:0:
464,228,32465,1,0,0:0:0:0:
364,124,32682,1,0,0:0:0:0:
456,52,32899,1,0,0:0:0:0:
256,68,33334,5,0,0:0:0:0:
256,64,33552,5,0,0:0:0:0:
256,304,33986,1,0,0:0:0:0:
76,280,34204,1,0,0:0:0:0:
144,200,34421,2,0,P|264:144|276:244,1,270.000012087822
356,280,35508,1,0,0:0:0:0:
440,200,35725,1,0,0:0:0:0:
332,120,35943,1,0,0:0:0:0:
252,216,36160,1,0,0:0:0:0:
136,96,36595,5,0,0:0:0:0:
88,260,36812,1,0,0:0:0:0:
252,216,37030,1,0,0:0:0:0:
136,96,37247,1,0,0:0:0:0:
88,260,37464,1,0,0:0:0:0:
252,216,37682,1,0,0:0:0:0:
152,188,37899,1,0,0:0:0:0:
392,84,38334,5,0,0:0:0:0:
388,176,38769,2,0,P|384:244|344:224,1,135.000006043911
268,180,39421,1,0,0:0:0:0:
292,92,39638,1,0,0:0:0:0:
200,112,39855,1,0,0:0:0:0:
268,180,40073,1,0,0:0:0:0:
72,160,40508,6,0,B|112:240|104:216,1,67.5000030219556
160,328,40942,1,0,0:0:0:0:
384,312,41160,1,0,0:0:0:0:
408,176,41377,2,0,B|328:176|328:176|280:220|280:220|240:176|240:176|164:176,1,270.000012087822
128,72,42464,1,0,0:0:0:0:
68,184,42681,1,0,0:0:0:0:
168,232,42899,1,0,0:0:0:0:
224,136,43116,1,0,0:0:0:0:
336,80,43551,5,0,0:0:0:0:
344,300,43768,1,0,0:0:0:0:
156,300,43986,1,0,0:0:0:0:
144,88,44203,1,0,0:0:0:0:
112,192,44420,5,0,0:0:0:0:
112,192,44529,1,0,0:0:0:0:
112,192,44638,1,0,0:0:0:0:
112,192,44746,1,0,0:0:0:0:
112,192,44855,1,0,0:0:0:0:
112,192,44964,1,0,0:0:0:0:
112,192,45072,1,0,0:0:0:0:
112,192,45181,1,0,0:0:0:0:
112,192,45290,2,0,P|168:248|228:216,1,135.000006043911
64,332,47029,5,0,0:0:0:0:
164,244,47246,1,0,0:0:0:0:
252,328,47464,1,0,0:0:0:0:
332,248,47681,1,0,0:0:0:0:
328,164,47898,2,0,L|252:164,1,67.5000030219556
328,80,48333,2,0,L|256:80,1,67.5000030219556
152,80,48768,6,0,P|136:148|136:216,1,135.000006043911
328,80,49637,2,0,P|336:160|332:220,1,135.000006043911
144,84,50507,1,0,0:0:0:0:
328,224,50724,1,0,0:0:0:0:
136,228,50942,1,0,0:0:0:0:
320,96,51159,1,0,0:0:0:0:
144,84,51376,1,0,0:0:0:0:
328,224,51594,1,0,0:0:0:0:
136,228,51811,1,0,0:0:0:0:
320,96,52029,1,0,0:0:0:0:
328,224,52246,6,0,P|240:232|184:224,1,135.000006043911
320,96,53115,2,0,P|248:92|184:96,1,135.000006043911
68,80,53985,1,0,0:0:0:0:
148,164,54202,1,0,0:0:0:0:
56,244,54420,1,0,0:0:0:0:
140,324,54637,1,0,0:0:0:0:
364,324,54854,1,0,0:0:0:0:
440,248,55072,1,0,0:0:0:0:
356,164,55289,1,0,0:0:0:0:
432,80,55507,1,0,0:0:0:0:
176,72,55724,6,0,P|172:160|180:216,1,135.000006043911
344,76,56593,2,0,P|348:156|348:216,1,135.000006043911
112,248,57463,2,0,L|184:276,1,67.5000030219556
380,264,57898,2,0,L|312:280,1,67.5000030219556
120,156,58332,2,0,B|204:200|180:188,1,67.5000030219556
372,160,58767,2,0,L|312:192,1,67.5000030219556
240,108,59202,2,0,L|240:184,1,67.5000030219556
56,44,59637,6,0,L|124:108,1,67.5000030219556
452,336,60071,2,0,L|388:292,1,67.5000030219556
80,312,60506,2,0,L|144:272,1,67.5000030219556
436,56,60941,1,0,0:0:0:0:
280,56,61158,1,0,0:0:0:0:
292,220,61376,1,0,0:0:0:0:
448,220,61593,1,0,0:0:0:0:
160,104,61810,5,0,0:0:0:0:
332,304,62028,1,0,0:0:0:0:
160,272,62245,1,0,0:0:0:0:
304,144,62463,1,0,0:0:0:0:
96,196,62680,1,0,0:0:0:0:
232,328,62897,1,0,0:0:0:0:
236,88,63115,1,0,0:0:0:0:
356,248,63332,1,0,0:0:0:0:
100,256,63549,1,0,0:0:0:0:
132,112,63767,1,0,0:0:0:0:
220,208,63984,6,0,L|296:208,1,67.5000030219556
448,56,64419,2,0,L|384:100,1,67.5000030219556
392,192,64854,1,0,0:0:0:0:
296,324,65071,1,0,0:0:0:0:
80,312,65288,1,0,0:0:0:0:
380,152,65506,1,0,0:0:0:0:
380,152,65614,1,0,0:0:0:0:
380,152,65723,1,0,0:0:0:0:
380,264,65941,5,0,0:0:0:0:
188,232,66158,1,0,0:0:0:0:
188,232,66267,1,0,0:0:0:0:
188,232,66375,1,0,0:0:0:0:
224,80,66593,1,0,0:0:0:0:
272,176,66810,1,0,0:0:0:0:
104,136,67027,1,0,0:0:0:0:
120,304,67245,1,0,0:0:0:0:
120,304,67353,1,0,0:0:0:0:
120,304,67462,2,0,L|192:304,1,67.5000030219556
312,312,67897,5,0,0:0:0:0:
400,112,68114,1,0,0:0:0:0:
216,124,68332,1,0,0:0:0:0:
428,248,68549,1,0,0:0:0:0:
304,68,68766,1,0,0:0:0:0:
224,228,68984,1,0,0:0:0:0:
312,312,69201,1,0,0:0:0:0:
400,112,69419,1,0,0:0:0:0:
216,124,69636,1,0,0:0:0:0:
316,200,69853,5,0,0:0:0:0:
112,300,70071,1,0,0:0:0:0:
104,120,70288,2,0,L|168:196,1,67.5000030219556
228,280,70723,2,0,L|292:248,1,67.5000030219556
340,168,71158,5,0,0:0:0:0:
232,116,71375,1,0,0:0:0:0:
188,200,71592,1,0,0:0:0:0:
188,200,71701,1,0,0:0:0:0:
188,200,71810,1,0,0:0:0:0:
324,264,72027,1,0,0:0:0:0:
456,96,72244,1,0,0:0:0:0:
200,232,72462,1,0,0:0:0:0:
200,232,72570,1,0,0:0:0:0:
200,232,72679,1,0,0:0:0:0:
264,320,72897,5,0,0:0:0:0:
344,176,73114,1,0,0:0:0:0:
220,100,73331,1,0,0:0:0:0:
116,96,73549,2,0,P|152:156|132:236,1,135.000006043911
340,296,74201,1,0,0:0:0:0:
284,48,74418,5,0,0:0:0:0:
324,72,74527,1,0,0:0:0:0:
348,100,74636,1,0,0:0:0:0:
368,128,74744,1,0,0:0:0:0:
376,164,74853,2,0,P|376:200|300:264,1,135.000006043911
192,280,75505,6,0,L|124:240,1,67.5000030219556
68,152,75940,1,0,0:0:0:0:
232,64,76157,1,0,0:0:0:0:
240,216,76375,1,0,0:0:0:0:
120,48,76592,1,0,0:0:0:0:
128,240,76809,2,0,L|184:304,1,67.5000030219556
296,288,77244,2,0,L|344:228,1,67.5000030219556
216,140,77679,2,0,L|216:224,1,67.5000030219556
216,316,78114,5,0,0:0:0:0:
372,152,78331,1,0,0:0:0:0:
108,72,78548,1,0,0:0:0:0:
108,72,78657,1,0,0:0:0:0:
108,72,78766,1,0,0:0:0:0:
108,72,78874,1,0,0:0:0:0:
108,72,78983,2,0,L|108:144,1,67.5000030219556
112,260,79418,5,0,0:0:0:0:
260,196,79635,1,0,0:0:0:0:
304,324,79853,1,0,0:0:0:0:
376,208,80070,1,0,0:0:0:0:
376,208,80179,1,0,0:0:0:0:
376,208,80287,1,0,0:0:0:0:
340,84,80505,1,0,0:0:0:0:
88,80,80722,5,0,0:0:0:0:
232,96,80939,1,0,0:0:0:0:
232,96,81048,1,0,0:0:0:0:
232,96,81157,1,0,0:0:0:0:
344,292,81374,5,0,0:0:0:0:
320,268,81483,1,0,0:0:0:0:
292,252,81592,1,0,0:0:0:0:
264,240,81700,1,0,0:0:0:0:
232,232,81809,2,0,P|164:220|120:268,1,135.000006043911
168,324,82461,5,0,0:0:0:0:
104,176,82678,2,0,P|144:144|160:144,1,67.5000030219556
312,172,83113,1,0,0:0:0:0:
292,72,83331,2,0,P|260:52|232:56,1,67.5000030219556
152,156,83765,1,0,0:0:0:0:
280,308,83983,2,0,P|316:296|308:268,1,67.5000030219556
384,208,84417,1,0,0:0:0:0:
40,56,84635,1,0,0:0:0:0:
216,140,84852,5,0,0:0:0:0:
216,268,85070,1,0,0:0:0:0:
352,272,85287,1,0,0:0:0:0:
344,140,85504,1,0,0:0:0:0:
424,52,85722,1,0,0:0:0:0:
436,340,85939,1,0,0:0:0:0:
136,336,86156,1,0,0:0:0:0:
144,48,86374,1,0,0:0:0:0:
92,148,86591,6,0,P|100:192|120:224,1,67.5000030219556
180,268,87026,2,0,P|216:280|248:272,1,67.5000030219556
280,72,87461,1,0,0:0:0:0:
412,156,87678,5,0,0:0:0:0:
400,192,87787,1,0,0:0:0:0:
376,216,87895,1,0,0:0:0:0:
344,232,88004,1,0,0:0:0:0:
312,240,88113,1,0,0:0:0:0:
280,244,88222,1,0,0:0:0:0:
248,244,88330,1,0,0:0:0:0:
216,244,88439,1,0,0:0:0:0:
184,240,88548,1,0,0:0:0:0:
152,236,88656,1,0,0:0:0:0:
120,236,88765,1,0,0:0:0:0:
256,192,88874,12,0,90069,0:0:0:0:
