osu file format v14

[General]
AudioFilename: Catgroove.mp3
AudioLeadIn: 0
PreviewTime: 46472
Countdown: 0
SampleSet: Soft
StackLeniency: 0.7
Mode: 0
LetterboxInBreaks: 0
WidescreenStoryboard: 0

[Editor]
Bookmarks: 166472,233965
DistanceSpacing: 0.6
BeatDivisor: 4
GridSize: 4
TimelineZoom: 1.2

[Metadata]
Title:Catgroove
TitleUnicode:Catgroove
Artist:Parov Stelar
ArtistUnicode:Parov Stelar
Creator:Blue Dragon
Version:TicCl!ck's Hard
Source:
Tags:breakbeat electroswing coco Kuron-kun TicClick
BeatmapID:610871
BeatmapSetID:144955

[Difficulty]
HPDrainRate:5
CircleSize:3.5
OverallDifficulty:6
ApproachRate:7.5
SliderMultiplier:1.9
SliderTickRate:1

[Events]
//Background and Video events
0,0,"343381-1024x768.jpg",0,0
//Break Periods
2,106672,111272
2,136672,148772
//Storyboard Layer 0 (Background)
//Storyboard Layer 1 (Fail)
//Storyboard Layer 2 (Pass)
//Storyboard Layer 3 (Foreground)
//Storyboard Sound Samples

[TimingPoints]
7097,468.75,4,2,0,60,1,0
23503,-133.333333333333,4,2,0,60,0,0
31354,-133.333333333333,4,2,0,40,0,0
31589,-133.333333333333,4,2,0,60,0,0
35104,-133.333333333333,4,2,0,40,0,0
35339,-133.333333333333,4,2,0,60,0,0
39440,-133.333333333333,4,2,0,50,0,0
39909,-133.333333333333,4,2,0,40,0,0
40378,-133.333333333333,4,2,0,30,0,0
40847,-133.333333333333,4,2,0,10,0,0
41550,-133.333333333333,4,2,0,30,0,0
42018,-133.333333333333,4,2,0,35,0,0
42487,-133.333333333333,4,2,0,40,0,0
42956,-133.333333333333,4,2,0,45,0,0
43425,-133.333333333333,4,2,0,50,0,0
43893,-133.333333333333,4,2,0,55,0,0
44597,-133.333333333333,4,2,0,60,0,0
46472,-83.3333333333333,4,2,0,60,0,1
46589,-83.3333333333333,4,2,0,60,0,0
76472,-83.3333333333333,4,2,0,60,0,1
76589,-83.3333333333333,4,2,0,60,0,0
111979,-100,4,2,0,60,0,0
121472,-83.3333333333333,4,2,0,60,0,0
136472,-83.3333333333333,4,2,0,50,0,0
149597,-83.3333333333333,4,2,0,20,0,0
154284,-133.333333333333,4,2,0,30,0,0
155222,-133.333333333333,4,2,0,40,0,0
156159,-133.333333333333,4,2,0,50,0,0
157097,-133.333333333333,4,2,0,60,0,0
158854,-100,4,2,0,60,0,0
164479,-100,4,2,0,30,0,0
164714,-100,4,2,0,60,0,0
165182,-100,4,2,0,40,0,0
165417,-100,4,2,0,60,0,0
165886,-100,4,2,0,50,0,0
166120,-100,4,2,0,60,0,0
166472,-83.3333333333333,4,2,0,60,0,1
166589,-83.3333333333333,4,2,0,60,0,0
188972,-83.3333333333333,4,2,0,60,0,1
189089,-83.3333333333333,4,2,0,60,0,0
218972,-100,4,2,0,60,0,0
226354,-133.333333333333,4,2,0,60,0,0
230104,-133.333333333333,4,2,0,40,0,0
230339,-133.333333333333,4,2,0,60,0,0

[Colours]
Combo1 : 142,204,113
Combo2 : 243,73,78
Combo3 : 105,132,211
Combo4 : 189,113,215

[HitObjects]
148,200,23737,5,0,0:0:0:0:
169,300,23972,2,0,P|220:284|273:287,1,106.875004076958,2|0,0:0|0:0,0:0:0:0:
295,299,24440,2,0,P|329:312|364:313,1,71.2500027179719,2|0,0:0|0:0,0:0:0:0:
448,260,24909,1,2,0:0:0:0:
448,260,25026,2,0,L|452:184,1,71.2500027179719,0|2,0:0|0:0,0:0:0:0:
433,171,25378,2,0,L|436:96,1,71.2500027179719,0|2,0:0|0:0,0:0:0:0:
368,28,25847,6,0,P|334:15|299:18,1,71.2500027179719,0|0,0:0|0:0,0:0:0:0:
284,36,26198,1,2,0:0:0:0:
268,52,26315,2,0,P|232:57|197:51,1,71.2500027179719,0|2,0:0|0:0,0:0:0:0:
112,92,26784,1,0,0:0:0:0:
112,92,26901,2,0,P|100:129|100:165,1,71.2500027179719,0|2,0:0|0:0,0:0:0:0:
108,184,27253,2,0,P|125:210|160:232,1,71.2500027179719,0|2,0:0|0:0,0:0:0:0:
255,240,27722,6,0,P|301:214|326:167,1,106.875004076958,2|0,0:0|0:0,0:0:0:0:
332,144,28190,2,0,P|327:108|334:73,1,71.2500027179719,2|0,0:0|0:0,0:0:0:0:
434,73,28659,1,2,0:0:0:0:
434,73,28776,2,0,P|441:103|440:144,1,71.2500027179719,0|2,0:0|0:0,0:0:0:0:
428,163,29128,2,0,P|417:197|418:233,1,71.2500027179719,0|2,0:0|0:0,0:0:0:0:
432,332,29597,5,0,0:0:0:0:
336,336,29831,1,0,0:0:0:0:
336,336,29948,1,2,0:0:0:0:
336,336,30065,2,0,L|260:344,1,71.2500027179719,0|2,0:0|0:0,0:0:0:0:
288,244,30534,1,0,0:0:0:0:
288,244,30651,2,0,L|360:244,1,71.2500027179719,0|2,0:0|0:0,0:0:0:0:
383,240,31003,2,0,P|396:206|396:168,1,71.2500027179719,0|2,0:0|0:0,0:0:0:0:
328,48,31472,6,0,P|307:108|308:153,1,106.875004076958,4|0,0:0|0:0,0:0:0:0:
284,147,31940,2,0,P|248:152|216:166,1,71.2500027179719,2|0,0:0|0:0,0:0:0:0:
212,268,32409,1,2,0:0:0:0:
212,268,32526,2,0,P|246:287|280:292,1,71.2500027179719,0|2,0:0|0:0,0:0:0:0:
299,288,32878,2,0,P|330:269|365:266,1,71.2500027179719,0|2,0:0|0:0,0:0:0:0:
407,356,33347,6,0,P|379:376|344:383,1,71.2500027179719,0|0,0:0|0:0,0:0:0:0:
320,384,33698,1,2,0:0:0:0:
296,380,33815,2,0,L|224:372,1,71.2500027179719,0|2,0:0|0:0,0:0:0:0:
124,368,34284,1,0,0:0:0:0:
124,368,34401,2,0,L|53:379,1,71.2500027179719,0|2,0:0|0:0,0:0:0:0:
32,372,34753,2,0,P|20:338|23:303,1,71.2500027179719,0|2,0:0|0:0,0:0:0:0:
120,232,35222,6,0,P|122:178|110:126,1,106.875004076958,4|2,0:0|0:0,0:0:0:0:
107,104,35690,2,0,P|125:73|156:57,1,71.2500027179719,0|2,0:0|0:0,0:0:0:0:
248,100,36159,1,0,0:0:0:0:
248,100,36276,2,0,P|248:136|237:170,1,71.2500027179719,0|2,0:0|0:0,0:0:0:0:
228,191,36628,2,0,P|222:227|224:262,1,71.2500027179719,0|2,0:0|0:0,0:0:0:0:
304,328,37097,5,0,0:0:0:0:
392,280,37331,1,0,0:0:0:0:
392,280,37448,1,2,0:0:0:0:
392,280,37565,2,0,P|426:292|453:315,1,71.2500027179719,0|2,0:0|0:0,0:0:0:0:
456,215,38034,2,0,P|473:165|507:124,2,106.875004076958,0|2|2,0:0|0:0|0:0,0:0:0:0:
256,192,38972,12,0,40847,0:0:0:0:
80,88,41784,5,2,0:0:0:0:
236,116,42253,1,2,0:0:0:0:
392,104,42722,1,2,0:0:0:0:
460,244,43190,1,2,0:0:0:0:
348,352,43659,1,2,0:0:0:0:
204,292,44128,1,2,0:0:0:0:
236,116,44597,5,4,0:0:0:0:
136,72,44831,2,0,L|124:28,2,35.625001358986,0|0|0,0:0|0:0|1:0,0:0:0:0:
68,160,45300,2,0,L|44:120,2,35.625001358986,4|0|0,0:0|0:0|1:0,0:0:0:0:
44,272,45768,2,0,L|8:240,2,35.625001358986,0|0|4,0:0|0:0|0:0,0:0:0:0:
116,352,46237,1,0,0:0:0:0:
152,244,46472,6,0,P|204:225|268:237,1,113.999996520996,4|0,1:2|0:0,0:0:0:0:
380,272,46940,1,0,1:0:0:0:
416,152,47175,1,2,0:0:0:0:
296,124,47409,1,0,0:0:0:0:
296,124,47526,2,0,P|288:67|296:11,1,113.999996520996,0|2,0:0|0:0,0:0:0:0:
255,36,47878,2,0,P|200:47|144:36,1,113.999996520996,0|2,1:0|0:0,0:0:0:0:
68,136,48347,5,0,1:0:0:0:
164,216,48581,1,0,0:0:0:0:
164,216,48698,1,2,0:0:0:0:
164,215,48815,2,0,P|220:218|266:250,1,113.999996520996,0|2,1:0|0:0,0:0:0:0:
244,364,49284,1,0,1:0:0:0:
244,364,49401,2,0,P|187:377|131:357,1,113.999996520996,0|2,0:0|0:0,0:0:0:0:
108,340,49753,2,0,L|40:240,1,113.999996520996,0|2,1:0|0:0,0:0:0:0:
76,124,50222,5,4,1:2:0:0:
76,124,50690,2,0,L|188:104,1,113.999996520996,0|2,1:2|0:2,0:0:0:0:
268,200,51159,1,0,1:0:0:0:
268,200,51276,2,0,P|328:186|384:192,1,113.999996520996,0|2,0:0|0:0,0:0:0:0:
412,208,51628,2,0,P|444:161|456:106,1,113.999996520996,0|2,1:0|2:0,0:0:0:0:
368,16,52097,5,0,1:2:0:0:
244,28,52331,1,0,0:0:0:0:
244,28,52448,1,2,0:0:0:0:
244,28,52565,2,0,P|214:75|204:131,1,113.999996520996,0|2,1:0|2:0,0:0:0:0:
196,256,53034,1,0,1:0:0:0:
196,256,53151,2,0,P|136:248|79:249,1,113.999996520996,0|2,0:0|0:0,0:0:0:0:
50,262,53503,2,0,P|27:209|34:154,1,113.999996520996,0|2,1:0|0:0,0:0:0:0:
80,40,53972,5,4,0:0:0:0:
80,40,54440,2,0,L|196:56,1,113.999996520996,0|2,1:0|0:0,0:0:0:0:
320,56,54909,1,0,1:0:0:0:
320,56,55026,2,0,L|436:40,1,113.999996520996,0|2,0:0|0:0,0:0:0:0:
432,40,55378,1,0,1:0:0:0:
488,152,55612,1,2,0:0:0:0:
432,264,55847,6,0,P|376:260|328:228,1,113.999996520996,0|0,1:0|0:0,0:0:0:0:
296,236,56198,1,2,0:0:0:0:
263,244,56315,2,0,P|220:280|200:336,1,113.999996520996,0|2,1:0|0:0,0:0:0:0:
156,228,56784,1,0,1:0:0:0:
156,228,56901,2,0,P|101:214|44:218,1,113.999996520996,0|2,0:0|0:0,0:0:0:0:
32,248,57253,2,0,L|28:304,1,56.9999982604981,0|2,1:0|0:0,0:0:0:0:
136,368,57604,1,2,0:0:0:0:
136,368,57722,6,0,P|192:371|248:359,1,113.999996520996,4|0,1:2|0:0,0:0:0:0:
276,236,58190,2,0,P|336:241|389:262,1,113.999996520996,0|2,1:0|0:0,0:0:0:0:
488,332,58659,1,0,1:0:0:0:
488,332,58776,2,0,P|493:276|485:217,1,113.999996520996,0|2,0:0|0:0,0:0:0:0:
460,196,59128,2,0,P|455:139|464:83,1,113.999996520996,0|2,1:0|0:0,0:0:0:0:
351,27,59597,6,0,P|268:10|186:30,2,170.999994781494,0|2|2,1:0|0:0|0:0,0:0:0:0:
156,188,60768,2,0,P|101:201|45:189,1,113.999996520996,2|0,2:0|1:0,0:0:0:0:
0,308,61237,1,0,2:0:0:0:
0,308,61354,1,2,1:2:0:0:
0,308,61472,6,0,P|109:333|215:294,1,227.999993041992,4|0,0:0|1:0,0:0:0:0:
460,344,62409,1,0,2:0:0:0:
300,152,62878,1,0,1:0:0:0:
320,288,63112,1,0,1:0:0:0:
300,152,63347,6,0,P|335:107|387:84,1,113.999996520996,0|0,1:0|0:0,0:0:0:0:
372,52,63698,1,2,0:0:0:0:
359,19,63815,2,0,P|304:7|248:11,1,113.999996520996,0|2,1:0|0:0,0:0:0:0:
144,80,64284,1,0,1:0:0:0:
144,80,64401,2,0,L|144:194,1,113.999996520996,0|2,0:0|0:0,0:0:0:0:
144,194,64753,1,0,1:0:0:0:
92,308,64987,1,2,2:0:0:0:
204,368,65222,6,0,P|260:367|310:341,2,113.999996520996,4|0|0,1:2|0:0|1:0,0:0:0:0:
220,244,65925,1,2,0:0:0:0:
335,196,66159,2,0,P|419:267|411:376,1,227.999993041992,0|0,1:0|1:0,0:0:0:0:
288,348,66862,1,2,0:0:0:0:
288,348,66979,1,0,0:0:0:0:
288,348,67097,6,0,P|232:345|178:362,1,113.999996520996,0|2,1:0|0:0,0:0:0:0:
52,344,67565,1,0,1:0:0:0:
52,220,67800,1,2,0:0:0:0:
176,204,68034,1,0,1:0:0:0:
175,204,68151,2,0,P|195:150|187:94,1,113.999996520996,0|2,0:0|0:0,0:0:0:0:
188,94,68503,1,0,1:0:0:0:
92,16,68737,1,2,2:0:0:0:
0,100,68972,6,0,P|0:156|23:207,1,113.999996520996,4|0,0:0|0:0,0:0:0:0:
112,296,69440,1,0,1:0:0:0:
204,212,69675,1,2,0:0:0:0:
316,268,69909,1,0,1:0:0:0:
316,268,70026,2,0,P|372:261|420:232,1,113.999996520996,0|2,0:0|0:0,0:0:0:0:
444,207,70378,2,0,P|467:156|476:100,1,113.999996520996,0|2,1:0|0:0,0:0:0:0:
380,16,70847,6,0,L|260:24,1,113.999996520996,0|0,1:0|0:0,0:0:0:0:
256,56,71198,1,2,0:0:0:0:
248,88,71315,2,0,L|134:97,1,113.999996520996,0|2,1:0|0:0,0:0:0:0:
92,216,71784,1,0,1:0:0:0:
92,216,71901,2,0,L|206:225,1,113.999996520996,0|2,0:0|0:0,0:0:0:0:
229,200,72253,1,0,1:0:0:0:
352,184,72487,1,2,0:0:0:0:
420,288,72722,6,0,P|408:343|368:384,2,113.999996520996,4|0|0,0:0|0:0|1:0,0:0:0:0:
344,192,73425,1,2,0:0:0:0:
396,80,73659,1,0,1:0:0:0:
396,80,73776,2,0,P|442:46|497:35,1,113.999996520996,0|2,0:0|0:0,0:0:0:0:
496,35,74128,1,0,1:0:0:0:
508,160,74362,1,2,0:0:0:0:
496,284,74597,5,0,1:0:0:0:
496,284,74715,2,0,P|442:269|403:229,1,113.999996520996,0|2,0:0|0:0,0:0:0:0:
383,199,75065,2,0,P|334:173|276:172,1,113.999996520996,0|2,0:0|0:0,0:0:0:0:
140,320,75768,2,0,L|140:380,2,56.9999982604981,0|0|2,0:0|0:0|1:2,0:0:0:0:
56,224,76237,1,0,1:0:0:0:
56,224,76472,6,0,L|56:110,1,113.999996520996,4|0,1:2|0:0,0:0:0:0:
56,110,76823,1,0,0:0:0:0:
56,110,76940,2,0,P|83:62|134:39,1,113.999996520996,0|2,1:0|0:0,0:0:0:0:
220,136,77409,1,0,1:2:0:0:
180,256,77643,1,0,0:0:0:0:
284,328,77878,1,0,1:2:0:0:
384,256,78112,1,2,0:0:0:0:
352,136,78347,6,0,L|363:22,1,113.999996520996,2|0,1:2|0:0,0:0:0:0:
396,24,78698,1,0,0:0:0:0:
432,24,78815,2,0,L|443:137,1,113.999996520996,2|2,1:2|0:2,0:0:0:0:
364,236,79284,2,0,P|378:318|439:376,2,170.999994781494,2|2|0,0:0|0:0|0:0,0:0:0:0:
279,328,80222,6,0,P|196:329|133:274,1,170.999994781494,2|2,1:2|0:0,0:0:0:0:
124,240,80690,1,0,1:0:0:0:
208,112,80925,1,2,0:0:0:0:
104,132,81159,1,0,1:0:0:0:
232,216,81393,1,0,0:0:0:0:
232,216,81511,1,2,0:0:0:0:
232,216,81628,2,0,P|288:203|339:179,1,113.999996520996,0|2,1:0|0:0,0:0:0:0:
451,235,82097,6,0,P|459:292|451:348,1,113.999996520996,0|0,1:0|0:0,0:0:0:0:
416,348,82448,1,2,0:0:0:0:
379,343,82565,2,0,P|323:340|267:350,1,113.999996520996,0|2,1:0|2:0,0:0:0:0:
140,360,83034,2,0,P|77:302|56:216,2,170.999994781494,2|2|2,0:0|0:0|0:0,0:0:0:0:
196,247,83972,6,0,P|239:144|332:81,1,227.999993041992,2|0,1:2|1:0,0:0:0:0:
440,148,84675,1,2,2:0:0:0:
332,212,84909,2,0,P|239:148|195:45,1,227.999993041992,0|0,1:0|1:0,0:0:0:0:
72,60,85612,1,2,0:0:0:0:
55,183,85847,6,0,P|107:204|163:204,1,113.999996520996,2|0,1:2|0:0,0:0:0:0:
280,248,86315,2,0,P|241:289|189:311,1,113.999996520996,2|2,1:2|0:0,0:0:0:0:
308,348,86784,2,0,P|391:360|473:337,2,170.999994781494,2|2|2,0:0|0:0|0:0,0:0:0:0:
191,311,87722,6,0,P|107:308|26:334,1,170.999994781494,0|2,1:0|0:0,0:0:0:0:
26,334,88190,1,0,1:0:0:0:
8,208,88425,1,2,0:0:0:0:
32,84,88659,2,0,P|87:80|143:92,1,113.999996520996,0|0,1:0|0:0,0:0:0:0:
171,112,89011,1,2,0:0:0:0:
199,132,89128,2,0,P|253:116|298:81,1,113.999996520996,0|2,1:0|2:0,0:0:0:0:
416,36,89597,5,2,1:2:0:0:
512,120,89831,1,0,0:0:0:0:
480,240,90065,1,2,1:2:0:0:
360,272,90300,1,2,0:0:0:0:
268,188,90534,2,0,P|199:237|165:314,2,170.999994781494,2|2|2,0:0|0:0|0:0,0:0:0:0:
392,200,91472,6,0,P|424:154|436:97,1,113.999996520996,4|0,1:2|0:0,0:0:0:0:
348,8,91940,1,0,1:0:0:0:
232,52,92175,1,2,0:0:0:0:
248,176,92409,2,0,P|234:230|196:271,1,113.999996520996,0|0,1:0|0:0,0:0:0:0:
320,308,92878,2,0,P|276:348|222:363,1,113.999996520996,0|2,1:0|0:0,0:0:0:0:
104,328,93347,5,0,1:0:0:0:
123,204,93581,1,0,0:0:0:0:
123,204,93698,1,2,0:0:0:0:
123,204,93815,2,0,L|111:88,1,113.999996520996,0|2,1:0|0:0,0:0:0:0:
4,156,94284,2,0,L|20:327,2,170.999994781494,2|2|2,0:0|0:0|0:0,0:0:0:0:
112,91,95222,6,0,P|194:104|250:167,1,170.999994781494,2|2,1:2|2:0,0:0:0:0:
259,199,95690,2,0,P|309:227|366:230,1,113.999996520996,0|2,1:0|0:0,0:0:0:0:
464,152,96159,1,0,1:0:0:0:
424,32,96393,1,0,0:0:0:0:
424,32,96511,1,2,0:0:0:0:
424,32,96628,2,0,P|374:4|318:2,1,113.999996520996,0|2,1:0|0:0,0:0:0:0:
224,84,97097,5,2,1:2:0:0:
104,124,97331,1,0,0:0:0:0:
252,160,97565,1,2,1:2:0:0:
132,200,97800,1,2,0:0:0:0:
280,236,98034,2,0,P|363:251|446:232,2,170.999994781494,2|2|2,0:0|0:0|0:0,0:0:0:0:
168,180,98972,6,0,P|113:173|65:202,1,113.999996520996,4|0,1:2|0:0,0:0:0:0:
53,222,99323,1,0,0:0:0:0:
48,244,99440,2,0,P|63:296|111:329,1,113.999996520996,0|2,1:0|2:0,0:0:0:0:
232,364,99909,2,0,P|345:358|455:328,1,227.999993041992,0|0,1:0|1:0,0:0:0:0:
460,204,100612,1,2,0:0:0:0:
347,251,100847,6,0,P|344:195|359:140,1,113.999996520996,2|0,1:2|2:2,0:0:0:0:
336,116,101198,1,2,0:0:0:0:
307,99,101315,2,0,P|254:81|197:82,1,113.999996520996,0|2,1:0|0:0,0:0:0:0:
128,188,101784,2,0,P|174:258|252:291,2,170.999994781494,2|2|2,0:0|0:0|0:0,0:0:0:0:
168,68,102722,6,0,L|337:44,1,170.999994781494,2|2,1:2|0:0,0:0:0:0:
361,69,103190,2,0,L|474:56,1,113.999996520996,0|2,1:2|0:0,0:0:0:0:
508,176,103659,1,2,1:2:0:0:
452,288,103893,1,0,0:2:0:0:
452,288,104011,1,2,0:0:0:0:
452,288,104128,2,0,L|336:300,1,113.999996520996,0|2,1:0|0:0,0:0:0:0:
232,232,104597,5,2,1:2:0:0:
232,232,104831,1,0,0:0:0:0:
128,300,105065,1,2,1:2:0:0:
128,300,105300,1,2,0:0:0:0:
28,224,105534,2,0,B|24:172|24:172|40:136|40:136|28:52,2,170.999994781494,2|2|2,0:0|0:0|0:0,0:0:0:0:
48,348,106472,5,4,0:0:0:0:
312,72,112097,6,0,P|360:73|402:53,1,95,4|0,1:2|0:0,0:0:0:0:
500,116,112565,1,0,0:0:0:0:
500,116,112800,2,0,P|511:161|509:209,1,95,4|0,1:2|0:0,0:0:0:0:
464,312,113268,1,0,0:0:0:0:
464,312,113503,2,0,L|369:312,1,95,4|0,1:2|0:0,0:0:0:0:
316,213,113972,6,0,P|310:166|320:120,1,95,4|0,1:0|0:0,0:0:0:0:
380,24,114440,2,0,L|285:16,1,95,0|0,1:0|2:0,0:0:0:0:
285,16,114792,1,0,0:0:0:0:
285,16,114909,1,0,0:0:0:0:
240,120,115143,1,0,0:0:0:0:
260,232,115378,2,0,P|215:249|168:252,1,95,0|0,1:0|0:0,0:0:0:0:
56,212,115847,6,0,L|48:117,1,95
156,60,116315,2,0,L|152:154,1,95,0|0,1:0|0:0,0:0:0:0:
252,200,116784,2,0,L|260:100,1,95,0|0,2:0|0:0,0:0:0:0:
156,60,117253,2,0,P|109:64|67:86,1,95,0|0,1:0|0:0,0:0:0:0:
72,200,117722,5,0,0:0:0:0:
184,212,117956,1,0,0:0:0:0:
272,140,118190,1,0,1:0:0:0:
384,132,118425,2,0,L|409:91,2,47.5,0|2|0,0:0|0:0|0:0,0:0:0:0:
436,232,118893,1,0,0:0:0:0:
388,335,119128,2,0,P|342:347|292:348,1,95,0|0,1:0|0:0,0:0:0:0:
183,368,119597,6,0,P|184:320|170:275,1,95
88,212,120065,1,0,1:0:0:0:
152,128,120300,1,0,0:0:0:0:
236,192,120534,2,0,L|336:172,1,95
152,128,121003,2,0,L|48:108,1,95,0|0,1:0|0:0,0:0:0:0:
168,24,121472,5,0,0:0:0:0:
292,88,121706,1,0,0:0:0:0:
324,76,121823,1,2,0:0:0:0:
352,64,121940,2,0,L|472:60,1,113.999996520996,0|0,1:0|0:0,0:0:0:0:
508,180,122409,2,0,P|516:236|509:292,2,113.999996520996,0|0|0,0:0|3:0|1:0,0:0:0:0:
404,108,123112,1,0,0:0:0:0:
299,180,123347,6,0,P|295:264|319:346,1,170.999994781494,0|2,2:0|0:0,0:0:0:0:
287,327,123815,2,0,P|233:312|176:311,1,113.999996520996,0|0,1:0|2:0,0:0:0:0:
56,351,124284,2,0,P|55:295|44:239,1,113.999996520996,0|0,2:0|2:0,0:0:0:0:
4,120,124753,1,0,1:0:0:0:
124,84,124987,1,0,0:0:0:0:
168,200,125222,6,0,P|223:208|280:196,1,113.999996520996,0|0,0:0|0:0,0:0:0:0:
308,180,125573,1,2,0:0:0:0:
328,152,125690,2,0,L|312:32,1,113.999996520996,0|0,1:0|2:0,0:0:0:0:
416,108,126159,2,0,L|400:220,1,113.999996520996,0|0,0:0|0:0,0:0:0:0:
460,332,126628,1,0,1:0:0:0:
460,332,126862,1,0,0:0:0:0:
336,351,127097,6,0,P|281:367|225:358,1,113.999996520996,0|0,0:0|0:0,0:0:0:0:
196,340,127448,1,2,0:0:0:0:
168,320,127565,2,0,L|40:300,1,113.999996520996,0|0,1:0|0:0,0:0:0:0:
8,188,128034,1,0,0:0:0:0:
8,188,128268,1,0,0:0:0:0:
128,220,128503,2,0,L|240:202,1,113.999996520996,0|0,1:0|0:0,0:0:0:0:
276,84,128972,6,0,P|228:53|172:48,1,113.999996520996,0|0,0:0|0:0,0:0:0:0:
140,56,129323,1,2,0:0:0:0:
112,80,129440,2,0,P|89:131|94:188,1,113.999996520996,0|0,1:0|0:0,0:0:0:0:
216,224,129909,2,0,P|272:214|322:188,1,113.999996520996,0|0,0:0|0:0,0:0:0:0:
284,332,130378,2,0,P|338:348|394:346,1,113.999996520996,0|0,1:0|0:0,0:0:0:0:
456,236,130847,5,0,2:0:0:0:
424,116,131081,1,0,0:0:0:0:
424,116,131198,1,2,0:0:0:0:
424,116,131315,1,0,1:0:0:0:
304,148,131550,1,0,2:0:0:0:
216,60,131784,2,0,P|160:60|96:72,1,113.999996520996,0|0,0:0|0:0,0:0:0:0:
56,188,132253,2,0,P|119:188|169:176,1,113.999996520996,0|0,1:0|0:0,0:0:0:0:
276,240,132722,5,0,0:0:0:0:
256,192,132839,12,2,136472,0:0:0:0:
256,192,149597,12,2,153347,0:0:0:0:
224,128,154284,6,0,P|180:112|112:120,2,106.875004076958,2|0|0,0:0|0:0|0:0,0:0:0:0:
308,144,155222,2,0,P|309:97|280:35,2,106.875004076958,2|0|0,0:0|0:0|0:0,0:0:0:0:
316,228,156159,2,0,P|361:215|411:168,2,106.875004076958,2|0|0,0:0|0:0|0:0,0:0:0:0:
244,264,157097,6,0,P|270:302|329:336,2,106.875004076958,2|0|0,0:0|0:0|0:0,0:0:0:0:
188,204,158034,2,0,P|159:240|145:308,2,106.875004076958,2|0|0,0:0|0:0|0:0,0:0:0:0:
216,104,158972,6,0,P|167:100|121:110,1,95,6|0,3:0|0:0,0:0:0:0:
44,176,159440,2,0,P|35:246|56:313,1,142.5,6|0,3:0|0:0,0:0:0:0:
75,335,159909,2,0,P|114:362|161:372,1,95,6|0,3:0|0:0,0:0:0:0:
260,340,160378,1,6,3:0:0:0:
464,320,160847,6,0,L|472:224,1,95,6|0,3:0|0:0,0:0:0:0:
372,260,161315,2,0,L|360:112,1,142.5,6|0,3:0|0:0,0:0:0:0:
356,88,161784,1,6,3:0:0:0:
444,32,162018,1,0,0:0:0:0:
480,128,162253,1,6,3:0:0:0:
280,184,162722,6,0,L|272:84,1,95,6|0,3:0|0:0,0:0:0:0:
196,19,163190,2,0,P|126:8|61:35,1,142.5,6|0,3:0|0:0,0:0:0:0:
52,64,163659,2,0,L|40:160,1,95,6|0,3:0|0:0,0:0:0:0:
76,256,164128,1,6,3:0:0:0:
280,156,164597,5,4,1:2:0:0:
280,156,164831,2,0,P|321:132|369:124,1,95,4|0,0:3|0:0,0:0:0:0:
200,120,165300,1,4,1:2:0:0:
200,120,165534,2,0,P|197:72|211:27,1,95,4|0,0:3|0:0,0:0:0:0:
136,180,166003,2,0,P|92:160|64:124,1,95,4|4,1:2|0:3,0:0:0:0:
216,220,166472,6,0,P|224:275|204:328,1,113.999996520996,4|0,1:2|0:0,0:0:0:0:
176,348,166823,1,0,0:0:0:0:
144,360,166940,2,0,L|24:352,1,113.999996520996,0|2,1:0|2:0,0:0:0:0:
60,232,167409,1,0,1:0:0:0:
60,231,167526,2,0,P|64:175|53:119,1,113.999996520996,0|2,0:0|0:0,0:0:0:0:
39,88,167878,2,0,P|82:50|137:39,1,113.999996520996,0|2,1:0|0:0,0:0:0:0:
244,108,168347,5,0,1:0:0:0:
368,88,168581,1,0,0:0:0:0:
396,64,168698,1,2,0:0:0:0:
420,40,168815,2,0,P|464:74|482:127,1,113.999996520996,0|2,1:0|0:0,0:0:0:0:
432,240,169284,1,0,1:0:0:0:
432,240,169401,2,0,L|318:253,1,113.999996520996,0|2,0:0|0:0,0:0:0:0:
283,260,169753,2,0,P|251:304|268:356,1,113.999996520996,0|2,1:0|0:0,0:0:0:0:
392,344,170222,6,0,L|505:330,1,113.999996520996,4|0,1:2|0:0,0:0:0:0:
432,228,170690,2,0,L|440:108,1,113.999996520996,0|2,1:0|0:0,0:0:0:0:
323,160,171159,1,0,1:0:0:0:
323,159,171276,2,0,P|266:156|214:132,1,113.999996520996,0|2,0:0|0:0,0:0:0:0:
187,111,171628,2,0,P|135:90|76:92,1,113.999996520996,0|2,1:0|0:0,0:0:0:0:
12,196,172097,5,0,1:0:0:0:
68,308,172331,1,0,0:0:0:0:
100,316,172448,1,2,0:0:0:0:
136,315,172565,2,0,P|189:296|246:291,1,113.999996520996,0|2,1:0|2:0,0:0:0:0:
372,304,173034,1,0,1:0:0:0:
372,304,173151,2,0,L|352:191,1,113.999996520996,0|2,0:0|0:0,0:0:0:0:
371,163,173503,2,0,L|352:50,1,113.999996520996,0|2,1:0|0:0,0:0:0:0:
228,32,173972,6,0,P|191:106|225:181,1,170.999994781494,4|0,1:2|0:0,0:0:0:0:
252,204,174440,2,0,P|272:256|259:311,1,113.999996520996,0|2,1:0|2:0,0:0:0:0:
384,316,174909,1,0,1:0:0:0:
384,316,175026,2,0,P|399:262|389:206,1,113.999996520996,0|2,0:0|0:0,0:0:0:0:
375,175,175378,2,0,P|360:121|367:65,1,113.999996520996,0|2,1:0|0:0,0:0:0:0:
248,24,175847,6,0,L|128:32,1,113.999996520996,0|0,1:0|0:0,0:0:0:0:
104,48,176198,1,2,0:0:0:0:
76,68,176315,2,0,L|83:181,1,113.999996520996,0|2,1:0|0:0,0:0:0:0:
156,283,176784,1,0,1:0:0:0:
156,283,176901,2,0,P|209:263|265:255,1,113.999996520996,0|2,0:0|0:0,0:0:0:0:
300,268,177253,2,0,L|306:324,1,56.9999982604981,0|2,1:0|0:0,0:0:0:0:
396,236,177604,1,2,0:0:0:0:
396,236,177722,6,0,L|411:348,1,113.999996520996,4|0,1:2|0:0,0:0:0:0:
411,348,178073,1,0,0:0:0:0:
411,348,178190,2,0,P|360:372|300:368,1,113.999996520996,0|2,1:0|0:0,0:0:0:0:
200,300,178659,1,0,1:0:0:0:
200,300,178776,2,0,L|184:184,1,113.999996520996,0|2,0:0|0:0,0:0:0:0:
180,152,179128,2,0,P|131:122|75:118,1,113.999996520996,0|2,1:0|0:0,0:0:0:0:
239,87,179597,6,0,P|324:90|397:47,2,170.999994781494,2|2|2,1:2|0:0|0:0,0:0:0:0:
264,336,180768,1,2,2:0:0:0:
388,332,181003,1,0,1:0:0:0:
448,220,181237,1,0,2:0:0:0:
448,220,181354,1,2,0:0:0:0:
448,220,181472,6,0,P|436:164|440:107,1,113.999996520996,4|0,1:2|0:0,0:0:0:0:
339,179,181940,2,0,P|292:148|264:100,1,113.999996520996,0|2,1:0|2:0,0:0:0:0:
228,220,182409,1,0,1:0:0:0:
228,220,182526,2,0,P|172:216|121:191,1,113.999996520996,0|2,0:0|0:0,0:0:0:0:
96,164,182878,1,0,1:0:0:0:
140,48,183112,1,2,0:0:0:0:
140,48,183229,1,0,0:0:0:0:
140,48,183347,6,0,L|260:48,1,113.999996520996,0|0,1:0|0:0,0:0:0:0:
268,80,183698,1,2,0:0:0:0:
284,108,183815,2,0,P|340:111|391:87,1,113.999996520996,0|2,1:0|0:0,0:0:0:0:
368,212,184284,1,0,1:0:0:0:
368,211,184401,2,0,P|355:266|366:322,1,113.999996520996,0|2,0:0|0:0,0:0:0:0:
383,351,184753,2,0,P|327:347|272:356,1,113.999996520996,0|2,1:0|0:0,0:0:0:0:
147,379,185222,6,0,P|50:326|24:220,1,227.999993041992,4|0,1:2|1:0,0:0:0:0:
96,116,185925,1,2,0:0:0:0:
220,120,186159,1,0,1:0:0:0:
220,120,186276,1,0,0:0:0:0:
292,224,186511,1,2,0:0:0:0:
292,224,186628,2,0,P|344:243|400:235,1,113.999996520996,0|2,1:0|0:0,0:0:0:0:
460,124,187097,5,0,1:0:0:0:
460,124,187214,2,0,P|436:72|390:40,1,113.999996520996,0|2,0:0|0:0,0:0:0:0:
356,32,187565,2,0,L|224:36,1,113.999996520996,0|2,0:0|0:0,0:0:0:0:
80,184,188268,2,0,P|52:179|26:164,2,56.9999982604981,0|0|2,0:0|0:0|1:2,0:0:0:0:
204,160,188737,1,0,1:0:0:0:
268,268,188972,5,4,1:2:0:0:
184,360,189206,1,0,0:0:0:0:
184,360,189323,1,0,0:0:0:0:
184,360,189440,1,0,1:0:0:0:
116,252,189675,1,2,0:0:0:0:
204,160,189909,2,0,P|316:138|430:142,1,227.999993041992,0|0,1:2|1:2,0:0:0:0:
496,252,190612,1,2,0:0:0:0:
419,352,190847,6,0,P|364:364|307:368,1,113.999996520996,2|0,1:2|0:0,0:0:0:0:
292,340,191198,1,0,0:0:0:0:
276,312,191315,2,0,P|220:298|168:275,1,113.999996520996,2|2,1:2|0:2,0:0:0:0:
64,203,191784,2,0,P|44:288|83:362,2,170.999994781494,2|2|0,0:0|0:0|0:0,0:0:0:0:
176,144,192722,6,0,L|308:156,1,113.999996520996,2|0,1:2|0:0,0:0:0:0:
324,160,193073,1,2,0:0:0:0:
360,163,193190,2,0,P|401:125|416:71,1,113.999996520996,0|2,1:0|0:0,0:0:0:0:
300,24,193659,1,0,1:0:0:0:
176,40,193893,1,0,0:0:0:0:
144,48,194011,1,2,0:0:0:0:
112,56,194128,2,0,P|120:100|112:176,1,113.999996520996,0|2,1:0|0:0,0:0:0:0:
76,288,194597,6,0,P|131:300|192:300,1,113.999996520996,0|2,1:0|0:0,0:0:0:0:
288,224,195065,2,0,L|280:104,1,113.999996520996,0|2,1:0|2:0,0:0:0:0:
404,136,195534,2,0,L|396:249,1,113.999996520996,2|0,0:0|0:0,0:0:0:0:
392,280,195886,2,0,P|332:340|250:356,1,170.999994781494,2|2,0:0|0:0,0:0:0:0:
124,376,196472,5,2,1:2:0:0:
172,260,196706,1,0,0:0:0:0:
172,260,196823,1,0,0:0:0:0:
172,260,196940,2,0,P|176:208|164:144,1,113.999996520996,0|2,1:0|2:0,0:0:0:0:
284,188,197409,2,0,P|389:155|436:55,1,227.999993041992,0|0,1:0|1:0,0:0:0:0:
492,168,198112,1,2,0:0:0:0:
468,291,198347,6,0,P|411:295|357:279,1,113.999996520996,2|0,1:2|0:0,0:0:0:0:
348,312,198698,1,0,0:0:0:0:
340,344,198815,1,2,1:2:0:0:
224,292,199050,1,2,0:0:0:0:
108,344,199284,2,0,L|97:230,1,113.999996520996,2|0,0:0|0:0,0:0:0:0:
122,206,199636,2,0,L|102:22,1,170.999994781494,2|2,0:0|0:0,0:0:0:0:
220,92,200222,6,0,P|275:100|329:82,1,113.999996520996,0|0,1:0|0:0,0:0:0:0:
344,112,200573,1,2,0:0:0:0:
360,140,200690,1,0,1:0:0:0:
312,256,200925,1,2,0:0:0:0:
428,308,201159,1,0,1:0:0:0:
480,192,201393,1,0,0:0:0:0:
484,160,201511,1,2,0:0:0:0:
488,124,201628,1,0,1:0:0:0:
400,36,201862,1,2,2:0:0:0:
280,76,202097,6,0,L|156:88,1,113.999996520996,2|0,1:2|0:0,0:0:0:0:
252,180,202565,2,0,L|136:192,1,113.999996520996,2|2,1:2|0:0,0:0:0:0:
224,284,203034,2,0,L|110:295,1,113.999996520996,2|0,0:0|0:0,0:0:0:0:
76,296,203386,2,0,P|30:252|22:147,1,170.999994781494,2|2,0:0|0:0,0:0:0:0:
96,48,203972,6,0,L|265:28,1,170.999994781494,4|0,1:2|0:0,0:0:0:0:
288,52,204440,1,0,1:0:0:0:
412,24,204675,1,2,0:0:0:0:
496,116,204909,2,0,P|508:176|492:232,1,113.999996520996,0|0,1:0|0:0,0:0:0:0:
384,288,205378,1,0,1:0:0:0:
384,288,205612,1,2,0:0:0:0:
271,226,205847,6,0,P|259:171|271:116,1,113.999996520996,0|0,1:0|0:0,0:0:0:0:
240,108,206198,1,2,0:0:0:0:
208,100,206315,2,0,P|156:123|100:124,1,113.999996520996,0|2,1:0|2:0,0:0:0:0:
24,228,206784,2,0,P|108:240|169:298,2,170.999994781494,2|2|2,0:0|0:0|0:0,0:0:0:0:
12,352,207722,6,0,P|66:369|122:364,1,113.999996520996,2|0,1:2|0:0,0:0:0:0:
156,352,208073,1,2,2:0:0:0:
188,339,208190,2,0,P|240:352|300:340,1,113.999996520996,0|2,1:0|0:0,0:0:0:0:
388,252,208659,1,0,1:0:0:0:
292,168,208893,1,0,0:0:0:0:
292,168,209011,1,2,0:0:0:0:
292,168,209128,2,0,L|296:40,1,113.999996520996,0|2,1:0|0:0,0:0:0:0:
180,104,209597,6,0,L|176:217,2,113.999996520996,2|0|2,1:2|0:0|1:2,0:0:0:0:
72,36,210300,1,2,0:0:0:0:
68,160,210534,2,0,L|64:280,1,113.999996520996,2|0,0:0|0:0,0:0:0:0:
80,304,210886,2,0,P|159:333|243:323,1,170.999994781494,2|2,0:0|0:0,0:0:0:0:
356,376,211472,6,0,P|412:376|463:352,1,113.999996520996,4|0,1:2|0:0,0:0:0:0:
463,352,211823,1,0,0:0:0:0:
463,352,211940,1,0,1:0:0:0:
512,236,212175,1,2,2:0:0:0:
420,152,212409,2,0,P|364:152|313:176,1,113.999996520996,0|0,1:0|0:0,0:0:0:0:
479,79,212878,2,0,P|435:45|380:32,1,113.999996520996,0|2,1:0|0:0,0:0:0:0:
267,92,213347,6,0,P|220:123|165:135,1,113.999996520996,2|0,1:2|2:2,0:0:0:0:
56,76,213815,1,0,1:0:0:0:
56,76,214050,1,2,0:0:0:0:
8,192,214284,2,0,L|16:312,1,113.999996520996,2|0,0:0|0:0,0:0:0:0:
40,328,214636,2,0,P|112:312|188:376,1,170.999994781494,2|2,0:0|0:0,0:0:0:0:
304,336,215222,6,0,L|328:220,1,113.999996520996,2|0,1:2|0:0,0:0:0:0:
327,224,215573,1,2,0:0:0:0:
327,224,215690,1,0,1:2:0:0:
240,132,215925,1,2,0:0:0:0:
316,32,216159,2,0,P|367:55|440:64,1,113.999996520996,2|0,1:2|0:2,0:0:0:0:
456,56,216511,1,2,0:0:0:0:
488,44,216628,2,0,P|499:107|488:164,1,113.999996520996,0|2,1:0|0:0,0:0:0:0:
384,220,217097,5,2,1:2:0:0:
276,160,217331,1,0,0:0:0:0:
252,36,217565,1,2,1:2:0:0:
128,64,217800,1,2,0:0:0:0:
156,188,218034,2,0,P|97:247|14:245,2,170.999994781494,2|2|2,0:0|0:0|0:0,0:0:0:0:
216,276,218972,6,0,P|257:298|304:304,1,95,8|0,3:0|0:0,0:0:0:0:
332,296,219323,1,2,0:0:0:0:
356,280,219440,2,0,L|456:272,1,95,0|2,1:0|0:0,0:0:0:0:
492,368,219909,2,0,L|397:375,1,95,2|0,0:0|0:0,0:0:0:0:
292,380,220378,2,0,L|196:372,1,95,0|0,1:0|0:0,0:0:0:0:
92,384,220847,6,0,P|68:342|62:296,1,95,4|2,0:3|0:0,0:0:0:0:
132,220,221315,1,0,1:0:0:0:
236,228,221550,1,2,0:0:0:0:
280,132,221784,1,2,0:0:0:0:
200,64,222018,1,0,0:0:0:0:
108,116,222253,1,0,1:0:0:0:
132,220,222487,1,0,0:0:0:0:
132,220,222604,1,0,0:0:0:0:
132,220,222722,6,0,P|178:232|226:230,1,95,4|2,0:3|0:0,0:0:0:0:
324,196,223190,2,0,P|363:170|391:132,1,95,0|2,1:0|0:0,0:0:0:0:
496,124,223659,1,2,0:0:0:0:
504,228,223893,1,0,0:0:0:0:
400,236,224128,1,0,1:0:0:0:
324,308,224362,1,0,0:0:0:0:
324,308,224479,1,0,0:0:0:0:
324,308,224597,6,0,L|228:304,1,95,4|2,0:3|0:0,0:0:0:0:
229,199,225065,2,0,L|324:196,1,95,0|2,1:0|0:0,0:0:0:0:
352,96,225534,2,0,L|292:92,3,47.5,0|2|0|2,0:0|0:0|0:0|0:0,0:0:0:0:
288,72,226003,2,0,P|241:61|194:64,1,95,2|0,1:2|0:0,0:0:0:0:
112,116,226472,6,0,L|108:188,1,71.2500027179719,4|2,0:3|0:0,0:0:0:0:
192,236,226940,2,0,L|196:164,1,71.2500027179719,0|2,1:0|0:0,0:0:0:0:
284,120,227409,2,0,L|280:192,1,71.2500027179719,2|0,0:0|0:0,0:0:0:0:
280,191,227761,1,0,0:0:0:0:
280,191,227878,1,0,1:0:0:0:
348,260,228112,1,0,0:0:0:0:
428,196,228347,6,0,L|432:124,1,71.2500027179719,4|0,0:3|0:0,0:0:0:0:
420,96,228698,1,2,0:0:0:0:
396,76,228815,2,0,P|362:64|327:61,1,71.2500027179719,0|2,1:0|0:0,0:0:0:0:
252,127,229284,2,0,P|217:135|181:134,1,71.2500027179719,2|0,0:0|0:0,0:0:0:0:
84,112,229753,1,0,1:0:0:0:
108,16,229987,1,2,0:0:0:0:
204,40,230222,5,12,0:3:0:0:
256,192,230339,12,4,233972,0:0:0:0:
