osu file format v12

[General]
AudioFilename: 05 - Pangarap Lang Kita.mp3
AudioLeadIn: 3000
PreviewTime: 16935
Countdown: 0
SampleSet: Normal
StackLeniency: 0.3
Mode: 0
LetterboxInBreaks: 1

[Editor]
Bookmarks: 918
DistanceSpacing: 1.2
BeatDivisor: 4
GridSize: 4

[Metadata]
Title:Pangarap Lang Kita
TitleUnicode:Pangarap Lang Kita
Artist:Parokya Ni Edgar feat. Happee Sy
ArtistUnicode:Parokya Ni Edgar feat. Happee Sy
Creator:Jdle07
Version:Dream
Source:
Tags:
BeatmapID:233624
BeatmapSetID:84542

[Difficulty]
HPDrainRate:4
CircleSize:3
OverallDifficulty:3
ApproachRate:4
SliderMultiplier:1.4
SliderTickRate:1

[Events]
//Background and Video events
0,0,"BG.jpg",1,1
//Break Periods
2,64931,71039
2,122389,129005
//Storyboard Layer 0 (Background)
//Storyboard Layer 1 (Fail)
//Storyboard Layer 2 (Pass)
//Storyboard Layer 3 (Foreground)
//Storyboard Sound Samples
//Background Colour Transformations
3,100,163,162,255

[TimingPoints]
156,508.474576271186,4,1,0,70,1,0
2444,-100,4,2,0,40,0,0
4223,-100,4,1,0,40,0,0
6766,-100,4,2,0,70,0,0
8291,-100,4,1,0,70,0,0
16427,-100,4,2,0,70,0,0
16935,-100,4,2,0,70,0,0
32698,-100,4,1,0,35,0,0
74139,-100,4,2,0,40,0,0
99817,-100,4,2,0,20,0,0
101850,-100,4,2,0,40,0,0
130325,-100,4,1,0,40,0,1
146088,-100,4,1,0,35,0,0
162867,-100,4,1,0,40,0,1
178884,-100,4,2,0,40,0,0
191342,-100,4,2,0,5,0,0

[Colours]
Combo1 : 255,179,179
Combo2 : 138,255,138
Combo3 : 204,204,255
Combo4 : 255,151,255
Combo5 : 255,255,174

[HitObjects]
56,260,156,2,0,P|108:220|196:204,1,140,0|8,0:0|0:0,0:0:0:0:
244,256,918,2,0,P|315:239|367:199,1,140
348,116,1681,2,0,P|256:96|208:112,1,140,8|0,0:0|0:0,0:0:0:0:
152,164,2444,2,0,L|152:256,3,70,0|8|0|0,0:0|0:0|0:0|0:0,0:0:0:0:
456,260,4223,6,0,P|404:220|316:204,1,140,0|8,0:0|0:0,0:0:0:0:
268,256,4985,2,0,P|196:239|144:199,1,140
164,116,5748,2,0,P|256:96|304:112,1,140,8|0,0:0|0:0,0:0:0:0:
444,192,6766,2,0,L|444:284,4,70,2|0|2|0|2,0:0|0:0|0:0|0:0|0:0,0:0:0:0:
304,96,8291,6,0,P|172:96|104:108,1,140,0|8,0:0|0:0,0:0:0:0:
100,148,9054,2,0,L|48:236,2,70
172,200,9817,2,0,P|228:288|288:320,1,140,8|0,0:0|0:0,0:0:0:0:
376,192,10833,2,0,P|320:104|260:72,1,140,8|0,0:0|0:0,0:0:0:0:
124,80,11850,5,8,0:0:0:0:
104,248,12359,1,2,0:0:0:0:
260,308,12867,1,2,0:0:0:0:
408,248,13376,1,2,0:0:0:0:
388,80,13884,2,0,P|312:72|256:108,1,140,8|0,0:0|0:0,0:0:0:0:
256,192,14901,12,2,16427,0:0:0:0:
56,52,16935,6,0,P|84:156|92:160,1,70,2|0,0:0|0:0,0:0:0:0:
136,108,17444,2,0,P|148:180|128:268,1,140,0|0,0:0|0:0,0:0:0:0:
80,308,18206,2,2,P|160:332|244:316,1,140
256,252,18969,1,2,0:0:0:0:
256,252,19478,2,0,L|256:182,2,70,0|0|2,0:0|0:0|0:0,0:0:0:0:
256,84,20494,1,2,0:0:0:0:
456,52,21003,6,0,P|428:156|420:160,1,70,2|0,0:0|0:0,0:0:0:0:
376,108,21511,2,0,P|364:180|384:268,1,140,0|0,0:0|0:0,0:0:0:0:
432,308,22274,2,2,P|352:332|268:316,1,140
256,252,23037,1,2,0:0:0:0:
256,252,23546,2,0,L|256:182,2,70,0|0|2,0:0|0:0|0:0,0:0:0:0:
256,252,24562,1,2,0:0:0:0:
112,336,25071,6,0,P|72:288|100:160,1,140,2|0,0:0|0:0,0:0:0:0:
76,128,25833,1,0,0:0:0:0:
136,68,26088,2,0,P|256:128|380:64,1,280,2|2,0:0|0:0,0:0:0:0:
448,220,27613,6,0,L|384:368,1,140,0|2,0:0|0:0,0:0:0:0:
336,188,28630,2,0,L|280:296,1,70
220,232,29139,2,0,L|164:340,1,70,2|0,0:0|0:0,0:0:0:0:
104,288,29647,2,0,L|48:396,2,70,2|0|0,0:0|0:0|0:0,0:0:0:0:
144,212,30410,2,0,L|236:24,1,210,0|2,0:0|0:0,0:0:0:0:
384,108,31681,1,0,0:0:0:0:
400,192,31935,1,0,0:0:0:0:
420,272,32189,1,2,0:0:0:0:
256,316,32698,6,0,P|168:300|112:260,1,140,0|10,0:0|0:0,0:0:0:0:
80,204,33461,2,0,P|152:176|216:128,1,140
144,80,34223,2,0,L|64:40,2,70,10|0|0,0:0|0:0|0:0,0:0:0:0:
312,80,35240,2,0,P|404:100|420:196,1,140,8|0,0:0|0:0,0:0:0:0:
424,249,36003,2,0,P|404:284|312:304,1,140,2|2,0:0|0:0,0:0:0:0:
324,220,36766,2,0,P|256:200|160:240,1,140,0|8,0:0|0:0,0:0:0:0:
88,352,37783,5,2,0:0:0:0:
68,272,38037,1,0,0:0:0:0:
48,192,38291,2,0,L|28:104,2,70,8|0|0,0:0|0:0|0:0,0:0:0:0:
172,76,39308,1,8,0:0:0:0:
340,72,39817,1,0,0:0:0:0:
460,188,40325,2,0,P|440:256|368:304,1,140,8|0,0:0|0:0,0:0:0:0:
256,196,41342,5,8,0:0:0:0:
88,192,41850,1,0,0:0:0:0:
176,48,42359,1,8,0:0:0:0:
256,196,42867,2,0,P|328:268|420:304,2,140,0|8|0,0:0|0:0|0:0,0:0:0:0:
88,196,44393,5,8,0:0:0:0:
172,344,44901,1,0,0:0:0:0:
256,196,45410,2,0,P|376:152|412:108,1,140,2|2,0:0|0:0,0:0:0:0:
368,64,46172,2,0,L|476:8,2,70,2|0|2,0:0|0:0|0:0,0:0:0:0:
284,80,46935,2,0,P|204:52|132:100,1,140,2|8,0:0|0:0,0:0:0:0:
40,196,47952,1,0,0:0:0:0:
144,328,48461,1,0,0:0:0:0:
256,192,48969,6,0,P|332:156|364:60,1,140,0|8,0:0|0:0,0:0:0:0:
400,36,49732,1,0,0:0:0:0:
468,84,49986,2,0,L|468:244,1,140,0|8,0:0|0:0,0:0:0:0:
344,336,51003,1,0,0:0:0:0:
256,192,51511,1,2,0:0:0:0:
168,336,52020,1,0,0:0:0:0:
256,192,52528,1,0,0:0:0:0:
256,192,53037,6,0,P|180:156|148:60,1,140,0|8,0:0|0:0,0:0:0:0:
112,36,53800,1,0,0:0:0:0:
44,84,54054,2,0,L|44:244,1,140,0|8,0:0|0:0,0:0:0:0:
168,336,55071,1,0,0:0:0:0:
256,192,55579,1,8,0:0:0:0:
344,336,56088,1,0,0:0:0:0:
124,88,57105,5,4,0:0:0:0:
256,192,57613,1,8,0:0:0:0:
256,276,57867,1,0,0:0:0:0:
380,180,58376,2,0,P|376:76|396:44,1,140,2|2,0:0|0:0,0:0:0:0:
132,180,59393,1,0,0:0:0:0:
132,180,59647,2,0,P|136:76|116:44,2,140,2|2|2,0:0|0:0|0:0,0:0:0:0:
92,344,61172,2,0,P|180:280|256:272,1,140,8|8,0:0|0:0,0:0:0:0:
376,260,62189,1,0,0:0:0:0:
388,92,62698,2,0,P|300:156|224:164,1,140,8|0,0:0|0:0,0:0:0:0:
104,172,63715,2,0,L|104:316,2,140,8|0|0,0:2|0:2|0:2,0:2:0:0:
256,192,72359,12,0,73376,0:0:0:0:
68,348,74139,6,0,P|128:296|128:216,1,140
60,204,74901,2,0,P|84:128|152:96,1,140,2|0,0:0|0:0,0:0:0:0:
256,216,75918,2,0,P|280:248|288:276,2,70,2|0|0,0:0|0:0|0:0,0:0:0:0:
228,136,76681,2,0,P|248:72|384:92,1,210
420,316,78206,5,0,0:0:0:0:
372,248,78461,2,0,P|300:240|212:276,1,140,2|0,0:0|0:0,0:0:0:0:
152,280,79223,2,0,P|84:200|80:136,1,140,0|0,0:0|0:0,0:0:0:0:
100,88,79986,1,2,0:0:0:0:
176,124,80240,1,0,0:0:0:0:
256,96,80494,2,0,P|280:80|320:68,2,70,0|0|2,0:0|0:0|0:0,0:0:0:0:
164,236,81511,6,0,P|188:296|284:348,1,140,0|2,0:0|0:0,0:0:0:0:
328,312,82274,1,0,0:0:0:0:
376,244,82528,2,0,P|352:184|256:132,1,140,2|0,0:0|0:0,0:0:0:0:
212,120,83291,2,0,P|92:152|56:216,1,140,2|0,0:0|0:0,0:0:0:0:
72,244,84054,2,0,L|136:340,2,70,2|0|0,0:0|0:0|0:0,0:0:0:0:
60,160,84817,2,0,P|176:56|280:52,1,210,2|0,0:0|0:0,0:0:0:0:
380,112,86088,6,0,L|444:260,1,140,2|2,0:0|0:0,0:0:0:0:
464,320,86850,1,0,0:0:0:0:
384,348,87105,2,0,L|336:244,1,70,2|0,0:0|0:0,0:0:0:0:
272,304,87613,2,0,L|224:200,1,70
160,256,88122,2,0,L|112:152,1,70,2|0,0:0|0:0,0:0:0:0:
108,112,88630,1,2,0:0:0:0:
172,56,88884,1,2,0:0:0:0:
256,36,89139,1,2,0:0:0:0:
444,348,90410,6,0,P|384:296|384:216,1,140,2|0,0:0|0:0,0:0:0:0:
452,204,91172,2,0,P|428:128|360:96,1,140,2|0,0:0|0:0,0:0:0:0:
256,216,92189,2,0,P|232:248|224:276,2,70,2|0|0,0:0|0:0|0:0,0:0:0:0:
284,136,92952,2,0,P|264:72|128:92,1,210,2|0,0:0|0:0,0:0:0:0:
92,316,94477,5,0,0:0:0:0:
140,248,94732,2,0,P|212:240|300:276,1,140,2|0,0:0|0:0,0:0:0:0:
360,280,95494,2,0,P|428:200|432:136,1,140,2|0,0:0|0:0,0:0:0:0:
412,88,96257,1,2,0:0:0:0:
336,124,96511,1,0,0:0:0:0:
256,96,96765,2,0,P|232:80|192:68,2,70,2|0|0,0:0|0:0|0:0,0:0:0:0:
348,236,97782,6,0,P|324:296|228:348,1,140,2|0,0:0|0:0,0:0:0:0:
184,312,98545,1,2,0:0:0:0:
136,244,98799,2,0,P|160:184|256:132,1,140,2|0,0:0|0:0,0:0:0:0:
427,159,99817,5,4,0:0:0:0:
424,328,100325,1,4,0:0:0:0:
427,159,100833,1,4,0:0:0:0:
292,60,101342,1,4,0:0:0:0:
132,112,101850,1,2,0:0:0:0:
132,112,102359,6,0,L|68:260,1,140,2|2,0:0|0:0,0:0:0:0:
48,320,103121,1,0,0:0:0:0:
128,348,103376,2,0,L|176:244,1,70,2|0,0:0|0:0,0:0:0:0:
240,304,103884,2,0,L|288:200,1,70,2|0,0:0|0:0,0:0:0:0:
352,260,104393,1,0,0:0:0:0:
288,104,104901,1,2,0:0:0:0:
208,132,105155,1,2,0:0:0:0:
128,100,105410,1,2,0:0:0:0:
56,252,105918,6,0,P|136:332|184:340,1,140,0|8,0:0|0:0,0:0:0:0:
176,256,106681,2,0,P|240:228|320:272,1,140,2|0,0:0|0:0,0:0:0:0:
284,332,107444,2,0,P|348:348|452:328,1,140,8|0,0:0|0:0,0:0:0:0:
416,172,108461,1,8,0:0:0:0:
264,104,108969,2,0,P|212:72|188:44,2,70,2|0|8,0:0|0:0|0:0,0:0:0:0:
416,172,109986,6,0,L|284:260,1,140,2|0,0:0|0:0,0:0:0:0:
236,196,110749,1,0,0:0:0:0:
164,152,111003,2,0,L|80:208,2,70,2|0|8,0:0|0:0|0:0,0:0:0:0:
236,108,111766,2,0,P|168:64|88:64,1,140
60,124,112528,2,0,L|32:288,1,140,8|0,0:0|0:0,0:0:0:0:
80,332,113291,2,0,L|152:340,1,70,0|8,0:0|0:0,0:0:0:0:
308,280,114054,5,2,0:0:0:0:
196,156,114562,2,0,P|160:104|232:64,1,140,8|0,0:0|0:0,0:0:0:0:
292,56,115325,2,0,P|356:88|384:88,1,70,0|8,0:0|0:0,0:0:0:0:
436,108,115833,1,0,0:0:0:0:
256,284,116596,5,8,0:0:0:0:
192,128,117105,2,0,B|232:112|244:92|244:92|264:92|264:92|280:112|316:132,1,140,2|8,0:0|0:0,0:0:0:0:
392,272,118122,2,2,P|256:304|96:268,1,280
256,192,119647,12,2,122189,0:0:0:0:
432,76,130325,5,0,0:0:0:0:
436,244,130833,2,0,P|372:308|296:332,1,140,8|0,0:0|0:0,0:0:0:0:
252,292,131596,2,0,P|200:264|176:272,2,70,0|8|0,0:0|0:0|0:0,0:0:0:0:
68,84,132867,6,0,L|80:248,1,140,8|0,0:0|0:0,0:0:0:0:
156,256,133630,2,8,L|180:304|192:328,1,70
160,152,134393,2,0,P|192:96|288:88,1,140,0|8,0:0|0:0,0:0:0:0:
264,164,135155,2,0,P|296:236|416:284,1,210,0|8,0:0|0:0,0:0:0:0:
400,116,136427,1,0,0:0:0:0:
252,36,136935,2,0,L|116:140,1,140,8|0,0:0|0:0,0:0:0:0:
76,176,137698,1,8,0:0:0:0:
76,176,137952,1,8,0:0:0:0:
68,344,138461,6,0,P|128:308|204:304,1,140,0|8,0:0|0:0,0:0:0:0:
224,224,139223,2,0,L|320:252,2,70
144,204,139986,1,8,0:0:0:0:
340,44,140749,5,0,0:0:0:0:
276,100,141003,1,8,0:0:0:0:
256,268,141511,1,0,0:0:0:0:
408,336,142020,1,0,0:0:0:0:
460,268,142274,6,0,P|452:192|336:120,1,210,0|8,0:0|0:0,0:0:0:0:
304,192,143291,2,0,P|248:252|188:252,1,140
112,232,144054,2,0,P|44:136|164:64,1,280,8|8,0:0|0:0,0:0:0:0:
256,196,145579,1,4,0:0:0:0:
256,196,146088,1,4,0:0:0:0:
72,192,147105,5,8,0:0:0:0:
184,316,147613,1,0,0:0:0:0:
256,276,147867,1,0,0:0:0:0:
328,316,148122,1,8,0:0:0:0:
444,192,149139,1,8,0:0:0:0:
312,88,149647,2,0,P|344:60|360:24,2,70,0|0|8,0:0|0:0|0:0,0:0:0:0:
180,192,150664,5,0,0:0:0:0:
72,64,151172,2,0,L|44:232,1,140,8|0,0:0|0:0,0:0:0:0:
120,356,152189,2,0,P|176:308|244:312,1,140,8|0,0:0|0:0,0:0:0:0:
380,220,153206,2,0,L|224:188,1,140,8|0,0:0|0:0,0:0:0:0:
164,164,153969,2,0,P|124:128|116:92,2,70,8|8|0,0:0|0:0|0:0,0:0:0:0:
244,192,154732,6,0,P|312:232|344:300,1,140,2|8,0:0|0:0,0:0:0:0:
412,324,155494,2,0,P|476:272|480:264,1,70,0|0,0:0|0:0,0:0:0:0:
460,200,156003,2,0,P|424:148|420:124,1,70,0|8,0:0|0:0,0:0:0:0:
420,60,156511,1,4,0:0:0:0:
168,60,157274,5,4,0:0:0:0:
292,168,157783,1,4,0:0:0:0:
132,216,158291,2,0,P|128:284|188:336,1,140,2|0,0:0|0:0,0:0:0:0:
248,180,159308,2,0,P|304:136|396:160,1,140,10|0,0:0|0:0,0:0:0:0:
408,216,160071,1,2,0:0:0:0:
432,296,160325,1,10,0:0:0:0:
256,192,160579,12,0,162359,0:0:0:0:
80,308,162867,5,0,0:0:0:0:
76,140,163375,2,0,P|140:76|216:52,1,140,8|0,0:0|0:0,0:0:0:0:
260,92,164138,2,0,P|312:120|336:112,2,70,0|8|0,0:0|0:0|0:0,0:0:0:0:
444,300,165409,6,0,L|432:136,1,140,8|0,0:0|0:0,0:0:0:0:
356,128,166172,2,8,L|332:80|320:56,1,70
352,232,166935,2,0,P|320:288|224:296,1,140,0|8,0:0|0:0,0:0:0:0:
247,221,167698,2,0,P|215:149|95:101,1,210,0|8,0:0|0:0,0:0:0:0:
112,268,168969,1,0,0:0:0:0:
260,348,169477,2,0,L|396:244,1,140,8|0,0:0|0:0,0:0:0:0:
436,208,170240,1,8,0:0:0:0:
436,208,170494,1,8,0:0:0:0:
444,40,171003,6,0,P|384:76|308:80,1,140,0|8,0:0|0:0,0:0:0:0:
288,160,171765,2,0,L|192:132,2,70
368,180,172528,1,8,0:0:0:0:
172,340,173291,5,0,0:0:0:0:
236,284,173545,1,8,0:0:0:0:
256,116,174053,1,0,0:0:0:0:
104,48,174562,1,0,0:0:0:0:
52,116,174816,6,0,P|60:192|176:264,1,210,0|8,0:0|0:0,0:0:0:0:
208,192,175833,2,0,P|264:132|324:132,1,140
400,152,176596,2,0,P|468:248|348:320,1,280,8|8,0:0|0:0,0:0:0:0:
256,188,178121,1,4,0:0:0:0:
256,188,178630,1,4,0:0:0:0:
88,184,179139,2,2,P|256:84|436:188,1,420
356,212,180918,2,0,B|312:236|312:236|272:220|272:220|244:220|244:220|200:236|200:236|160:208,1,210,2|2,0:0|0:0,0:0:0:0:
256,72,182189,2,0,L|256:152,1,70,8|0,0:0|0:0,0:0:0:0:
256,228,182698,2,0,L|256:312,2,70,8|0|8,0:0|0:0|0:0,0:0:0:0:
256,144,183461,1,0,0:0:0:0:
256,144,183715,1,0,0:0:0:0:
192,88,183969,2,0,P|260:64|324:88,1,140
256,192,184986,12,2,191342,0:0:0:0:
