osu file format v12

[General]
AudioFilename: 03 Sleepwalker.mp3
AudioLeadIn: 0
PreviewTime: 58728
Countdown: 0
SampleSet: Normal
StackLeniency: 0.7
Mode: 2
LetterboxInBreaks: 1
WidescreenStoryboard: 0

[Editor]
Bookmarks: 578,1995,2787
DistanceSpacing: 0.8
BeatDivisor: 4
GridSize: 8

[Metadata]
Title:Sleepwalker
TitleUnicode:Sleepwalker
Artist:Parkway Drive
ArtistUnicode:Parkway Drive
Creator:Steelwix
Version:Catch the walker
Source:
Tags:Parkway Drive Sleepwalker Steelwix
BeatmapID:223417
BeatmapSetID:80228

[Difficulty]
HPDrainRate:5
CircleSize:4
OverallDifficulty:9
ApproachRate:9
SliderMultiplier:2.10000000596046
SliderTickRate:1

[Events]
//Background and Video events
0,0,"Sidewalker BG.jpg",0,0
//Break Periods
2,77924,80260
2,104353,105670
2,107176,108493
2,113352,114140
2,136468,146993
//Storyboard Layer 0 (Background)
//Storyboard Layer 1 (Fail)
//Storyboard Layer 2 (Pass)
//Storyboard Layer 3 (Foreground)
//Storyboard Sound Samples
//Background Colour Transformations
3,100,163,162,255

[TimingPoints]
11422,352.920416446091,4,1,0,100,1,0
45302,352.920416446091,4,1,0,100,1,1
48301,-100,4,1,0,100,0,0
56948,296.800490710145,4,1,0,100,1,0
61401,-100,4,1,0,100,0,1
63776,-100,4,1,0,100,0,0
66151,-100,4,1,0,100,0,1
68527,-100,4,1,0,100,0,0
70902,-100,4,1,0,100,0,1
75949,-100,4,1,0,100,0,0
78389,352.920416446091,4,1,0,100,1,0
123387,-100,4,1,0,30,0,0
124093,-100,4,1,0,100,0,0
124975,-100,4,1,0,30,0,0
125504,-100,4,1,0,100,0,0
128504,-100,4,1,0,30,0,0
129034,-100,4,1,0,100,0,0
130622,-100,4,1,0,100,0,0
134151,-100,4,1,0,30,0,0
134857,-100,4,1,0,100,0,0
135739,-100,4,1,0,30,0,0
136268,-100,4,1,0,100,0,0
147593,347.721266632667,4,1,0,100,1,1
153323,-100,4,1,0,100,0,0
158720,348.537305109557,4,1,0,100,1,1
168895,-100,4,1,0,100,0,0
169350,832.755031228314,4,1,0,100,1,0

[Colours]
Combo1 : 255,128,0
Combo2 : 0,255,0
Combo3 : 128,0,128
Combo4 : 255,0,0

[HitObjects]
256,328,11421,1,0,0:0:0:0:
152,304,11598,2,0,L|248:232,1,105.000000298023,0|8,0:0|0:0,0:0:0:0:
392,280,11951,2,0,L|296:200,1,105.000000298023
432,168,12304,2,0,L|352:88,1,105.000000298023,0|8,0:0|0:0,0:0:0:0:
64,256,12657,2,0,L|160:176,1,105.000000298023
360,176,13010,6,0,L|448:232,1,105.000000298023,0|8,0:0|0:0,0:0:0:0:
256,248,13363,1,0,0:0:0:0:
184,288,13539,1,0,0:0:0:0:
88,328,13715,1,0,0:0:0:0:
344,296,13892,1,8,0:0:0:0:
424,232,14068,6,0,L|424:104,1,105.000000298023,8|8,0:0|0:0,0:0:0:0:
344,104,14421,2,0,L|272:16,1,105.000000298023,0|0,0:0|0:0,0:0:0:0:
16,128,14774,2,0,L|112:32,1,105.000000298023,0|8,0:0|0:0,0:0:0:0:
184,112,15127,2,0,L|296:56,1,105.000000298023,0|0,0:0|0:0,0:0:0:0:
32,232,15480,2,0,L|160:232,1,105.000000298023,0|8,0:0|0:0,0:0:0:0:
448,264,15833,6,0,L|328:264,1,105.000000298023,0|0,0:0|0:0,0:0:0:0:
64,336,16186,2,0,L|208:336,1,105.000000298023,0|8,0:0|0:0,0:0:0:0:
304,288,16539,1,0,0:0:0:0:
48,248,16715,1,8,0:0:0:0:
120,160,16892,5,8,0:0:0:0:
216,160,17068,1,8,0:0:0:0:
472,160,17245,1,0,0:0:0:0:
384,160,17421,1,0,0:0:0:0:
304,160,17598,6,0,L|304:288,1,105.000000298023,0|8,0:0|0:0,0:0:0:0:
152,256,17951,2,0,L|72:160,1,105.000000298023
144,128,18303,1,0,0:0:0:0:
400,120,18480,2,0,L|352:224,1,105.000000298023,8|0,0:0|0:0,0:0:0:0:
288,256,18833,1,0,0:0:0:0:
144,224,19009,6,0,L|48:136,1,105.000000298023,0|8,0:0|0:0,0:0:0:0:
288,144,19362,2,0,L|368:64,1,105.000000298023,0|8,0:0|0:0,0:0:0:0:
88,40,19715,2,0,L|184:120,1,105.000000298023,8|8,0:0|0:0,0:0:0:0:
472,272,20068,2,0,L|392:200,1,105.000000298023,0|0,0:0|0:0,0:0:0:0:
120,328,20421,2,0,L|208:248,1,105.000000298023,0|8,0:0|0:0,0:0:0:0:
320,216,20774,2,0,L|392:136,1,105.000000298023
112,112,21127,1,0,0:0:0:0:
288,336,21303,5,0,0:0:0:0:
248,296,21392,1,0,0:0:0:0:
200,256,21480,1,0,0:0:0:0:
240,216,21568,1,0,0:0:0:0:
320,200,21656,1,0,0:0:0:0:
304,144,21744,1,0,0:0:0:0:
240,88,21833,5,0,0:0:0:0:
176,104,21921,1,0,0:0:0:0:
184,152,22009,1,0,0:0:0:0:
248,168,22097,1,0,0:0:0:0:
312,160,22186,1,0,0:0:0:0:
376,128,22274,5,0,0:0:0:0:
336,88,22362,1,0,0:0:0:0:
296,72,22450,1,0,0:0:0:0:
208,72,22538,1,0,0:0:0:0:
144,56,22627,1,0,0:0:0:0:
240,216,22715,5,0,0:0:0:0:
504,192,23068,1,0,0:0:0:0:
0,192,23421,1,8,0:0:0:0:
352,192,23774,1,0,0:0:0:0:
144,192,23950,1,0,0:0:0:0:
256,184,24127,2,0,L|256:72,1,105.000000298023
360,72,24480,5,0,0:0:0:0:
120,280,24656,1,0,0:0:0:0:
424,280,24832,1,0,0:0:0:0:
96,80,25009,1,0,0:0:0:0:
320,200,25185,2,0,L|216:112,1,105.000000298023,8|0,0:0|0:0,0:0:0:0:
48,256,25538,2,0,L|160:192,1,105.000000298023,0|0,0:0|0:0,0:0:0:0:
440,80,25891,6,0,L|360:160,1,105.000000298023,8|0,0:0|0:0,0:0:0:0:
128,312,26244,2,0,L|232:224,1,105.000000298023,8|0,0:0|0:0,0:0:0:0:
128,88,26597,2,0,L|232:144,1,105.000000298023,8|0,0:0|0:0,0:0:0:0:
424,304,26950,2,0,L|304:216,1,105.000000298023,8|0,0:0|0:0,0:0:0:0:
432,64,27303,2,0,L|320:104,1,105.000000298023,8|0,0:0|0:0,0:0:0:0:
88,184,27656,2,0,L|208:128,1,105.000000298023,8|8,0:0|0:0,0:0:0:0:
288,296,28009,2,0,L|288:168,1,105.000000298023,8|8,0:0|0:0,0:0:0:0:
88,184,28362,5,8,0:0:0:0:
432,184,28538,1,8,0:0:0:0:
280,88,28715,1,0,0:0:0:0:
176,96,28891,1,0,0:0:0:0:
136,304,29068,1,0,0:0:0:0:
424,288,29420,5,0,0:0:0:0:
240,208,29597,1,0,0:0:0:0:
48,200,29773,2,0,L|104:88,1,105.000000298023,8|0,0:0|0:0,0:0:0:0:
280,88,30126,1,0,0:0:0:0:
144,208,30479,1,0,0:0:0:0:
304,208,30656,1,0,0:0:0:0:
40,208,30832,1,4,0:0:0:0:
160,288,31538,6,0,L|232:192,1,105.000000298023,8|0,0:0|0:0,0:0:0:0:
104,56,31891,2,0,L|208:112,1,105.000000298023,8|0,0:0|0:0,0:0:0:0:
432,288,32244,2,0,L|344:200,1,105.000000298023,8|0,0:0|0:0,0:0:0:0:
448,56,32597,2,0,L|336:128,1,105.000000298023,8|0,0:0|0:0,0:0:0:0:
48,216,32950,6,0,L|128:136,1,105.000000298023,8|0,0:0|0:0,0:0:0:0:
312,32,33303,2,0,L|304:144,1,105.000000298023,8|0,0:0|0:0,0:0:0:0:
304,312,33655,2,0,L|184:248,1,105.000000298023,8|0,0:0|0:0,0:0:0:0:
48,104,34008,2,0,L|176:56,1,105.000000298023,8|0,0:0|0:0,0:0:0:0:
448,112,34361,1,0,0:0:0:0:
176,280,34538,1,0,0:0:0:0:
184,176,34714,1,8,0:0:0:0:
424,248,34891,6,0,L|328:160,1,105.000000298023
152,48,35244,2,0,L|240:120,1,105.000000298023
64,248,35597,2,0,L|152:168,1,105.000000298023,0|0,0:0|0:0,0:0:0:0:
480,224,35949,2,0,L|400:136,1,105.000000298023,0|8,0:0|0:0,0:0:0:0:
112,184,36302,1,0,0:0:0:0:
32,104,36479,1,0,0:0:0:0:
136,80,36655,1,0,0:0:0:0:
392,184,36832,5,8,0:0:0:0:
480,96,37008,1,8,0:0:0:0:
128,320,37185,1,8,0:0:0:0:
48,232,37361,1,0,0:0:0:0:
184,168,37538,2,0,L|328:176,1,105.000000298023
472,136,37891,2,0,L|352:120,1,105.000000298023
48,272,38243,6,0,L|176:272,1,105.000000298023,8|0,0:0|0:0,0:0:0:0:
432,232,38596,2,0,L|304:208,1,105.000000298023,8|0,0:0|0:0,0:0:0:0:
120,56,38949,2,0,L|240:56,1,105.000000298023,8|0,0:0|0:0,0:0:0:0:
208,144,39302,1,8,0:0:0:0:
136,224,39479,1,8,0:0:0:0:
208,264,39655,2,0,L|320:216,1,105.000000298023,8|8,0:0|0:0,0:0:0:0:
432,168,40008,5,0,0:0:0:0:
320,144,40185,1,0,0:0:0:0:
256,64,40361,1,0,0:0:0:0:
144,224,40537,2,0,L|240:144,1,105.000000298023,0|0,0:0|0:0,0:0:0:0:
56,64,40890,2,0,L|136:144,1,105.000000298023
64,192,41243,1,0,0:0:0:0:
256,240,41420,6,0,L|168:304,1,105.000000298023
128,136,41773,2,0,L|48:56,1,105.000000298023
376,96,42126,2,8,L|424:96,4,26.2500000745058
48,56,42831,6,0,L|160:152,1,105.000000298023,8|0,0:0|0:0,0:0:0:0:
464,40,43184,2,0,L|376:144,1,105.000000298023,8|0,0:0|0:0,0:0:0:0:
160,328,43537,2,0,L|184:224,1,105.000000298023,8|0,0:0|0:0,0:0:0:0:
456,248,43890,2,0,L|352:200,1,105.000000298023,8|0,0:0|0:0,0:0:0:0:
64,224,44243,2,0,L|176:160,1,105.000000298023,8|0,0:0|0:0,0:0:0:0:
296,56,44596,6,0,L|272:168,1,105.000000298023,8|0,0:0|0:0,0:0:0:0:
40,136,44949,2,0,L|120:56,1,105.000000298023,8|0,0:0|0:0,0:0:0:0:
288,144,45302,1,0,0:0:0:0:
432,240,45478,1,0,0:0:0:0:
240,304,45654,1,0,0:0:0:0:
48,208,45831,2,0,L|160:256,1,105.000000298023,8|0,0:0|0:0,0:0:0:0:
464,56,46184,5,0,0:0:0:0:
464,160,46360,1,0,0:0:0:0:
256,224,46537,1,8,0:0:0:0:
384,240,46713,1,0,0:0:0:0:
96,248,46890,1,0,0:0:0:0:
336,96,47066,1,0,0:0:0:0:
192,96,47243,1,8,0:0:0:0:
32,96,47419,1,8,0:0:0:0:
232,176,47595,6,0,L|336:240,1,105.000000298023,8|8,0:0|0:0,0:0:0:0:
400,112,47948,2,0,L|352:16,1,105.000000298023,8|8,0:0|0:0,0:0:0:0:
64,288,48301,2,0,L|112:192,1,105.000000298023
352,224,48654,2,0,L|232:176,1,105.000000298023,8|0,0:0|0:0,0:0:0:0:
32,152,49007,1,0,0:0:0:0:
440,152,49184,1,0,0:0:0:0:
352,40,49360,1,8,0:0:0:0:
248,200,49537,1,0,0:0:0:0:
304,320,49713,5,0,0:0:0:0:
232,280,49801,1,0,0:0:0:0:
144,224,49889,1,0,0:0:0:0:
80,168,49978,1,0,0:0:0:0:
168,120,50066,1,0,0:0:0:0:
304,104,50242,5,4,0:0:0:0:
432,112,50419,5,0,0:0:0:0:
384,168,50507,1,0,0:0:0:0:
312,208,50595,1,0,0:0:0:0:
248,248,50684,1,0,0:0:0:0:
160,296,50772,1,0,0:0:0:0:
72,264,50860,1,0,0:0:0:0:
192,184,50948,5,8,0:0:0:0:
392,56,51125,2,0,L|296:112,1,105.000000298023
128,104,51478,1,0,0:0:0:0:
32,248,51654,1,8,0:0:0:0:
168,264,51831,1,0,0:0:0:0:
352,264,52007,2,0,L|416:176,1,105.000000298023,0|0,0:0|0:0,0:0:0:0:
72,144,52360,6,0,L|216:144,1,105.000000298023,8|0,0:0|0:0,0:0:0:0:
376,72,52713,2,0,L|280:144,1,105.000000298023,0|0,0:0|0:0,0:0:0:0:
112,248,53066,1,8,0:0:0:0:
328,248,53242,1,0,0:0:0:0:
240,312,53419,2,0,L|240:192,1,105.000000298023,0|0,0:0|0:0,0:0:0:0:
320,160,53772,1,8,0:0:0:0:
96,160,53948,1,0,0:0:0:0:
216,40,54125,6,0,L|368:56,1,105.000000298023,0|0,0:0|0:0,0:0:0:0:
424,160,54477,2,0,L|416:272,1,105.000000298023,8|0,0:0|0:0,0:0:0:0:
216,272,54830,2,0,L|72:272,1,105.000000298023
48,192,55183,2,0,L|56:72,1,105.000000298023,8|0,0:0|0:0,0:0:0:0:
168,104,55536,1,0,0:0:0:0:
328,144,55713,1,8,0:0:0:0:
160,208,55889,1,0,0:0:0:0:
408,256,56066,1,0,0:0:0:0:
64,304,56242,1,0,0:0:0:0:
256,320,56418,2,0,L|256:192,1,105.000000298023,0|4,0:0|0:0,0:0:0:0:
48,192,56948,6,0,L|192:192,1,105.000000298023
440,192,57393,2,0,L|328:192,1,105.000000298023,0|0,0:0|0:0,0:0:0:0:
144,192,57838,2,0,L|32:192,1,105.000000298023
376,208,58283,2,0,L|488:208,1,105.000000298023
112,96,58728,5,0,0:0:0:0:
256,96,58877,1,0,0:0:0:0:
384,96,59026,1,0,0:0:0:0:
160,192,59323,2,0,L|40:192,1,105.000000298023
344,192,59768,2,0,L|456:192,1,105.000000298023
208,192,60213,1,0,0:0:0:0:
480,192,60510,5,0,0:0:0:0:
192,192,60807,1,0,0:0:0:0:
40,192,61104,1,0,0:0:0:0:
328,192,61401,1,0,0:0:0:0:
32,256,61698,5,0,0:0:0:0:
232,248,61995,1,0,0:0:0:0:
32,256,62292,1,0,0:0:0:0:
296,248,62589,2,0,L|176:248,2,105.000000298023
32,256,63182,1,0,0:0:0:0:
496,248,63479,1,0,0:0:0:0:
88,128,63776,6,0,L|216:128,1,105.000000298023
448,128,64073,2,0,L|328:128,1,105.000000298023
144,256,64370,2,0,L|24:256,1,105.000000298023
288,296,64667,2,0,L|424:296,1,105.000000298023
304,144,64964,2,0,L|192:144,1,105.000000298023
48,192,65261,6,0,L|160:192,1,105.000000298023
312,64,65558,2,0,L|424:64,1,105.000000298023
376,168,65855,2,0,L|224:168,1,105.000000298023
40,168,66151,1,0,0:0:0:0:
432,200,66448,5,0,0:0:0:0:
32,200,66745,1,0,0:0:0:0:
256,192,67042,1,0,0:0:0:0:
176,192,67191,1,0,0:0:0:0:
336,192,67339,1,0,0:0:0:0:
80,200,67632,5,0,0:0:0:0:
432,192,67929,1,0,0:0:0:0:
32,200,68226,1,0,0:0:0:0:
304,280,68523,6,0,L|416:280,2,105.000000298023
120,112,69116,2,0,L|8:112,2,105.000000298023
400,128,69710,2,0,L|272:128,2,105.000000298023
48,192,70304,1,0,0:0:0:0:
456,192,70600,1,0,0:0:0:0:
264,240,70897,1,0,0:0:0:0:
112,192,71194,6,0,L|328:192,1,210.000000596046
440,272,71788,2,0,L|216:272,1,210.000000596046
48,120,72381,2,0,L|264:120,1,210.000000596046
456,176,72975,2,0,L|232:176,1,210.000000596046
168,168,73420,1,0,0:0:0:0:
96,272,73865,6,0,L|216:272,2,105.000000298023
408,272,74465,2,0,L|288:272,2,105.000000298023
24,192,75052,1,0,0:0:0:0:
496,192,75349,1,0,0:0:0:0:
24,192,75646,1,0,0:0:0:0:
200,192,75943,6,0,P|272:208|336:192,2,105.000000298023
432,80,76536,2,0,P|368:56|320:64,2,105.000000298023
112,96,77130,2,0,P|176:56|216:56,2,105.000000298023
256,200,77724,1,0,0:0:0:0:
256,192,80860,5,0,0:0:0:0:
328,136,81036,2,0,L|424:48,1,105.000000298023
168,64,81389,2,0,L|280:40,1,105.000000298023,8|0,0:0|0:0,0:0:0:0:
96,176,81742,1,0,0:0:0:0:
88,272,81919,1,0,0:0:0:0:
176,280,82095,1,0,0:0:0:0:
288,280,82272,5,0,0:0:0:0:
464,280,82448,1,0,0:0:0:0:
376,280,82624,1,0,0:0:0:0:
184,200,82801,1,0,0:0:0:0:
288,160,82977,1,0,0:0:0:0:
392,88,83154,2,0,L|456:48,2,52.5000001490115
72,160,83683,6,0,L|144:256,1,105.000000298023,8|0,0:0|0:0,0:0:0:0:
192,96,84036,2,0,L|280:208,1,105.000000298023,8|0,0:0|0:0,0:0:0:0:
344,104,84389,2,0,L|424:192,1,105.000000298023,8|0,0:0|0:0,0:0:0:0:
352,288,84742,2,0,L|408:192,1,105.000000298023,8|0,0:0|0:0,0:0:0:0:
216,288,85095,2,0,L|272:184,1,105.000000298023,8|0,0:0|0:0,0:0:0:0:
80,288,85448,2,0,L|152:168,1,105.000000298023,8|0,0:0|0:0,0:0:0:0:
96,48,85801,2,0,L|152:168,1,105.000000298023,8|0,0:0|0:0,0:0:0:0:
376,48,86154,2,0,L|304:144,1,105.000000298023,8|0,0:0|0:0,0:0:0:0:
192,192,86507,5,0,0:0:0:0:
96,192,86683,1,0,0:0:0:0:
280,280,86860,1,0,0:0:0:0:
280,176,87036,1,0,0:0:0:0:
368,176,87212,2,0,P|352:112|312:80,1,105.000000298023,8|0,0:0|0:0,0:0:0:0:
440,80,87565,1,0,0:0:0:0:
448,240,87742,1,0,0:0:0:0:
192,240,87918,6,0,P|128:200|112:160,1,105.000000298023
48,112,88271,1,0,0:0:0:0:
168,112,88448,1,0,0:0:0:0:
160,32,88624,2,0,P|240:48|264:72,1,105.000000298023
360,112,88977,1,8,0:0:0:0:
384,304,89683,6,0,P|400:248|376:200,1,105.000000298023,8|0,0:0|0:0,0:0:0:0:
272,296,90036,2,0,P|240:240|264:192,1,105.000000298023,8|0,0:0|0:0,0:0:0:0:
160,304,90389,2,0,P|184:248|176:200,1,105.000000298023,8|0,0:0|0:0,0:0:0:0:
72,312,90742,2,0,B|48:240|64:208|72:200,1,105.000000298023,8|0,0:0|0:0,0:0:0:0:
80,120,91095,2,0,P|152:144|184:120,1,105.000000298023,8|0,0:0|0:0,0:0:0:0:
272,112,91447,2,0,P|336:80|384:112,1,105.000000298023,8|0,0:0|0:0,0:0:0:0:
184,24,91800,2,0,P|136:72|136:128,1,105.000000298023,8|0,0:0|0:0,0:0:0:0:
296,24,92153,2,0,P|336:72|336:120,1,105.000000298023,0|0,0:0|0:0,0:0:0:0:
400,192,92506,5,0,0:0:0:0:
128,176,92683,2,0,L|232:224,1,105.000000298023,0|8,0:0|0:0,0:0:0:0:
224,312,93036,1,0,0:0:0:0:
456,160,93212,2,0,L|360:224,1,105.000000298023
304,312,93565,1,0,0:0:0:0:
64,280,93741,2,0,L|136:200,1,105.000000298023
440,232,94094,6,0,L|352:144,1,105.000000298023
200,160,94447,2,0,L|288:80,1,105.000000298023,0|8,0:0|0:0,0:0:0:0:
296,176,94800,2,0,L|208:88,1,105.000000298023
128,88,95153,1,0,0:0:0:0:
336,80,95330,1,8,0:0:0:0:
160,200,95506,2,0,L|264:288,1,105.000000298023,0|8,0:0|0:0,0:0:0:0:
328,280,95859,2,0,L|384:184,1,105.000000298023,0|8,0:0|0:0,0:0:0:0:
224,320,96212,5,0,0:0:0:0:
120,312,96388,1,8,0:0:0:0:
224,224,96565,1,8,0:0:0:0:
376,224,96741,1,8,0:0:0:0:
224,136,96918,1,8,0:0:0:0:
224,48,97094,1,8,0:0:0:0:
72,136,97271,5,8,0:0:0:0:
360,136,97447,1,8,0:0:0:0:
272,264,97624,2,0,L|160:264,1,105.000000298023,8|0,0:0|0:0,0:0:0:0:
288,184,97977,1,0,0:0:0:0:
312,88,98153,1,0,0:0:0:0:
96,88,98329,6,0,L|200:24,1,105.000000298023,0|8,0:0|0:0,0:0:0:0:
208,192,98682,2,0,L|96:152,1,105.000000298023,0|0,0:0|0:0,0:0:0:0:
112,312,99035,2,0,L|216:264,1,105.000000298023
392,304,99388,2,0,L|280:256,1,105.000000298023
296,200,99741,2,0,L|416:152,1,105.000000298023
384,272,100094,6,0,L|432:312,2,52.5000001490115
440,152,100976,6,0,L|320:152,1,105.000000298023,8|0,0:0|0:0,0:0:0:0:
56,224,101329,2,0,L|168:224,1,105.000000298023,8|0,0:0|0:0,0:0:0:0:
456,224,101682,2,0,L|344:224,1,105.000000298023,8|0,0:0|0:0,0:0:0:0:
96,144,102035,2,0,L|224:144,1,105.000000298023,8|0,0:0|0:0,0:0:0:0:
448,72,102388,2,0,L|320:72,1,105.000000298023,8|0,0:0|0:0,0:0:0:0:
80,304,102741,2,0,L|216:304,1,105.000000298023,8|0,0:0|0:0,0:0:0:0:
400,272,103094,2,0,L|288:272,1,105.000000298023,8|0,0:0|0:0,0:0:0:0:
176,296,103447,6,0,B|144:240|168:184|208:160|240:144|312:136|336:112|352:72,1,315.000000894069
200,64,104153,1,0,0:0:0:0:
72,72,106270,6,0,B|208:152|232:208|288:208|336:192|376:176,1,315.000000894069
256,312,106976,1,0,0:0:0:0:
424,64,109093,6,0,B|360:96|312:96|240:104|208:72|144:104|152:160|184:208|232:248|288:256,1,420.000001192092
144,272,109976,1,0,0:0:0:0:
392,272,110329,1,0,0:0:0:0:
448,208,110505,2,0,B|384:136|328:120|232:128|192:144|120:136|72:64,1,420.000001192092
152,40,111387,1,0,0:0:0:0:
448,96,111740,1,0,0:0:0:0:
56,200,112623,5,0,0:0:0:0:
432,200,112799,1,0,0:0:0:0:
248,192,113152,1,0,0:0:0:0:
56,56,114740,6,0,B|120:88|152:128|168:168|192:192|240:208|288:192|304:152|320:128|328:112|408:144|416:176|416:200,1,420.000001192092
304,256,115623,1,0,0:0:0:0:
64,264,115975,1,0,0:0:0:0:
40,192,116152,2,0,B|88:144|176:176|224:200|288:192|336:184|384:168|424:168|456:168,1,420.000001192092
360,104,117034,1,0,0:0:0:0:
112,104,117387,1,0,0:0:0:0:
392,264,118269,5,0,0:0:0:0:
56,272,118446,1,0,0:0:0:0:
472,264,118799,1,0,0:0:0:0:
136,56,119681,1,0,0:0:0:0:
136,152,119858,1,0,0:0:0:0:
384,168,120210,1,0,0:0:0:0:
440,224,120387,6,0,B|216:344|216:344|32:160,1,472.500001341104
32,80,121357,1,0,0:0:0:0:
432,104,121799,5,0,0:0:0:0:
336,184,121975,2,0,B|280:248|208:256|160:256|112:224|112:176|120:144|144:104|168:80|224:40,1,420.000001192092
296,40,122857,1,0,0:0:0:0:
80,296,123210,1,0,0:0:0:0:
208,160,123563,5,0,0:0:0:0:
288,152,123651,1,0,0:0:0:0:
288,232,123740,1,0,0:0:0:0:
288,312,123828,1,0,0:0:0:0:
368,312,123916,1,0,0:0:0:0:
448,312,124004,1,0,0:0:0:0:
448,232,124093,5,0,0:0:0:0:
360,152,124269,1,0,0:0:0:0:
40,80,124622,1,0,0:0:0:0:
88,192,124975,5,0,0:0:0:0:
144,240,125063,1,0,0:0:0:0:
208,280,125151,1,0,0:0:0:0:
264,336,125240,1,0,0:0:0:0:
304,272,125328,1,0,0:0:0:0:
360,216,125416,1,0,0:0:0:0:
416,160,125504,6,0,B|400:96|360:56|296:48|232:40|168:40|128:64|88:80|56:128,1,420.000001192092
176,136,126387,1,0,0:0:0:0:
416,240,126740,1,0,0:0:0:0:
344,248,126916,2,0,P|24:248|8:200,1,420.000001192092
96,208,127798,1,0,0:0:0:0:
368,208,128151,1,0,0:0:0:0:
176,112,128592,5,0,0:0:0:0:
256,112,128769,1,0,0:0:0:0:
176,112,128945,1,0,0:0:0:0:
416,208,129122,5,0,0:0:0:0:
416,288,129298,1,0,0:0:0:0:
40,200,129651,1,0,0:0:0:0:
416,64,130004,5,0,0:0:0:0:
352,136,130092,1,0,0:0:0:0:
464,184,130180,1,0,0:0:0:0:
304,248,130357,1,0,0:0:0:0:
104,288,130533,6,0,L|208:232,1,105.000000298023
80,168,131063,1,0,0:0:0:0:
24,88,131239,2,0,L|448:80,1,420.000001192092
400,176,132122,1,0,0:0:0:0:
88,288,132563,5,0,0:0:0:0:
184,296,132739,2,0,B|152:208|152:144|176:112|216:88|272:72|424:72,1,420.000001192092
328,72,133621,1,0,0:0:0:0:
104,72,133974,1,0,0:0:0:0:
224,192,134327,5,0,0:0:0:0:
296,232,134416,1,0,0:0:0:0:
240,296,134504,1,0,0:0:0:0:
160,296,134592,1,0,0:0:0:0:
80,288,134680,1,0,0:0:0:0:
96,216,134768,1,0,0:0:0:0:
104,144,134857,6,0,L|216:104,1,105.000000298023
456,104,135386,1,0,0:0:0:0:
384,208,135739,5,0,0:0:0:0:
440,264,135827,1,0,0:0:0:0:
416,336,135915,1,0,0:0:0:0:
344,336,136004,1,0,0:0:0:0:
264,336,136092,1,0,0:0:0:0:
200,296,136180,1,0,0:0:0:0:
176,224,136268,1,0,0:0:0:0:
88,232,147593,6,0,L|160:136,1,105.000000298023
272,96,147940,2,0,L|376:120,1,105.000000298023,0|0,0:0|0:0,0:0:0:0:
368,280,148290,2,0,L|464:216,1,105.000000298023,0|0,0:0|0:0,0:0:0:0:
224,232,148639,2,0,L|136:176,1,105.000000298023,8|0,0:0|0:0,0:0:0:0:
176,96,148988,5,0,0:0:0:0:
352,96,149162,1,0,0:0:0:0:
64,288,149337,1,8,0:0:0:0:
320,272,149511,2,0,L|224:192,1,105.000000298023,0|0,0:0|0:0,0:0:0:0:
384,192,149860,1,8,0:0:0:0:
464,88,150034,5,8,0:0:0:0:
264,88,150209,1,8,0:0:0:0:
104,152,150383,2,0,L|200:232,1,105.000000298023,8|0,0:0|0:0,0:0:0:0:
352,96,150732,1,0,0:0:0:0:
80,312,150906,1,0,0:0:0:0:
288,328,151081,5,8,0:0:0:0:
448,304,151255,2,0,L|360:224,1,105.000000298023
144,224,151591,1,0,0:0:0:0:
136,96,151765,1,0,0:0:0:0:
264,144,151953,5,0,0:0:0:0:
320,168,152040,1,0,0:0:0:0:
360,200,152127,1,0,0:0:0:0:
400,232,152215,1,0,0:0:0:0:
376,272,152302,1,0,0:0:0:0:
336,312,152389,1,0,0:0:0:0:
288,328,152476,5,0,0:0:0:0:
200,328,152651,5,0,0:0:0:0:
160,312,152738,1,0,0:0:0:0:
120,288,152825,1,0,0:0:0:0:
96,248,152912,1,0,0:0:0:0:
80,208,152999,1,0,0:0:0:0:
96,160,153087,1,0,0:0:0:0:
128,128,153174,5,0,0:0:0:0:
392,120,153330,2,0,L|312:48,1,105.000000298023
96,56,153678,1,0,0:0:0:0:
152,224,153872,2,0,L|264:184,1,105.000000298023
448,256,154199,2,0,L|344:208,1,105.000000298023,8|0,0:0|0:0,0:0:0:0:
168,128,154547,5,0,0:0:0:0:
168,272,154721,1,0,0:0:0:0:
328,280,154895,1,8,0:0:0:0:
320,136,155069,1,0,0:0:0:0:
56,88,155242,2,0,L|184:48,1,105.000000298023
248,136,155590,1,8,0:0:0:0:
336,208,155764,5,0,0:0:0:0:
424,128,155938,1,0,0:0:0:0:
248,224,156112,2,0,L|112:192,1,105.000000298023,0|8,0:0|0:0,0:0:0:0:
144,80,156459,1,0,0:0:0:0:
344,72,156633,1,0,0:0:0:0:
96,312,156807,2,0,L|96:176,1,105.000000298023,0|8,0:0|0:0,0:0:0:0:
256,320,157155,1,0,0:0:0:0:
424,272,157329,5,0,0:0:0:0:
384,224,157416,1,0,0:0:0:0:
344,176,157503,1,0,0:0:0:0:
304,128,157589,1,0,0:0:0:0:
264,88,157676,1,0,0:0:0:0:
224,48,157763,1,0,0:0:0:0:
272,32,157850,5,0,0:0:0:0:
72,280,158024,5,0,0:0:0:0:
104,240,158111,1,0,0:0:0:0:
128,208,158198,1,0,0:0:0:0:
152,160,158285,1,0,0:0:0:0:
176,112,158372,1,0,0:0:0:0:
216,48,158459,1,0,0:0:0:0:
288,320,158546,1,0,0:0:0:0:
320,288,158633,1,0,0:0:0:0:
352,248,158720,5,0,0:0:0:0:
304,128,158894,2,8,L|208:72,1,105.000000298023,0|8,0:0|0:0,0:0:0:0:
72,144,159242,1,0,0:0:0:0:
160,264,159417,1,0,0:0:0:0:
64,320,159591,1,0,0:0:0:0:
208,328,159765,1,8,0:0:0:0:
88,232,159939,1,0,0:0:0:0:
200,192,160114,5,0,0:0:0:0:
376,200,160288,1,0,0:0:0:0:
384,304,160462,2,0,L|480:232,1,105.000000298023,8|0,0:0|0:0,0:0:0:0:
360,80,160811,2,0,L|448:152,1,105.000000298023,8|0,0:0|0:0,0:0:0:0:
56,160,161159,2,0,L|136:72,1,105.000000298023,8|0,0:0|0:0,0:0:0:0:
304,320,161508,2,0,L|208:264,1,105.000000298023,8|0,0:0|0:0,0:0:0:0:
432,192,161856,5,8,0:0:0:0:
200,88,162031,2,0,L|296:144,1,105.000000298023,0|0,0:0|0:0,0:0:0:0:
72,72,162379,1,0,0:0:0:0:
200,192,162553,2,0,L|352:192,1,105.000000298023,8|0,0:0|0:0,0:0:0:0:
456,280,162902,2,0,L|336:280,1,105.000000298023
112,296,163250,5,8,0:0:0:0:
240,296,163425,1,0,0:0:0:0:
384,200,163599,2,0,L|296:112,1,105.000000298023
88,160,163948,2,0,L|192:72,1,105.000000298023,8|0,0:0|0:0,0:0:0:0:
376,40,164296,2,0,L|280:136,1,105.000000298023
112,104,164645,2,0,L|208:192,1,105.000000298023,8|0,0:0|0:0,0:0:0:0:
256,264,164993,5,0,0:0:0:0:
384,216,165167,2,0,L|472:144,1,105.000000298023,0|8,0:0|0:0,0:0:0:0:
120,192,165516,2,0,L|40:112,1,105.000000298023,0|0,0:0|0:0,0:0:0:0:
104,288,165865,2,0,L|192:216,1,105.000000298023,0|8,0:0|0:0,0:0:0:0:
336,296,166213,2,0,L|256:200,1,105.000000298023
400,200,166562,5,0,0:0:0:0:
400,104,166736,1,8,0:0:0:0:
80,128,166910,2,0,L|168:56,1,105.000000298023
280,224,167259,2,0,L|280:104,1,105.000000298023,0|8,0:0|0:0,0:0:0:0:
96,288,167607,1,0,0:0:0:0:
416,296,167781,1,0,0:0:0:0:
352,208,167956,5,0,0:0:0:0:
256,80,168130,1,0,0:0:0:0:
176,216,168304,1,0,0:0:0:0:
456,216,168479,1,4,0:0:0:0:
