osu file format v14

[General]
AudioFilename: Park_Shin_Hye-Lovely_Day.mp3
AudioLeadIn: 0
PreviewTime: 45650
Countdown: 0
SampleSet: Soft
StackLeniency: 0.7
Mode: 0
LetterboxInBreaks: 0
WidescreenStoryboard: 1

[Editor]
DistanceSpacing: 1.5
BeatDivisor: 4
GridSize: 4
TimelineZoom: 1.8

[Metadata]
Title:Lovely Day
TitleUnicode:Lovely Day
Artist:Park Shin Hye
ArtistUnicode:박신혜
Creator:WORSTPOLACKEU
Version:Saranghae, Jagiya!
Source:미남이시네요
Tags:Go Mi Nam 고미남 Minamisineyo A.N.Jell Angel Beautiful Kdrama K-drama K-pop Kpop Kyshiro Cinia Pacifica Aia
BeatmapID:858703
BeatmapSetID:394567

[Difficulty]
HPDrainRate:5
CircleSize:4
OverallDifficulty:7
ApproachRate:8
SliderMultiplier:1.4
SliderTickRate:1

[Events]
//Background and Video events
0,0,"tumblr_ntq8hf34AL1siqvhio1_1280.jpg",0,0
//Break Periods
//Storyboard Layer 0 (Background)
//Storyboard Layer 1 (Fail)
//Storyboard Layer 2 (Pass)
//Storyboard Layer 3 (Foreground)
Sprite,Foreground,Centre,"Emma.png",320,240 M,0,93122,,412,212 R,0,93122,,0.2327271 F,1,93122,95012,0,1 S,1,93122,95012,0.1,0.6701818 F,0,95012,96902,1 S,0,95012,96902,0.6701818 F,0,96902,98791,1,0
Sprite,Foreground,Centre,"korean.png",320,240 M,0,93122,,200,369 S,0,93122,,0.36 R,0,93122,,0.3258185 F,1,93122,94539,0,1 F,0,94539,96902,1 F,0,96902,98791,1,0
//Storyboard Sound Samples

[TimingPoints]
2414,472.44094488189,4,2,2,20,1,0
17532,-100,4,2,2,30,0,0
30996,-100,4,2,1,30,0,0
40209,-80,4,2,1,50,0,0
47768,-86.9565217391304,4,2,1,40,0,1
62886,-50,4,2,1,40,0,1
63358,-86.9565217391304,4,2,1,40,0,1
78004,-86.9565217391304,4,2,1,40,0,0
93122,-133.333333333333,4,2,1,40,0,0
93595,-133.333333333333,4,2,1,35,0,0
94067,-133.333333333333,4,2,1,30,0,0
94539,-133.333333333333,4,2,1,25,0,0
95012,-133.333333333333,4,2,1,20,0,0
95484,-133.333333333333,4,2,1,15,0,0
95957,-133.333333333333,4,2,1,10,0,0
96429,-133.333333333333,4,2,1,5,0,0

[Colours]
Combo1 : 216,202,255
Combo2 : 147,201,255
Combo3 : 247,183,249
Combo4 : 249,172,174

[HitObjects]
105,121,2414,6,0,P|185:113|239:154,1,140,4|0,0:0|0:0,0:0:0:0:
155,207,3123,1,2,1:2:0:0:
320,245,3359,2,0,L|250:238,1,70
108,305,3831,2,0,L|177:298,1,70,2|0,0:0|0:0,0:0:0:0:
15,192,4304,6,0,L|160:207,1,140,0|0,1:0|0:0,0:0:0:0:
288,133,5012,2,0,P|300:88|297:60,1,70,2|0,1:2|0:0,0:0:0:0:
254,228,5485,2,0,P|253:262|264:295,1,70,0|2,0:0|0:0,0:0:0:0:
355,215,5957,1,0,0:0:0:0:
184,151,6193,6,0,L|41:159,1,140,0|0,1:0|0:0,0:0:0:0:
198,262,6902,2,0,B|231:278|299:295|299:228|366:245|400:262,1,210,2|2,1:2|0:0,0:0:0:0:
348,336,7847,2,0,L|344:380,3,23.3333333333333,0|0|0|0,0:0|0:0|0:0|1:0,0:0:0:0:
470,331,8319,5,0,0:0:0:0:
400,261,8556,1,0,0:0:0:0:
476,198,8792,2,0,P|488:134|448:52,1,140,2|0,1:2|0:0,0:0:0:0:
400,261,9501,2,0,P|398:313|412:348,1,70,2|0,0:0|0:0,0:0:0:0:
329,185,9973,6,0,P|244:177|177:207,1,140,0|0,1:0|0:0,0:0:0:0:
126,266,10682,1,2,1:2:0:0:
43,212,10918,2,0,L|31:136,1,70
98,70,11390,1,2,0:0:0:0:
98,70,11863,6,0,P|128:132|114:210,1,140,0|0,1:0|0:0,0:0:0:0:
214,311,12571,2,0,P|204:242|234:180,1,140,2|0,1:2|0:0,0:0:0:0:
366,169,13280,2,0,L|444:174,1,70,2|0,0:0|0:0,0:0:0:0:
294,108,13753,5,0,1:0:0:0:
307,242,13989,1,0,0:0:0:0:
366,169,14225,1,0,0:0:0:0:
200,184,14461,2,0,L|52:171,1,140,2|0,1:2|0:0,0:0:0:0:
307,242,15170,2,0,L|379:237,1,70,2|0,0:0|0:0,0:0:0:0:
484,285,15642,5,0,1:0:0:0:
471,132,15879,2,0,P|457:178|457:214,2,70,0|2|2,0:0|0:0|1:2,0:0:0:0:
347,41,16587,2,0,P|361:87|361:123,1,70,2|8,0:0|3:3,0:0:0:0:
291,190,17059,1,12,3:3:0:0:
291,190,17532,6,0,P|216:201|139:183,1,140,4|0,0:0|0:0,0:0:0:0:
80,112,18241,1,2,1:2:0:0:
48,208,18477,2,0,L|64:288,1,70
216,268,18949,2,0,P|185:251|150:247,1,70,10|0,0:2|0:0,0:0:0:0:
244,352,19422,6,0,L|396:336,1,140,0|0,1:0|0:0,0:0:0:0:
452,220,20130,2,0,P|456:185|448:152,1,70,2|0,1:2|0:0,0:0:0:0:
340,136,20603,2,0,P|332:84|340:56,1,70,0|10,0:0|0:0,0:0:0:0:
504,80,21075,1,0,0:0:0:0:
346,235,21312,6,0,P|273:215|202:242,1,140,0|0,1:0|0:0,0:0:0:0:
48,40,22020,2,0,B|122:73|190:41|190:41|218:65|258:73,1,210,2|10,1:2|0:0,0:0:0:0:
104,168,22965,2,0,L|100:208,3,23.3333333333333,0|0|0|0,0:0|0:0|0:0|1:0,0:0:0:0:
150,299,23438,5,0,0:0:0:0:
62,339,23674,1,0,0:0:0:0:
16,252,23910,1,2,1:2:0:0:
219,298,24146,2,0,P|185:295|150:299,1,70
316,352,24619,2,0,P|350:354|385:350,1,70,10|0,0:0|0:0,0:0:0:0:
472,224,25091,6,0,L|449:85,1,140,0|0,1:0|0:0,0:0:0:0:
376,196,25800,2,0,L|386:265,2,70,2|0|0,1:2|0:0|0:0,0:0:0:0:
194,146,26508,2,0,P|138:134|102:142,1,70,10|0,0:0|0:0,0:0:0:0:
56,316,26981,6,0,P|116:348|213:322,1,140,0|0,1:0|0:0,0:0:0:0:
132,232,27690,2,0,P|71:199|2:207,1,140,2|0,1:2|0:0,0:0:0:0:
194,146,28398,2,0,L|264:156,1,70,10|0,0:0|0:0,0:0:0:0:
440,44,28871,6,0,P|424:84|442:135,1,70,0|0,1:0|0:0,0:0:0:0:
480,200,29343,1,0,0:0:0:0:
412,272,29579,2,0,P|348:252|268:268,1,140,2|0,1:2|0:0,0:0:0:0:
136,352,30288,2,2,L|44:320,1,70,10|0,0:0|0:0,0:0:0:0:
44,112,30760,5,8,2:0:0:0:
136,240,30997,1,0,1:0:0:0:
136,240,31232,2,0,P|172:224|212:228,1,70,0|0,1:0|0:0,0:0:0:0:
276,180,31587,2,2,L|287:147,1,35,2|2,1:2|1:2,2:0:0:0:
292,336,31941,1,4,3:3:0:0:
292,336,32059,1,0,3:0:0:0:
292,336,32177,1,8,3:0:0:0:
420,272,32414,1,4,1:0:0:0:
356,64,32650,6,0,P|315:83|272:78,1,70,4|0,2:0|0:0,0:0:0:0:
144,68,33123,1,0,0:0:0:0:
60,120,33359,2,0,P|113:162|182:159,1,140,0|10,1:0|0:0,0:0:0:0:
452,264,34303,6,0,P|399:222|330:225,1,140,0|2,1:0|0:0,0:0:0:0:
360,372,35012,2,0,L|371:299,1,70
400,92,35484,1,0,0:0:0:0:
48,136,35957,1,0,0:0:0:0:
96,264,36193,1,0,0:0:0:0:
48,136,36430,6,0,P|39:101|12:52,1,70,0|0,1:0|0:0,0:0:0:0:
188,188,36902,1,0,0:0:0:0:
188,188,37138,2,0,P|197:223|224:272,1,70,0|0,1:0|0:0,0:0:0:0:
336,124,37611,2,0,P|327:89|300:40,1,70,10|0,0:0|0:0,0:0:0:0:
184,56,38083,1,0,0:0:0:0:
288,224,38319,2,0,L|261:378,1,140
84,172,39028,5,0,1:0:0:0:
184,56,39264,2,0,P|179:95|186:138,1,70,2|0,0:0|1:0,0:0:0:0:
56,72,39737,1,8,0:0:0:0:
397,268,40209,6,0,P|320:232|218:252,1,175,4|8,0:0|0:0,0:0:0:0:
60,128,40917,2,0,P|137:164|239:144,1,175,0|0,1:0|0:0,0:0:0:0:
320,52,41627,1,8,0:0:0:0:
320,52,41863,1,0,0:0:0:0:
448,264,42099,6,0,P|409:175|424:97,1,175,0|8,1:0|0:0,0:0:0:0:
264,188,42807,2,0,P|302:276|287:354,1,175,2|0,1:2|0:0,0:0:0:0:
144,288,43516,1,8,0:0:0:0:
56,96,43753,1,0,0:0:0:0:
240,212,43989,6,0,L|260:120,1,87.5,4|0,0:0|0:0,0:0:0:0:
396,108,44461,1,8,0:0:0:0:
352,308,44697,6,0,L|372:216,1,87.5,2|0,1:2|0:0,0:0:0:0:
496,188,45169,1,0,0:0:0:0:
344,344,45406,1,10,0:0:0:0:
396,108,45642,6,0,P|328:64|224:72,1,175,4|0,0:0|0:0,0:0:0:0:
140,208,46351,1,8,3:0:0:0:
92,80,46587,1,8,3:0:0:0:
88,276,46823,1,2,3:0:0:0:
144,20,47060,1,2,3:0:0:0:
144,20,47178,1,2,3:0:0:0:
144,20,47296,1,12,0:0:0:0:
208,312,47532,1,0,0:0:0:0:
464,232,47768,6,0,P|392:220|300:244,1,161.000003070831,4|8,0:0|0:0,0:0:0:0:
332,104,48477,1,0,1:0:0:0:
196,160,48713,2,0,L|112:168,1,80.5000015354157,0|0,0:0|1:0,0:0:0:0:
16,88,49186,1,8,0:0:0:0:
64,288,49422,6,0,P|128:268|232:280,1,161.000003070831
356,200,50130,1,8,0:0:0:0:
324,320,50367,1,0,1:0:0:0:
468,164,50603,2,0,L|444:64,1,80.5000015354157,0|0,0:0|1:0,0:0:0:0:
252,148,51075,1,8,0:0:0:0:
324,320,51312,6,0,P|260:284|172:292,1,161.000003070831
80,224,52020,2,0,L|-16:240,1,80.5000015354157,8|0,0:0|1:0,0:0:0:0:
175,290,52493,1,0,0:0:0:0:
240,68,52729,2,0,P|280:44|336:48,1,80.5000015354157,0|8,1:0|0:0,0:0:0:0:
484,184,53201,6,0,P|396:204|328:188,1,161.000003070831
204,248,53910,2,0,L|96:232,1,80.5000015354157,8|0,0:0|1:0,0:0:0:0:
240,68,54382,1,0,0:0:0:0:
300,188,54619,1,0,1:0:0:0:
232,40,54855,1,8,0:0:0:0:
136,300,55091,6,0,P|196:284|304:308,1,161.000003070831
116,216,55799,1,8,0:0:0:0:
48,324,56036,1,0,1:0:0:0:
8,152,56272,2,0,P|4:196|28:240,1,80.5000015354157,0|0,0:0|1:0,0:0:0:0:
148,156,56745,1,8,0:0:0:0:
80,68,56981,6,0,P|140:112|224:108,1,161.000003070831
340,48,57690,1,8,0:0:0:0:
324,280,57926,2,0,P|336:229|331:173,1,80.5000015354157,0|0,1:0|0:0,0:0:0:0:
446,58,58398,2,0,P|433:108|438:164,1,80.5000015354157,0|8,1:0|0:0,0:0:0:0:
440,248,58871,1,0,0:0:0:0:
236,140,59106,6,0,P|164:164|72:140,1,161.000003070831,4|8,0:0|0:0,0:0:0:0:
230,289,59815,2,0,P|307:271|383:295,1,161.000003070831,4|0,0:0|0:0,0:0:0:0:
304,364,60524,1,8,0:0:0:0:
344,150,60760,1,0,0:0:0:0:
352,111,60878,1,0,0:0:0:0:
360,72,60996,6,0,L|376:152,1,80.5000015354157,4|0,1:0|0:0,0:0:0:0:
436,20,61469,1,8,0:0:0:0:
232,144,61705,2,0,P|165:130|144:116,1,80.5000015354157,0|0,1:0|0:0,0:0:0:0:
40,216,62178,2,0,P|106:229|127:243,1,80.5000015354157,2|8,1:2|0:0,0:0:0:0:
260,348,62650,1,0,0:0:0:0:
376,96,62886,6,0,B|348:70|362:42|382:27|404:28|409:49|413:65|413:65|438:38|466:45|483:69|467:103|459:104|438:112|404:119|399:147|412:182,1,280,4|0,0:0|0:0,0:0:0:0:
240,108,63595,1,0,1:0:0:0:
220,272,63831,1,0,0:0:0:0:
164,188,64067,1,0,1:0:0:0:
184,352,64303,1,8,0:0:0:0:
476,264,64540,6,0,P|432:240|320:240,1,161.000003070831
176,272,65249,2,0,L|92:260,1,80.5000015354157,8|0,0:0|1:0,0:0:0:0:
260,148,65721,2,0,L|344:136,1,80.5000015354157,0|0,0:0|1:0,0:0:0:0:
452,192,66193,1,8,0:0:0:0:
288,40,66430,6,0,P|216:68|120:56,1,161.000003070831
48,136,67138,1,8,0:0:0:0:
132,212,67375,1,0,1:0:0:0:
44,280,67611,2,0,L|29:359,1,80.5000015354157,0|0,0:0|1:0,0:0:0:0:
184,304,68083,1,8,0:0:0:0:
268,208,68319,6,0,P|308:192|347:194,1,80.5000015354157,0|0,0:0|1:0,0:0:0:0:
444,248,68792,1,0,0:0:0:0:
344,300,69028,1,8,0:0:0:0:
448,144,69264,2,0,L|428:56,1,80.5000015354157,0|0,1:0|0:0,0:0:0:0:
244,20,69737,2,0,L|264:108,1,80.5000015354157,0|8,1:0|0:0,0:0:0:0:
129,238,70209,1,2,0:0:0:0:
120,198,70327,1,2,0:0:0:0:
111,159,70445,6,0,P|100:220|40:304,1,161.000003070831,4|8,0:0|0:0,0:0:0:0:
196,220,71154,1,0,1:0:0:0:
328,268,71390,2,0,P|376:244|432:244,1,80.5000015354157,0|0,0:0|1:0,0:0:0:0:
288,176,71863,1,8,0:0:0:0:
240,308,72099,1,0,0:0:0:0:
112,248,72335,6,0,P|52:268|0:268,1,80.5000015354157,0|0,1:0|0:0,0:0:0:0:
160,128,72807,1,8,0:0:0:0:
288,176,73044,2,0,P|348:196|400:196,1,80.5000015354157,0|0,1:0|0:0,0:0:0:0:
240,104,73516,1,0,1:0:0:0:
215,271,73753,1,8,0:0:0:0:
180,48,73989,1,0,0:0:0:0:
60,276,74225,6,0,P|144:256|216:272,1,161.000003070831,4|0,0:0|0:0,0:0:0:0:
460,140,74934,2,0,P|376:160|304:144,1,161.000003070831,4|0,0:0|0:0,0:0:0:0:
208,60,75642,1,8,0:0:0:0:
252,236,75878,1,0,0:0:0:0:
213,247,75996,1,0,0:0:0:0:
173,242,76114,1,0,0:0:0:0:
208,60,76351,1,8,0:0:0:0:
48,96,76587,1,8,0:0:0:0:
228,144,76823,2,0,P|272:120|320:120,1,80.5000015354157,4|0,0:0|0:0,0:0:0:0:
432,256,77296,5,2,0:0:0:0:
397,226,77414,1,0,0:0:0:0:
414,185,77532,1,10,0:0:0:0:
458,189,77650,1,0,0:0:0:0:
469,232,77768,1,2,0:0:0:0:
296,328,78004,1,4,0:0:0:0:
244,80,78477,6,0,L|160:64,1,80.5000015354157,8|0,0:0|1:0,0:0:0:0:
52,260,78949,1,2,0:0:0:0:
64,148,79186,1,2,1:2:0:0:
136,320,79421,1,8,0:0:0:0:
64,148,79658,6,0,P|128:184|216:176,1,161.000003070831,2|0,0:0|0:0,0:0:0:0:
308,244,80366,2,0,L|404:228,1,80.5000015354157,8|0,0:0|1:0,0:0:0:0:
192,260,80839,1,2,0:0:0:0:
280,160,81076,1,2,1:2:0:0:
120,216,81312,1,8,0:0:0:0:
364,312,81548,6,0,P|348:252|372:144,1,161.000003070831,2|0,0:0|0:0,0:0:0:0:
460,187,82256,2,0,P|464:144|436:88,1,80.5000015354157,8|0,0:0|1:0,0:0:0:0:
296,44,82729,1,2,0:0:0:0:
180,72,82965,1,2,1:2:0:0:
72,32,83201,1,8,0:0:0:0:
176,184,83437,6,0,P|136:160|80:156,1,80.5000015354157,2|0,0:0|1:0,0:0:0:0:
312,160,83910,2,0,P|352:137|384:90,1,80.5000015354157,2|8,0:0|0:0,0:0:0:0:
256,252,84382,2,0,P|255:298|279:349,1,80.5000015354157,2|0,1:2|0:0,0:0:0:0:
240,144,84855,1,0,1:0:0:0:
368,244,85091,2,0,L|472:252,1,80.5000015354157,10|0,0:0|0:0,0:0:0:0:
304,68,85563,6,0,P|220:84|144:56,1,161.000003070831,6|8,0:0|0:0,0:0:0:0:
140,252,86272,1,0,1:0:0:0:
36,144,86508,2,0,L|44:232,1,80.5000015354157,2|2,0:0|1:2,0:0:0:0:
72,332,86980,1,8,0:0:0:0:
248,224,87217,6,0,P|308:240|216:272,1,241.500004606247,2|8,0:0|0:0,0:0:0:0:
392,212,88162,2,0,L|400:120,1,80.5000015354157,0|2,1:0|0:0,0:0:0:0:
480,48,88634,1,2,1:2:0:0:
500,168,88871,1,8,0:0:0:0:
288,76,89106,6,0,P|224:108|128:84,1,161.000003070831,2|0,0:0|0:0,0:0:0:0:
64,304,89815,1,8,0:0:0:0:
316,175,90051,2,0,P|378:138|470:168,1,161.000003070831,6|0,0:0|0:0,0:0:0:0:
396,240,90760,1,8,0:0:0:0:
216,112,90996,2,0,L|137:93,1,80.5000015354157,2|0,0:0|0:0,0:0:0:0:
48,184,91469,6,2,L|82:207,3,40.2500007677078,10|2|10|2,0:0|0:0|0:0|0:0,0:0:0:0:
84,292,91941,2,2,L|118:315,3,40.2500007677078,2|2|2|2,1:2|0:0|1:2|0:0,0:0:0:0:
180,220,92414,2,2,L|214:243,3,40.2500007677078,2|2|2|2,1:2|0:0|1:2|0:0,0:0:0:0:
200,332,92886,2,2,L|234:355,1,40.2500007677078
316,340,93122,6,0,B|343:277|376:250|422:229|478:220|501:218|545:121|497:52|419:32|365:89|365:89|357:63|322:5|259:2|203:44|163:124|237:167|281:214|262:272,1,840,4|0,0:0|0:0,0:0:0:0:
