osu file format v14

[General]
AudioFilename: Park_Shin_Hye-Lovely_Day.mp3
AudioLeadIn: 0
PreviewTime: 45650
Countdown: 0
SampleSet: Soft
StackLeniency: 0.8
Mode: 0
LetterboxInBreaks: 0
WidescreenStoryboard: 1

[Editor]
Bookmarks: 49658
DistanceSpacing: 1.5
BeatDivisor: 4
GridSize: 4
TimelineZoom: 1.3

[Metadata]
Title:Lovely Day
TitleUnicode:Lovely Day
Artist:Park Shin Hye
ArtistUnicode:박신혜
Creator:WORSTPOLACKEU
Version:Hard
Source:미남이시네요
Tags:Go Mi Nam 고미남 Minamisineyo A.N.Jell Angel Beautiful Kdrama K-drama K-pop Kpop Kyshiro Cinia Pacifica Aia
BeatmapID:862900
BeatmapSetID:394567

[Difficulty]
HPDrainRate:4
CircleSize:3.5
OverallDifficulty:5
ApproachRate:6.5
SliderMultiplier:1.3
SliderTickRate:1

[Events]
//Background and Video events
0,0,"tumblr_ntq8hf34AL1siqvhio1_1280.jpg",0,0
//Break Periods
//Storyboard Layer 0 (Background)
//Storyboard Layer 1 (Fail)
//Storyboard Layer 2 (Pass)
//Storyboard Layer 3 (Foreground)
Sprite,Foreground,Centre,"Emma.png",320,240 M,0,93122,,191,206 R,0,93122,,-0.2094549 F,1,93122,95012,0,1 S,1,93122,95012,0.1,0.6294546 F,0,95012,96902,1 S,0,95012,96902,0.6294546 F,0,96902,98791,1,0
Sprite,Foreground,Centre,"korean.png",320,240 M,0,93122,,439,365 S,0,93122,,0.36 R,0,93122,,-0.2909088 F,1,93122,94539,0,1 F,0,94539,96902,1 F,0,96902,98791,1,0
//Storyboard Sound Samples

[TimingPoints]
2414,472.44094488189,4,2,2,20,1,0
17532,-100,4,2,2,30,0,0
30996,-100,4,2,1,30,0,0
40209,-80,4,2,1,50,0,0
47768,-86.9565217391304,4,2,1,40,0,1
78004,-86.9565217391304,4,2,1,40,0,0
93122,-133.333333333333,4,2,1,40,0,0
93595,-133.333333333333,4,2,1,35,0,0
94067,-133.333333333333,4,2,1,30,0,0
94539,-133.333333333333,4,2,1,25,0,0
95012,-133.333333333333,4,2,1,20,0,0
95484,-133.333333333333,4,2,1,15,0,0
95957,-133.333333333333,4,2,1,10,0,0
96429,-133.333333333333,4,2,1,5,0,0

[Colours]
Combo1 : 216,202,255
Combo2 : 147,201,255
Combo3 : 247,183,249
Combo4 : 249,172,174

[HitObjects]
91,100,2413,6,0,B|132:40|215:140|276:88,1,195,4|0,0:0|0:0,0:0:0:0:
364,56,3358,2,0,L|372:132,1,65,0|0,0:0|0:0,0:0:0:0:
468,136,3831,2,0,L|476:212,1,65,2|0,0:0|0:0,0:0:0:0:
364,268,4303,6,0,P|256:256|168:324,1,195,0|2,1:0|1:2,0:0:0:0:
56,152,5484,2,0,L|46:87,1,65,0|2,0:0|0:0,0:0:0:0:
128,36,5957,1,0,0:0:0:0:
184,176,6193,6,0,B|208:220|208:220|200:308|200:308,1,130,0|0,1:0|0:0,0:0:0:0:
288,260,6902,2,0,B|296:180|296:180|244:124|263:61|263:61,1,195,2|2,1:2|0:0,0:0:0:0:
392,88,7847,1,0,0:0:0:0:
436,176,8083,6,0,L|446:260|446:260,2,65,0|0|0,1:0|0:0|0:0,0:0:0:0:
392,88,8791,1,2,1:2:0:0:
300,120,9028,2,0,P|252:128|208:120,1,65,0|0,0:0|0:0,0:0:0:0:
115,50,9500,2,0,P|147:43|180:44,1,65,2|0,0:0|0:0,0:0:0:0:
132,160,9973,6,0,L|120:296,1,130,0|0,1:0|0:0,0:0:0:0:
208,328,10681,2,0,P|264:308|348:324,1,130,2|0,1:2|0:0,0:0:0:0:
416,268,11390,1,2,0:0:0:0:
416,268,11626,1,0,0:0:0:0:
340,208,11862,6,0,L|352:72,1,130,0|0,1:0|0:0,0:0:0:0:
264,40,12571,2,0,P|208:60|124:44,2,130,2|0|0,1:2|0:0|0:0,0:0:0:0:
276,136,13752,6,0,P|232:176|224:252,1,130,0|0,1:0|0:0,0:0:0:0:
316,224,14461,2,0,L|388:208,1,65,2|0,1:2|0:0,0:0:0:0:
364,320,14933,2,0,L|292:336,1,65,0|2,0:0|0:0,0:0:0:0:
208,296,15406,1,0,0:0:0:0:
116,336,15642,6,0,P|48:280|132:276,2,195,0|2|12,1:0|1:2|3:3,0:0:0:0:
80,92,17532,6,0,P|136:140|256:96,1,195,4|2,0:0|1:2,0:0:0:0:
336,76,18476,2,0,L|416:60,1,65,0|0,0:0|0:0,0:0:0:0:
384,160,18949,2,0,L|304:176,1,65,10|0,0:2|0:0,0:0:0:0:
288,264,19421,6,0,P|232:256|152:288,1,130,0|0,1:0|0:0,0:0:0:0:
92,212,20130,2,0,L|79:148,1,65,2|0,1:2|0:0,0:0:0:0:
156,88,20603,2,0,L|168:151,1,65,0|10,0:0|0:0,0:0:0:0:
256,192,21075,1,0,0:0:0:0:
344,236,21311,6,0,P|272:240|216:288,1,130,0|0,1:0|0:0,0:0:0:0:
308,324,22020,2,0,P|412:304|440:216,1,195,2|10,1:2|0:0,0:0:0:0:
436,132,22965,1,0,0:0:0:0:
368,64,23201,6,0,P|396:40|448:44,2,65,0|0|0,1:0|0:0|0:0,0:0:0:0:
340,160,23910,1,2,1:2:0:0:
256,120,24146,2,0,L|192:92,1,65,0|0,0:0|0:0,0:0:0:0:
120,156,24618,2,0,L|28:172,1,65,10|0,0:0|0:0,0:0:0:0:
96,280,25091,6,0,P|152:264|236:276,1,130,0|0,1:0|0:0,0:0:0:0:
312,312,25799,2,0,L|292:168,1,130,2|0,1:2|0:0,0:0:0:0:
376,132,26508,2,0,L|367:67,1,65,10|0,0:0|0:0,0:0:0:0:
468,160,26980,6,0,P|448:216|468:296,1,130,0|0,1:0|0:0,0:0:0:0:
380,340,27689,2,0,L|248:304,1,130,2|0,1:2|0:0,0:0:0:0:
160,324,28398,2,0,L|144:252,1,65,10|0,0:0|0:0,0:0:0:0:
224,103,28870,5,0,1:0:0:0:
208,200,29106,1,0,0:0:0:0:
132,136,29343,1,0,0:0:0:0:
224,103,29579,2,0,P|272:124|372:112,1,130,2|0,1:2|0:0,0:0:0:0:
424,184,30288,2,0,L|400:268,1,65,10|0,0:0|0:0,0:0:0:0:
464,324,30760,5,0,1:0:0:0:
256,192,30996,12,8,32177,3:0:0:0:
144,92,32650,6,0,P|124:160|168:232,1,130,4|0,2:0|0:0,0:0:0:0:
220,152,33358,2,0,L|304:140,1,65,0|0,1:0|0:0,0:0:0:0:
432,182,33831,2,0,L|368:192,1,65,10|0,0:0|0:0,0:0:0:0:
304,264,34303,1,0,0:0:0:0:
304,264,34539,6,0,P|252:244|168:252,1,130,0|0,1:0|0:0,0:0:0:0:
108,316,35248,1,0,1:0:0:0:
80,224,35484,2,0,L|60:80,1,130,2|8,0:0|0:0,0:0:0:0:
144,44,36193,1,0,0:0:0:0:
200,124,36429,6,0,P|256:96|336:124,1,130,0|0,1:0|0:0,0:0:0:0:
388,180,37138,2,0,P|332:208|252:180,2,130,0|10|0,1:0|0:0|0:0,0:0:0:0:
440,96,38319,5,0,1:0:0:0:
496,176,38555,2,0,L|476:256,1,65,0|0,0:0|0:0,0:0:0:0:
400,296,39028,1,0,1:0:0:0:
320,240,39264,2,0,P|276:220|236:228,1,65,2|0,0:0|1:0,0:0:0:0:
192,288,39736,2,0,L|88:264,1,97.5,8|0,0:0|0:0,0:0:0:0:
60,316,40209,6,0,L|48:144,1,162.5,4|8,0:0|0:0,0:0:0:0:
48,36,40917,2,0,P|92:60|220:64,1,162.5,0|0,1:0|0:0,0:0:0:0:
312,16,41626,2,0,L|318:113,1,81.25,8|0,0:0|0:0,0:0:0:0:
408,180,42099,6,0,P|344:216|232:184,1,162.5,0|8,1:0|0:0,0:0:0:0:
152,144,42807,2,0,P|138:222|175:293,1,162.5,2|0,1:2|0:0,0:0:0:0:
296,348,43516,2,0,L|376:336,1,81.25,8|0,0:0|0:0,0:0:0:0:
456,244,43988,6,0,L|444:160,1,81.25,4|0,0:0|0:0,0:0:0:0:
428,44,44461,1,8,0:0:0:0:
340,208,44697,2,0,L|328:124,1,81.25,2|0,1:2|0:0,0:0:0:0:
312,8,45170,1,0,0:0:0:0:
216,84,45406,1,10,0:0:0:0:
228,204,45642,6,0,B|195:260|211:322|211:322|175:286,1,162.5,4|0,0:0|0:0,0:0:0:0:
96,220,46351,2,0,P|96:172|112:128,1,81.25,8|8,3:0|3:0,0:0:0:0:
196,56,46823,2,0,L|276:44,1,81.25,2|2,3:0|3:0,0:0:0:0:
392,84,47295,2,0,P|432:104|488:104,1,81.25,12|0,0:0|0:0,0:0:0:0:
424,224,47768,6,0,P|368:212|264:232,1,149.500002851486,4|8,0:0|0:0,0:0:0:0:
200,308,48476,2,0,P|187:224|176:140,1,149.500002851486,0|0,1:0|1:0,0:0:0:0:
68,132,49185,2,0,L|82:235,1,74.7500014257431,8|0,0:0|0:0,0:0:0:0:
136,48,49658,6,0,P|209:35|282:49,1,149.500002851486,0|8,1:0|0:0,0:0:0:0:
344,143,50366,1,0,1:0:0:0:
452,112,50602,2,0,L|440:200,1,74.7500014257431,0|0,0:0|1:0,0:0:0:0:
424,296,51075,1,8,0:0:0:0:
320,256,51311,6,0,P|264:284|160:276,1,149.500002851486
88,216,52020,2,0,L|52:132,1,74.7500014257431,8|0,0:0|1:0,0:0:0:0:
172,144,52492,2,0,L|180:56,2,74.7500014257431,0|0|8,0:0|1:0|0:0,0:0:0:0:
280,172,53201,6,0,P|340:136|436:152,1,149.500002851486,0|0,0:0|0:0,0:0:0:0:
368,244,53910,2,0,L|384:324,1,74.7500014257431,8|0,0:0|1:0,0:0:0:0:
212,308,54382,2,0,L|132:296,1,74.7500014257431,0|0,0:0|1:0,0:0:0:0:
92,196,54854,2,0,L|18:184,1,74.7500014257431,8|0,0:0|0:0,0:0:0:0:
156,104,55327,6,0,P|216:124|304:108,1,149.500002851486,0|8,1:0|0:0,0:0:0:0:
396,52,56036,2,0,L|381:200,1,149.500002851486,0|0,1:0|1:0,0:0:0:0:
280,252,56744,2,0,L|292:340,1,74.7500014257431,8|0,0:0|0:0,0:0:0:0:
164,268,57217,6,0,P|144:208|160:120,1,149.500002851486,0|8,1:0|0:0,0:0:0:0:
216,28,57926,2,0,L|67:42,1,149.500002851486,0|0,1:0|1:0,0:0:0:0:
24,144,58634,2,0,L|15:218,1,74.7500014257431,8|0,0:0|0:0,0:0:0:0:
184,352,59106,6,0,P|252:324|340:352,1,149.500002851486,4|8,0:0|0:0,0:0:0:0:
408,172,59815,2,0,P|340:200|252:172,1,149.500002851486,4|0,0:0|0:0,0:0:0:0:
184,112,60524,2,0,L|88:100,1,74.7500014257431,8|0,0:0|0:0,0:0:0:0:
304,40,60996,6,0,L|400:52,1,74.7500014257431,4|8,1:0|0:0,0:0:0:0:
464,132,61469,1,8,1:2:0:0:
356,156,61705,2,0,P|344:196|356:228,1,74.7500014257431,4|0,0:0|0:0,0:0:0:0:
380,336,62177,1,0,0:0:0:0:
476,280,62414,2,0,P|488:240|476:208,1,74.7500014257431,10|8,0:0|2:0,0:0:0:0:
380,336,62886,6,0,P|312:316|228:332,1,149.500002851486,4|8,0:0|0:0,0:0:0:0:
148,260,63595,2,0,L|124:100,1,149.500002851486,0|0,0:0|1:0,0:0:0:0:
28,168,64303,2,0,L|44:272,1,74.7500014257431,8|0,0:0|0:0,0:0:0:0:
148,260,64776,6,0,P|180:232|300:220,1,149.500002851486,0|8,1:0|0:0,0:0:0:0:
380,264,65484,2,0,L|396:104,1,149.500002851486,0|0,1:0|1:0,0:0:0:0:
312,40,66193,2,0,P|272:56|224:56,1,74.7500014257431,8|0,0:0|0:0,0:0:0:0:
132,28,66665,6,0,P|164:84|164:188,1,149.500002851486,0|8,1:0|0:0,0:0:0:0:
64,132,67374,2,0,P|66:206|101:271,1,149.500002851486,0|0,1:0|1:0,0:0:0:0:
196,332,68083,2,0,L|292:324,1,74.7500014257431,8|0,0:0|0:0,0:0:0:0:
392,248,68555,6,0,P|412:292|356:260,1,149.500002851486,0|8,1:0|0:0,0:0:0:0:
396,152,69264,2,0,L|412:68,1,74.7500014257431,0|0,1:0|0:0,0:0:0:0:
300,104,69736,2,0,L|293:18,1,74.7500014257431,0|8,1:0|0:0,0:0:0:0:
196,88,70209,2,0,L|176:44,2,37.3750007128716,2|2|4,0:0|0:0|0:0,0:0:0:0:
104,324,70917,6,0,L|192:296,1,74.7500014257431,8|0,0:0|1:0,0:0:0:0:
284,336,71390,1,0,0:0:0:0:
264,224,71626,1,0,1:0:0:0:
364,276,71862,1,8,0:0:0:0:
444,200,72099,6,0,L|450:116,1,74.7500014257431,0|0,0:0|1:0,0:0:0:0:
340,93,72571,2,0,L|348:168,1,74.7500014257431,0|8,0:0|0:0,0:0:0:0:
236,140,73043,2,0,L|242:55,1,74.7500014257431,0|0,1:0|0:0,0:0:0:0:
131,32,73515,2,0,L|139:107,1,74.7500014257431,0|8,1:0|0:0,0:0:0:0:
28,96,73988,1,0,0:0:0:0:
120,208,74225,6,0,P|196:188|280:216,1,149.500002851486,4|0,0:0|0:0,0:0:0:0:
454,312,74933,2,0,P|385:336|316:312,1,149.500002851486,4|0,0:0|0:0,0:0:0:0:
384,216,75642,2,0,L|376:124,1,74.7500014257431,8|0,0:0|0:0,0:0:0:0:
244,52,76114,6,0,P|192:68|152:64,1,74.7500014257431,4|8,1:0|0:0,0:0:0:0:
60,48,76587,1,0,1:0:0:0:
12,152,76823,2,0,L|28:260,1,74.7500014257431,4|0,0:0|0:0,0:0:0:0:
116,288,77295,1,0,0:0:0:0:
280,235,77532,2,0,P|245:223|208:224,1,74.7500014257431,10|0,0:0|0:0,0:0:0:0:
92,116,78004,6,0,P|148:128|252:108,1,149.500002851486,4|8,0:0|0:0,0:0:0:0:
316,32,78712,2,0,L|340:200,1,149.500002851486,0|2,0:0|1:2,0:0:0:0:
448,208,79421,2,0,L|434:105,1,74.7500014257431,8|2,0:0|0:0,0:0:0:0:
380,292,79894,6,0,P|307:305|234:291,1,149.500002851486,0|8,0:0|0:0,0:0:0:0:
172,197,80602,1,0,1:0:0:0:
64,228,80838,2,0,L|76:140,1,74.7500014257431,2|2,0:0|1:2,0:0:0:0:
92,44,81311,1,8,0:0:0:0:
196,84,81547,6,0,P|252:56|356:64,1,149.500002851486,2|0,0:0|0:0,0:0:0:0:
428,124,82256,2,0,L|464:208,1,74.7500014257431,8|0,0:0|1:0,0:0:0:0:
296,256,82728,6,0,L|288:344,2,74.7500014257431,2|2|8,0:0|1:2|0:0,0:0:0:0:
236,168,83437,2,0,P|184:200|84:184,1,149.500002851486,2|2,0:0|0:0,0:0:0:0:
152,100,84146,1,8,0:0:0:0:
240,32,84382,2,0,L|312:68,1,74.7500014257431,2|0,1:2|0:0,0:0:0:0:
444,56,84854,2,0,L|469:132,1,74.7500014257431,0|10,1:0|0:0,0:0:0:0:
436,284,85327,1,0,0:0:0:0:
296,212,85563,6,0,P|236:192|148:208,1,149.500002851486,6|8,0:0|0:0,0:0:0:0:
40,288,86272,2,0,L|55:140,1,149.500002851486,0|2,1:0|1:2,0:0:0:0:
164,80,86980,2,0,L|152:-8,1,74.7500014257431,8|2,0:0|0:0,0:0:0:0:
280,96,87453,6,0,P|300:156|284:244,1,149.500002851486,0|8,1:0|0:0,0:0:0:0:
216,324,88162,2,0,P|264:348|359:317,1,149.500002851486,0|8,2:0|0:0,0:0:0:0:
404,224,88870,1,8,0:0:0:0:
292,84,89106,6,0,P|247:129|305:155,1,149.500002851486,2|0,0:0|0:0,0:0:0:0:
152,128,89815,1,8,0:0:0:0:
168,304,90051,6,0,P|212:258|154:232,1,149.500002851486,4|0,0:0|0:0,0:0:0:0:
324,256,90760,1,8,0:0:0:0:
428,176,90996,2,0,L|448:72,1,74.7500014257431,0|4,0:0|0:0,0:0:0:0:
308,16,91469,5,2,2:0:0:0:
252,112,91705,1,2,2:0:0:0:
304,212,91941,1,2,2:0:0:0:
480,288,92177,2,0,P|444:279|413:297,1,74.7500014257431,2|0,2:0|0:0,0:0:0:0:
328,368,92650,2,0,P|296:385|260:376,1,74.7500014257431,0|0,1:0|0:0,0:0:0:0:
160,324,93122,6,0,B|140:280|108:254|65:234|11:225|-11:223|-53:131|-7:65|67:46|119:100|119:100|127:76|160:21|220:19|273:58|311:134|241:175|199:220|213:265,1,780.00002975464,4|0,0:0|0:0,0:0:0:0:
