osu file format v5

[General]
AudioFilename: 05 Naengmyeon (Park Myung Soo, Jessica, E-Tribe).mp3
AudioLeadIn: 0
PreviewTime: 20901
Countdown: 0
SampleSet: Normal
StackLeniency: 0.7
Mode: 0
LetterboxInBreaks: 1
EditorBookmarks: 21134,52529,80669,126948,155087
EditorDistanceSpacing: 0.800000011920929

[Metadata]
Title:Naengmyeon
Artist:Park Myung Soo & Jessica
Creator:m980
Version:Normal
Source:
Tags:

[Difficulty]
HPDrainRate:4
CircleSize:3
OverallDifficulty:5
SliderMultiplier:1.6
SliderTickRate:2

[Events]
//Background and Video events
0,0,"Naengmyon.jpg"
//Break Periods
2,37620,51336
2,119015,125755
//Storyboard Layer 0 (Background)
//Storyboard Layer 1 (Fail)
//Storyboard Layer 2 (Pass)
//Storyboard Layer 3 (Foreground)
//Storyboard Sound Samples
//Background Colour Transformations
3,100,163,162,255

[TimingPoints]
7653,465.116279069767,4,1,0,100,1,0

[HitObjects]
256,56,21141,1,0
256,192,21606,1,0
256,328,22071,1,4
112,328,22536,2,0,B|24:304|8:200,2,160
168,264,23699,1,2
168,120,24164,1,4
256,328,24862,5,0
256,192,25327,1,0
256,56,25792,1,4
400,56,26257,2,0,B|488:80|504:184,2,160
344,120,27420,1,2
344,264,27885,1,4
176,232,28350,5,0
176,152,28583,1,0
24,72,29048,2,0,B|24:320,1,240
128,304,29978,5,8
384,304,30443,1,0
384,304,30676,1,8
256,40,31373,1,8
256,40,31606,1,8
336,152,32071,5,0
336,232,32304,1,0
488,312,32769,2,0,B|488:64,1,240
384,80,33699,5,8
128,80,34164,1,0
128,80,34397,1,8
256,344,35094,1,8
256,344,35327,1,8
75,299,35792,5,0
115,227,36025,1,0
256,160,36490,1,0
397,227,36955,1,0
437,299,37187,1,0
356,299,37420,1,4
256,312,52536,6,0,B|256:56,2,240
408,336,54397,5,0
480,304,54629,1,0
512,152,55094,1,4
408,48,55559,1,4
256,72,56257,6,0,B|256:328,2,240
104,48,58118,1,0
32,80,58350,1,0
0,232,58815,1,4
32,304,59048,1,0
104,336,59280,1,4
332,273,59978,6,0,B|355:284|434:298|451:200,1,160
448,128,60676,2,0,B|376:128|368:216,2,120,4|0|4
180,111,61839,6,0,B|156:100|78:86|61:184,1,160
64,256,62536,2,0,B|136:256|144:168,2,120,4|0|4
256,336,63699,5,0
256,192,64164,1,4
256,48,64629,1,0
400,120,65094,5,4
435,255,65559,2,0,B|369:351|139:351|68:247,1,400,0|8
368,152,67420,5,0
328,80,67653,1,0
184,80,68118,1,0
144,152,68350,1,0
24,184,68815,6,2,B|24:280|120:320,1,160
184,328,69513,1,0
328,328,69978,1,4
376,264,70211,1,0
424,328,70443,1,4
256,56,71141,5,0
192,104,71373,1,0
216,180,71606,1,0
296,180,71839,1,8
320,104,72071,1,8
464,192,72536,6,0,B|448:288|336:328,1,160
296,344,73234,1,0
240,288,73466,1,0
72,336,73932,2,2,B|0:216|72:104,1,240
256,40,75094,5,0
256,192,75559,1,0
416,192,76025,1,0
376,264,76257,1,4
136,264,76722,1,0
136,264,76955,1,0
136,264,77187,1,4
256,32,77652,1,0
256,32,77885,1,0
256,32,78118,2,4,B|72:32|0:216,1,320
168,192,79513,1,0
344,192,79978,1,4
256,56,80676,5,0
256,192,81141,1,0
256,328,81606,1,4
400,328,82071,2,0,B|488:304|504:200,2,160
344,264,83234,1,2
344,120,83699,1,4
256,328,84397,5,0
256,192,84862,1,0
256,56,85327,1,4
112,56,85792,2,0,B|24:80|8:184,2,160
168,120,86955,1,2
168,264,87420,1,4
336,232,87885,5,0
336,152,88118,1,0
488,72,88583,2,0,B|488:320,1,240
384,304,89513,5,8
128,304,89978,1,0
128,304,90211,1,8
256,40,90908,1,8
256,40,91141,1,8
176,152,91606,5,0
176,232,91839,1,0
24,312,92304,2,0,B|24:64,1,240
128,80,93234,5,8
384,80,93699,1,0
384,80,93932,1,8
256,344,94629,1,8
256,344,94862,1,8
80,192,95559,5,0
256,192,96025,1,0
432,192,96490,1,4
328,64,96955,2,0,B|253:-3|176:72,2,160
256,112,98118,1,2
256,272,98583,1,4
432,192,99280,5,0
256,192,99746,1,0
80,192,100211,1,4
184,320,100676,2,0,B|259:387|336:312,2,160
256,272,101839,1,2
256,112,102304,1,4
160,192,102769,5,0
0,192,103234,1,0
0,112,103466,2,2,B|80:8|224:24,1,240
320,24,104397,5,8
192,160,104862,1,0
192,160,105094,1,8
0,360,105792,1,8
0,360,106025,1,8
352,192,106490,5,0
512,192,106955,1,0
512,272,107187,2,2,B|432:376|288:360,1,240
192,360,108118,5,8
320,224,108583,1,0
320,224,108815,1,8
512,24,109513,1,8
512,24,109746,1,8
200,32,110211,6,0,B|8:32|0:256|80:336,1,400
414,351,111839,5,4
310,255,112304,1,0
310,255,112536,1,4
206,351,113001,1,0
206,351,113234,1,4
206,351,113466,1,0
102,255,113932,1,4
102,255,114164,1,0
368,192,114629,5,0
368,192,114862,1,0
98,33,115559,5,4
202,129,116025,1,0
202,129,116257,1,4
306,33,116722,1,0
306,33,116955,1,4
306,33,117187,1,0
410,129,117652,1,4
410,129,117885,1,0
256,368,118350,5,2
256,192,118815,1,2
168,64,126955,6,0,B|0:72|0:312|185:327,1,400
212,254,128350,1,0
344,320,128815,2,2,B|512:312|512:72|327:57,1,400
112,296,130676,6,0,B|8:192|116:82,2,240
344,352,132536,1,0
392,288,132769,1,2
344,224,133001,1,0
296,160,133234,1,2
344,96,133466,1,0
392,32,133699,1,4
180,111,134397,6,0,B|157:100|78:86|61:184,1,160
64,256,135094,2,0,B|136:256|144:168,2,120,0|0|4
332,273,136257,6,0,B|356:284|434:298|451:200,1,160
448,128,136955,2,0,B|376:128|368:216,2,120,0|0|4
256,48,138118,5,0
256,192,138583,1,4
256,336,139048,1,0
112,264,139513,5,4
77,129,139978,2,0,B|143:33|373:33|444:137,1,400,0|2
256,192,141839,5,0
256,272,142071,1,0
256,272,142304,1,0
256,352,142536,1,0
256,352,142769,1,0
32,192,143234,6,0,B|40:104|144:64,1,160
200,48,143932,1,0
360,72,144397,1,4
480,192,144862,1,4
256,352,145559,5,0
256,352,145792,1,0
256,192,146257,1,0
256,192,146490,1,0
72,160,146955,6,0,B|88:64|184:40,1,160
248,40,147652,1,0
320,72,147885,1,4
464,192,148350,2,0,B|456:336|304:360,1,240,4|0
256,192,149513,5,0
160,336,149978,1,0
160,336,150211,1,0
112,264,150443,1,0
112,264,150676,1,4
400,264,151141,1,0
400,264,151373,1,0
400,264,151606,1,4
256,40,152071,1,0
256,40,152304,1,0
256,40,152536,2,4,B|72:40,3,160
16,176,154397,1,4
112,360,155094,5,0
256,280,155559,1,0
400,360,156025,1,4
400,192,156490,1,0
352,128,156722,1,8
280,96,156955,2,8,B|176:88|112:176,1,160
80,208,157652,1,2
8,344,158118,1,4
256,368,158583,5,0
256,288,158815,1,0
256,152,159280,1,0
256,24,159746,1,4
416,72,160211,1,0
480,120,160443,1,8
416,168,160676,2,8,B|384:200|416:240|416:240|448:288|408:328,1,160
344,280,161373,1,2
168,280,161839,1,4
376,24,162304,5,0
376,104,162536,1,0
208,104,163001,2,2,B|80:104|16:248,1,240
40,312,163932,1,4
208,360,164397,5,0
336,264,164862,1,0
208,160,165327,1,0
336,56,165792,1,4
256,32,166025,5,0
184,64,166257,1,0
32,184,166722,2,0,B|48:328|200:360,1,240
256,328,167652,5,8
320,216,168118,1,0
320,216,168350,1,8
192,144,168815,1,0
192,144,169048,1,8
192,144,169280,1,8
400,24,169978,5,0
256,104,170443,1,0
112,24,170908,1,4
112,192,171373,1,0
160,256,171606,1,8
232,288,171839,2,8,B|336:296|400:208,1,160
432,176,172536,1,2
504,40,173001,1,4
256,16,173466,5,0
256,96,173699,1,0
256,232,174164,1,0
256,360,174629,1,4
96,312,175094,1,0
32,264,175327,1,8
96,216,175559,2,8,B|128:184|96:144|96:144|64:96|104:56,1,160
168,104,176257,1,2
344,104,176722,1,4
136,360,177187,5,0
136,280,177420,1,0
304,280,177885,2,2,B|432:280|496:136,1,240
472,72,178815,1,0
304,24,179280,5,0
176,120,179746,1,0
304,224,180211,1,0
176,328,180676,1,4
256,352,180908,5,0
328,320,181141,1,0
480,200,181606,2,0,B|464:56|312:24,1,240
256,24,182536,2,4,B|120:32|48:152,2,240
256,104,184164,1,8
256,192,184397,12,4,186257
